请选择 进入手机版 | 继续访问电脑版
 找回密码

3D一族论坛

查看: 3910|回复: 122

[720P] [疾速追杀 John.Wick.2014.720p/1080p.BluRay.x264.DTS-RARBG][4.98G/7.17G][BT][外挂中简字幕]

  [复制链接]
  • TA的每日心情
    开心
    6 天前
  • 签到天数: 1664 天

    [LV.Master]伴坛终老

    发表于 2015-2-7 11:03:35 | 显示全部楼层 |阅读模式
    John-Wick-Blu-ray-poster.jpg

    image-BD3F_54B89566.jpg

    0c3f7ebc3fce053a211eb8493669c3d8.jpg


    ◎译  名 疾速追杀/约翰·威克/杀神(港)/捍卫任务(台)
    ◎片  名 John Wick
    ◎年  代 2014
    ◎国  家 美国
    ◎类  别 动作/惊悚
    ◎语  言 英语
    ◎字  幕 外挂中简字幕/中英字幕
    ◎上映日期 2014-10-24(美国)
    ◎IMDB评分 7.3/10 from 76,498 users
    ◎IMDB链接 http://www.imdb.com/title/tt2911666/
    ◎片  长 1h 41m 12s
    ◎导  演 大卫·里奇
           查德·史塔赫斯基
    ◎编  剧 Derek Kolstad
    ◎主  演 基努·里维斯 Keanu Reeves ... John Wick
           迈克尔·恩奎斯特 Michael Nyqvist ... Viggo Tarasov
           阿尔菲·艾伦 Alfie Allen ... Iosef Tarasov
           威廉·达福 Willem Dafoe ... Marcus
           迪恩·文特斯 Dean Winters ... Avi
           阿德琳妮·帕里奇 Adrianne Palicki ... Ms. Perkins
           Omer Barnea ... Gregori
           Toby Moore ... Victor
           丹尼尔·伯恩哈特 Daniel Bernhardt ... Kirill
           布丽姬·穆娜 Bridget Moynahan ... Helen
           约翰·雷吉扎莫 John Leguizamo ... Aureilo
           伊恩·麦柯肖恩 Ian McShane ... Winston
           布里吉特·瑞根 Bridget Regan ... Addy
           兰斯·莱迪克 Lance Reddick ... Hotel Manager / Charon
           凯斯·贾迪恩 Keith Jardine ... Kuzma


    ◎简  介

      不久之前刚刚经历丧妻之痛的约翰·威克(基努·里维斯 Keanu Reeves 饰),未曾料到磨难与折磨接二连三袭来。他那辆1964年的福特老爷车被一伙俄罗斯小混混盯上,旋即引来对方入室抢劫,心爱的狗狗被当场杀死,约翰也遭到无情毒打,那辆老爷车自然被对方抢走。偷车的混混(阿尔菲·艾伦 Alfie Allen 饰)是黑帮大佬维格•塔拉索夫(迈克尔·恩奎斯特 Michael Nyqvist 饰)的儿子,而维格在听说这件事后显得紧张非常,因为约翰有着令人胆战心惊的身份。他曾是名震江湖的冷血杀手,当年替塔拉索夫杀掉不少难缠的对手,后来却为了妻子金盆洗手。
      愤怒至极的约翰拒绝塔拉索夫的调解,他决定单枪匹马展开复仇……




    Video
    ID                                       : 1
    Format                                   : AVC
    Format/Info                              : Advanced Video Codec
    Format profile                           : High@L4.1
    Format settings, CABAC                   : Yes
    Format settings, ReFrames                : 5 frames
    Codec ID                                 : V_MPEG4/ISO/AVC
    Duration                                 : 1h 41mn
    Bit rate                                 : 5 537 Kbps
    Width                                    : 1 280 pixels
    Height                                   : 536 pixels
    Display aspect ratio                     : 2.40:1
    Frame rate mode                          : Constant
    Frame rate                               : 23.976 fps
    Color space                              : YUV
    Chroma subsampling                       : 4:2:0
    Bit depth                                : 8 bits
    Scan type                                : Progressive
    Bits/(Pixel*Frame)                       : 0.337
    Stream size                              : 3.82 GiB (77%)
    Title                                    : John.Wick.2014.720p.BluRay.x264.DTS-RARBG
    Writing library                          : x264 core 144 r2525 40bb568
    Encoding settings                        : cabac=1 / ref=5 / deblock=1:0:0 / analyse=0x3:0x133 / me=umh / subme=7 / psy=1 / psy_rd=1.00:0.00 / mixed_ref=1 / me_range=16 / chroma_me=1 / trellis=1 / 8x8dct=1 / cqm=0 / deadzone=21,11 / fast_pskip=0 / chroma_qp_offset=-2 / threads=60 / lookahead_threads=4 / sliced_threads=0 / nr=0 / decimate=1 / interlaced=0 / bluray_compat=0 / constrained_intra=0 / bframes=3 / b_pyramid=2 / b_adapt=1 / b_bias=0 / direct=1 / weightb=1 / open_gop=0 / weightp=2 / keyint=250 / keyint_min=23 / scenecut=40 / intra_refresh=0 / rc_lookahead=40 / rc=2pass / mbtree=1 / bitrate=5537 / ratetol=1.0 / qcomp=0.60 / qpmin=0 / qpmax=69 / qpstep=4 / cplxblur=20.0 / qblur=0.5 / ip_ratio=1.40 / aq=1:1.00
    Language                                 : English
    Default                                  : Yes
    Forced                                   : No

    Audio
    ID                                       : 2
    Format                                   : DTS
    Format/Info                              : Digital Theater Systems
    Mode                                     : 16
    Format settings, Endianness              : Big
    Codec ID                                 : A_DTS
    Duration                                 : 1h 41mn
    Bit rate mode                            : Constant
    Bit rate                                 : 1 509 Kbps
    Channel(s)                               : 6 channels
    Channel positions                        : Front: L C R, Side: L R, LFE
    Sampling rate                            : 48.0 KHz
    Bit depth                                : 24 bits
    Compression mode                         : Lossy
    Stream size                              : 1.07 GiB (21%)
    Title                                    : John.Wick.2014.720p.BluRay.x264.DTS-RARBG
    Language                                 : English
    Default                                  : Yes
    Forced                                   : No

    Text #1
    ID                                       : 3
    Format                                   : UTF-8
    Codec ID                                 : S_TEXT/UTF8
    Codec ID/Info                            : UTF-8 Plain Text
    Language                                 : English
    Default                                  : Yes
    Forced                                   : No

    Text #2
    ID                                       : 4
    Format                                   : UTF-8
    Codec ID                                 : S_TEXT/UTF8
    Codec ID/Info                            : UTF-8 Plain Text
    Title                                    : SDH
    Language                                 : English
    Default                                  : No
    Forced                                   : No


    10.th.jpg 9.th.jpg

    8.th.jpg 7.th.jpg

    6.th.jpg 5.th.jpg

    5.5.th.jpg 4.th.jpg

    3.th.jpg 2.th.jpg

    1.th.jpg 11.th.jpg

    游客,如果您要查看本帖隐藏内容请回复




    Video
    ID                                       : 1
    Format                                   : AVC
    Format/Info                              : Advanced Video Codec
    Format profile                           : High@L4.1
    Format settings, CABAC                   : Yes
    Format settings, ReFrames                : 5 frames
    Codec ID                                 : V_MPEG4/ISO/AVC
    Duration                                 : 1h 41mn
    Bit rate                                 : 8 631 Kbps
    Width                                    : 1 920 pixels
    Height                                   : 800 pixels
    Display aspect ratio                     : 2.40:1
    Frame rate mode                          : Constant
    Frame rate                               : 23.976 fps
    Color space                              : YUV
    Chroma subsampling                       : 4:2:0
    Bit depth                                : 8 bits
    Scan type                                : Progressive
    Bits/(Pixel*Frame)                       : 0.234
    Stream size                              : 5.96 GiB (83%)
    Title                                    : John.Wick.2014.1080p.BluRay.x264.DTS-RARBG
    Writing library                          : x264 core 144 r2525 40bb568
    Encoding settings                        : cabac=1 / ref=5 / deblock=1:0:0 / analyse=0x3:0x133 / me=umh / subme=7 / psy=1 / psy_rd=1.00:0.00 / mixed_ref=1 / me_range=16 / chroma_me=1 / trellis=1 / 8x8dct=1 / cqm=0 / deadzone=21,11 / fast_pskip=0 / chroma_qp_offset=-2 / threads=60 / lookahead_threads=6 / sliced_threads=0 / nr=0 / decimate=1 / interlaced=0 / bluray_compat=0 / constrained_intra=0 / bframes=3 / b_pyramid=2 / b_adapt=1 / b_bias=0 / direct=1 / weightb=1 / open_gop=0 / weightp=2 / keyint=250 / keyint_min=23 / scenecut=40 / intra_refresh=0 / rc_lookahead=40 / rc=2pass / mbtree=1 / bitrate=8631 / ratetol=1.0 / qcomp=0.60 / qpmin=0 / qpmax=69 / qpstep=4 / cplxblur=20.0 / qblur=0.5 / ip_ratio=1.40 / aq=1:1.00
    Language                                 : English
    Default                                  : Yes
    Forced                                   : No

    Audio
    ID                                       : 2
    Format                                   : DTS
    Format/Info                              : Digital Theater Systems
    Mode                                     : 16
    Format settings, Endianness              : Big
    Codec ID                                 : A_DTS
    Duration                                 : 1h 41mn
    Bit rate mode                            : Constant
    Bit rate                                 : 1 509 Kbps
    Channel(s)                               : 6 channels
    Channel positions                        : Front: L C R, Side: L R, LFE
    Sampling rate                            : 48.0 KHz
    Bit depth                                : 24 bits
    Compression mode                         : Lossy
    Stream size                              : 1.07 GiB (15%)
    Title                                    : John.Wick.2014.1080p.BluRay.x264.DTS-RARBG
    Language                                 : English
    Default                                  : Yes
    Forced                                   : No

    Text #1
    ID                                       : 3
    Format                                   : UTF-8
    Codec ID                                 : S_TEXT/UTF8
    Codec ID/Info                            : UTF-8 Plain Text
    Language                                 : English
    Default                                  : Yes
    Forced                                   : No

    Text #2
    ID                                       : 4
    Format                                   : UTF-8
    Codec ID                                 : S_TEXT/UTF8
    Codec ID/Info                            : UTF-8 Plain Text
    Title                                    : SDH
    Language                                 : English
    Default                                  : No
    Forced                                   : No



    游客,如果您要查看本帖隐藏内容请回复

    中简字幕
    游客,如果您要查看本帖隐藏内容请回复

    中英字幕
    游客,如果您要查看本帖隐藏内容请回复

  • TA的每日心情
    擦汗
    2015-3-26 23:25
  • 签到天数: 57 天

    [LV.5]常住居民I

    发表于 2015-2-7 11:12:18 | 显示全部楼层
    听名字就值得一看。
    回复 支持 反对

    使用道具 举报

  • TA的每日心情
    开心
    昨天 23:14
  • 签到天数: 1605 天

    [LV.Master]伴坛终老

    发表于 2015-2-7 13:01:34 | 显示全部楼层
    谢谢楼主分享
    回复 支持 反对

    使用道具 举报

  • TA的每日心情
    开心
    6 天前
  • 签到天数: 329 天

    [LV.8]以坛为家III

    发表于 2015-2-7 13:09:15 | 显示全部楼层
    吉叔叔与老了
    回复 支持 反对

    使用道具 举报

  • TA的每日心情

    2016-9-22 16:13
  • 签到天数: 613 天

    [LV.9]以坛为家II

    发表于 2015-2-7 14:57:47 | 显示全部楼层

    RE: [疾速追杀 John.Wick.2014.720p/1080p.BluRay.x264.DTS-RARBG][4.98G/7.17G][BT][外挂中简

    RE: [疾速追杀 John.Wick.2014.720p/1080p.BluRay
    回复 支持 反对

    使用道具 举报

  • TA的每日心情
    奋斗
    2015-6-15 10:10
  • 签到天数: 539 天

    [LV.9]以坛为家II

    发表于 2015-2-7 15:42:25 | 显示全部楼层
    谢谢楼主。
    回复 支持 反对

    使用道具 举报

  • TA的每日心情
    开心
    2016-7-16 12:36
  • 签到天数: 231 天

    [LV.7]常住居民III

    发表于 2015-2-7 16:43:23 | 显示全部楼层
    down load && see
    回复 支持 反对

    使用道具 举报

    匿名  发表于 2015-2-7 20:54:07
    ddddddddddddddd
  • TA的每日心情
    开心
    2017-1-12 21:13
  • 签到天数: 125 天

    [LV.7]常住居民III

    发表于 2015-2-7 20:55:25 | 显示全部楼层
    ddddddddddddddddddd
    回复 支持 反对

    使用道具 举报

  • TA的每日心情
    擦汗
    2016-9-23 16:37
  • 签到天数: 641 天

    [LV.9]以坛为家II

    发表于 2015-2-7 20:58:55 | 显示全部楼层
    感谢楼主的大力支持
    回复 支持 反对

    使用道具 举报

    高级模式
    B Color Image Link Quote Code Smilies

    本版积分规则

    免责申明|小黑屋|手机版|Archiver|网站地图| 3D一族论坛  

    Copyright © 2001-2015 Comsenz Inc.   All Rights Reserved.

    Powered by Discuz! X3.2( 沪ICP备14045620号-1 )

    快速回复 返回顶部 返回列表