请选择 进入手机版 | 继续访问电脑版
 找回密码

3D一族论坛

查看: 13146|回复: 1304

[左右] [阿凡达3D(加长版) Avatar.2009.EXTENDED.3D][1080p][左右半宽/上下半高][MKV 26.12G/26.8G][BT][中简字幕]

  [复制链接]
  • TA的每日心情
    开心
    昨天 14:21
  • 签到天数: 1665 天

    [LV.Master]伴坛终老

    发表于 2015-7-3 10:39:55 | 显示全部楼层 |阅读模式
    影片截图:

    data/attachment/forum/201507/03/103006zs2fu490r4fi0999.jpg

         
      片        名: Avatar.2009.EXTENDED.3D
      译        名: 阿凡达/天神下凡/化身/异次元战神/神之化身
      类        别: 动作 科幻 冒险 
      国        家: 欧美
      语        言: 英语
      字        幕: 中文字幕
      集        数:
      文件格式: MKV
      视频尺寸: 1920*1080
      文件大小: 26.12GB/26.8GB
      上映时间: 2009-12-10(伦敦首映)/2009-12-18(美国)/2010-01-04(中国大陆)
      影片导演: 詹姆斯·卡梅隆 James Cameron
      主要演员: 萨姆·沃辛顿 Sam Worthington
        佐伊·索尔达娜 Zoe Saldana
        西格妮·韦弗 Sigourney Weaver
      推荐等级: ★★★★★
         
    下载地址:
    [下载方式]: bt下载
    [分辨率]: 1080p
    [迅雷地址]:
    [网盘下载]:
    影片简介: fangfang
    战斗中负伤而下身瘫痪的前海军战士杰克•萨利(萨姆•沃辛顿 Sam Worthington 饰)决定替死去的同胞哥哥来到潘多拉星操纵格蕾丝博士(西格妮•韦弗 Sigourney Weaver 饰)用人类基因与当地纳美部族基因结合创造出的 “阿凡达” 混血生物。杰克的目的是打入纳美部落,外交说服他们自愿离开世代居住的家园,从而SecFor公司可砍伐殆尽该地区的原始森林,开采地下昂贵的“不可得”矿。在探索潘多拉星的过程中,杰克遇到了纳美部落的公主娜蒂瑞(佐伊•索尔达娜 Zoe Saldana 饰),向她学习了纳美人的生存技能与对待自然的态度。与此同时,SecFor公司的经理和军方代表上校迈尔斯(史蒂芬•朗 Stephen Lang 饰)逐渐丧失耐心,决定诉诸武力驱赶纳美人……
      本片采用3D技术拍摄,共耗资5亿美元制作发行,是电影史上最为昂贵的作品。本片荣获第82届奥斯卡最佳摄影、最佳视觉效果、最佳艺术指导等3项大奖。

    151800yxi51qphhpi5hl5y.jpg


    96218244557533005621.jpg


    5470691520101113142818041.jpg

    ◎译  名 阿凡达/天神下凡/化身/异次元战神/神之化身

    ◎片  名 Avatar

    ◎年  代 2009

    ◎国  家 美国/英国

    ◎类  别 动作/冒险/奇幻/科幻

    ◎语  言 英语/西班牙语

    ◎上映日期 2009-12-10(伦敦首映)/2009-12-18(美国)/2010-01-04(中国大陆)

    ◎IMDb评分  7.9/10 from 793,790 users

    ◎IMDb链接  http://www.imdb.com/title/tt0499549/

    ◎豆瓣评分 8.6/10 from 417,461 users

    ◎豆瓣链接 http://movie.douban.com/subject/1652587/

    ◎片  长 162 分钟/171分钟(特别版)/178 分钟(加长版)

    ◎导  演 詹姆斯·卡梅隆 James Cameron

    ◎主  演 萨姆·沃辛顿 Sam Worthington

          佐伊·索尔达娜 Zoe Saldana

          西格妮·韦弗 Sigourney Weaver

          史蒂芬·朗 Stephen Lang

          米歇尔·罗德里格兹 Michelle Rodriguez

          乔·大卫·摩尔  Joel David Moore

          乔瓦尼·瑞比西 Giovanni Ribisi

    ◎简  介

      战斗中负伤而下身瘫痪的前海军战士杰克•萨利(萨姆•沃辛顿 Sam Worthington 饰)决定替死去的同胞哥哥来到潘多拉星操纵格蕾丝博士(西格妮•韦弗 Sigourney Weaver 饰)用人类基因与当地纳美部族基因结合创造出的 “阿凡达” 混血生物。杰克的目的是打入纳美部落,外交说服他们自愿离开世代居住的家园,从而SecFor公司可砍伐殆尽该地区的原始森林,开采地下昂贵的“不可得”矿。在探索潘多拉星的过程中,杰克遇到了纳美部落的公主娜蒂瑞(佐伊•索尔达娜 Zoe Saldana 饰),向她学习了纳美人的生存技能与对待自然的态度。与此同时,SecFor公司的经理和军方代表上校迈尔斯(史蒂芬•朗 Stephen Lang 饰)逐渐丧失耐心,决定诉诸武力驱赶纳美人……

      本片采用3D技术拍摄,共耗资5亿美元制作发行,是电影史上最为昂贵的作品。本片荣获第82届奥斯卡最佳摄影、最佳视觉效果、最佳艺术指导等3项大奖。

    ◎获奖情况

      第82届奥斯卡金像奖 (2010)

      最佳影片(提名) 詹姆斯·卡梅隆 / 乔恩·兰道

      最佳导演(提名) 詹姆斯·卡梅隆

      最佳摄影 Mauro Fiore

      最佳剪辑(提名) 詹姆斯·卡梅隆 / Stephen E. Rivkin / John Refoua

      最佳视觉效果 斯蒂芬·罗森包姆 / 乔·莱特瑞 / Richard Baneham / Andrew R. Jones

      最佳音效剪辑(提名) Gwendolyn Yates Whittle / 克里斯托弗·博伊斯

      最佳混音(提名) Andy Nelson / Gary Summers / 克里斯托弗·博伊斯 / 托尼·约翰逊

      最佳美术指导 Kim Sinclair / 瑞克·卡特 / 罗伯特·斯特罗姆伯格

      最佳原创配乐(提名) 詹姆斯·霍纳

      第67届威尼斯电影节 (2010)

      3-D电影奖 年度最具创意立体电影 詹姆斯·卡梅隆

      第67届金球奖 (2010)

      电影类 最佳剧情片

      电影类 最佳导演 詹姆斯·卡梅隆

      电影类 最佳原创配乐(提名) 詹姆斯·霍纳

      电影类 最佳原创歌曲(提名) Simon Franglen / 詹姆斯·霍纳 / Kuk Harrell

      第34届日本电影学院奖 (2011)

      最佳外语片

      第19届MTV电影奖 (2010)

      MTV电影奖 年度电影(提名)

      MTV电影奖 最佳女演员(提名) 佐伊·索尔达娜

      MTV电影奖 最佳吻戏(提名) 佐伊·索尔达娜 / 萨姆·沃辛顿

      MTV电影奖 最佳打斗(提名) 史蒂芬·朗 / 萨姆·沃辛顿

      MTV电影奖 最佳反派(提名) 史蒂芬·朗

      第14届中国电影华表奖 (2011)

      优秀译制片奖

      第75届纽约影评人协会奖 (2009)

      最佳摄影(提名) Mauro Fiore

      第14届圣地亚哥影评人协会奖 (2009)

      最佳导演(提名) 詹姆斯·卡梅隆

      第22届芝加哥影评人协会奖 (2009)

      最佳摄影(提名) Mauro Fiore

      最佳原创配乐(提名) 詹姆斯·霍纳

      第9届凤凰城影评人协会奖 (2009)

      最佳摄影 Mauro Fiore

      最佳剪辑 詹姆斯·卡梅隆 / Stephen E. Rivkin / John Refoua

      最佳艺术指导 罗伯特·斯特罗姆伯格 / 瑞克·卡特

      最佳视觉效果

      第35届报知映画赏 (2010)

      海外作品奖 詹姆斯·卡梅隆

      第12届美国青少年选择奖 (2010)

      最佳科幻电影

      最佳科幻电影男演员 萨姆·沃辛顿

      最佳科幻电影女演员 佐伊·索尔达娜

      最佳电影反派(提名) 史蒂芬·朗

      最佳电影打斗(提名) 史蒂芬·朗 / 萨姆·沃辛顿

      Choice Movie: Hissy Fit(提名) 乔瓦尼·瑞比西



    Video
    ID                                       : 1
    Format                                   : AVC
    Format/Info                              : Advanced Video Codec
    Format profile                           : High@L4.1
    Format settings, CABAC                   : Yes
    Format settings, ReFrames                : 2 frames
    Codec ID                                 : V_MPEG4/ISO/AVC
    Duration                                 : 2h 57mn
    Width                                    : 1 920 pixels
    Height                                   : 1 080 pixels
    Display aspect ratio                     : 16:9
    Frame rate mode                          : Constant
    Frame rate                               : 23.976 fps
    Color space                              : YUV
    Chroma subsampling                       : 4:2:0
    Bit depth                                : 8 bits
    Scan type                                : Progressive
    Title                                    : Avatar.2009.EXTENDED.1080p.3D.BluRay.Half-SBS.x264.DTS-HD.MA.5.1-RARBG
    Language                                 : English
    Default                                  : Yes
    Forced                                   : No
    Color range                              : Limited
    Color primaries                          : BT.709
    Transfer characteristics                 : BT.709
    Matrix coefficients                      : BT.709

    Audio #1
    ID                                       : 2
    Format                                   : DTS
    Format/Info                              : Digital Theater Systems
    Format profile                           : MA / Core
    Mode                                     : 16
    Format settings, Endianness              : Big
    Codec ID                                 : A_DTS
    Duration                                 : 2h 57mn
    Bit rate mode                            : Variable
    Bit rate                                 : Unknown / 1 509 Kbps
    Channel(s)                               : 6 channels
    Channel positions                        : Front: L C R, Side: L R, LFE
    Sampling rate                            : 48.0 KHz
    Bit depth                                : 24 bits
    Compression mode                         : Lossless / Lossy
    Delay relative to video                  : 4ms
    Title                                    : Avatar.2009.EXTENDED.1080p.3D.BluRay.Half-SBS.x264.DTS-HD.MA.5.1-RARBG
    Language                                 : English
    Default                                  : Yes
    Forced                                   : No

    Audio #2
    ID                                       : 3
    Format                                   : DTS
    Format/Info                              : Digital Theater Systems
    Mode                                     : 16
    Format settings, Endianness              : Big
    Codec ID                                 : A_DTS
    Duration                                 : 2h 57mn
    Bit rate mode                            : Constant
    Bit rate                                 : 1 509 Kbps
    Channel(s)                               : 6 channels
    Channel positions                        : Front: L C R, Side: L R, LFE
    Sampling rate                            : 48.0 KHz
    Bit depth                                : 24 bits
    Compression mode                         : Lossy
    Delay relative to video                  : 4ms
    Stream size                              : 1.88 GiB (7%)
    Title                                    : Avatar.2009.EXTENDED.1080p.3D.BluRay.Half-SBS.x264.DTS-HD.MA.5.1-RARBG
    Language                                 : English
    Default                                  : No
    Forced                                   : No

    Text #1
    ID                                       : 4
    Format                                   : PGS
    Muxing mode                              : zlib
    Codec ID                                 : S_HDMV/PGS
    Codec ID/Info                            : Picture based subtitle format used on BDs/HD-DVDs
    Language                                 : English
    Default                                  : No
    Forced                                   : No

    Text #2
    ID                                       : 5
    Format                                   : PGS
    Muxing mode                              : zlib
    Codec ID                                 : S_HDMV/PGS
    Codec ID/Info                            : Picture based subtitle format used on BDs/HD-DVDs
    Language                                 : English
    Default                                  : No
    Forced                                   : No


    95752172484676339950_thumb.jpg

    57702187314512427590_thumb.jpg

    25163587669392203201_thumb.jpg

    12064069320802865309_thumb.jpg

    07192613385178179064_thumb.jpg

    游客,如果您要查看本帖隐藏内容请回复


    Video
    ID                                       : 1
    Format                                   : AVC
    Format/Info                              : Advanced Video Codec
    Format profile                           : High@L4.1
    Format settings, CABAC                   : Yes
    Format settings, ReFrames                : 2 frames
    Codec ID                                 : V_MPEG4/ISO/AVC
    Duration                                 : 2h 57mn
    Width                                    : 1 920 pixels
    Height                                   : 1 080 pixels
    Display aspect ratio                     : 16:9
    Frame rate mode                          : Constant
    Frame rate                               : 23.976 fps
    Color space                              : YUV
    Chroma subsampling                       : 4:2:0
    Bit depth                                : 8 bits
    Scan type                                : Progressive
    Title                                    : Avatar.2009.EXTENDED.1080p.3D.BluRay.Half-OU.x264.DTS-HD.MA.5.1-RARBG
    Language                                 : English
    Default                                  : Yes
    Forced                                   : No
    Color range                              : Limited
    Color primaries                          : BT.709
    Transfer characteristics                 : BT.709
    Matrix coefficients                      : BT.709

    Audio #1
    ID                                       : 2
    Format                                   : DTS
    Format/Info                              : Digital Theater Systems
    Format profile                           : MA / Core
    Mode                                     : 16
    Format settings, Endianness              : Big
    Codec ID                                 : A_DTS
    Duration                                 : 2h 57mn
    Bit rate mode                            : Variable
    Bit rate                                 : Unknown / 1 509 Kbps
    Channel(s)                               : 6 channels
    Channel positions                        : Front: L C R, Side: L R, LFE
    Sampling rate                            : 48.0 KHz
    Bit depth                                : 24 bits
    Compression mode                         : Lossless / Lossy
    Delay relative to video                  : 10ms
    Title                                    : Avatar.2009.EXTENDED.1080p.3D.BluRay.Half-OU.x264.DTS-HD.MA.5.1-RARBG
    Language                                 : English
    Default                                  : Yes
    Forced                                   : No

    Audio #2
    ID                                       : 3
    Format                                   : DTS
    Format/Info                              : Digital Theater Systems
    Mode                                     : 16
    Format settings, Endianness              : Big
    Codec ID                                 : A_DTS
    Duration                                 : 2h 57mn
    Bit rate mode                            : Constant
    Bit rate                                 : 1 509 Kbps
    Channel(s)                               : 6 channels
    Channel positions                        : Front: L C R, Side: L R, LFE
    Sampling rate                            : 48.0 KHz
    Bit depth                                : 24 bits
    Compression mode                         : Lossy
    Delay relative to video                  : 10ms
    Stream size                              : 1.88 GiB (7%)
    Title                                    : Avatar.2009.EXTENDED.1080p.3D.BluRay.Half-OU.x264.DTS-HD.MA.5.1-RARBG
    Language                                 : English
    Default                                  : No
    Forced                                   : No

    Text #1
    ID                                       : 4
    Format                                   : PGS
    Muxing mode                              : zlib
    Codec ID                                 : S_HDMV/PGS
    Codec ID/Info                            : Picture based subtitle format used on BDs/HD-DVDs
    Language                                 : English
    Default                                  : No
    Forced                                   : No

    Text #2
    ID                                       : 5
    Format                                   : PGS
    Muxing mode                              : zlib
    Codec ID                                 : S_HDMV/PGS
    Codec ID/Info                            : Picture based subtitle format used on BDs/HD-DVDs
    Language                                 : English
    Default                                  : No
    Forced                                   : No




    88905659323392502569_thumb.jpg

    55396978690674023806_thumb.jpg

    23983440654367819382_thumb.jpg

    12975338223969812051_thumb.jpg

    05629419095790571735_thumb.jpg


    游客,如果您要查看本帖隐藏内容请回复


    中简字幕
    游客,如果您要查看本帖隐藏内容请回复


  • TA的每日心情
    开心
    2016-12-3 00:36
  • 签到天数: 119 天

    [LV.6]常住居民II

    发表于 2015-7-3 11:20:01 | 显示全部楼层
    谢谢楼主分享!
    回复 支持 反对

    使用道具 举报

  • TA的每日心情
    开心
    2015-9-2 16:41
  • 签到天数: 87 天

    [LV.6]常住居民II

    发表于 2015-7-3 11:53:57 | 显示全部楼层
    谢谢楼主
    回复 支持 反对

    使用道具 举报

  • TA的每日心情
    开心
    2015-9-2 16:41
  • 签到天数: 87 天

    [LV.6]常住居民II

    发表于 2015-7-3 11:54:41 | 显示全部楼层
    谢谢楼主,需要观后
    回复 支持 反对

    使用道具 举报

  • TA的每日心情
    开心
    2015-9-2 16:41
  • 签到天数: 87 天

    [LV.6]常住居民II

    发表于 2015-7-3 11:56:13 | 显示全部楼层
    需要下载观看
    回复 支持 反对

    使用道具 举报

  • TA的每日心情
    奋斗
    2015-7-3 11:30
  • 签到天数: 22 天

    [LV.4]偶尔看看III

    发表于 2015-7-3 12:03:23 | 显示全部楼层
    我要看三d我要看三d我要看三d我要看三d
    回复 支持 反对

    使用道具 举报

  • TA的每日心情
    奋斗
    2017-2-22 12:17
  • 签到天数: 779 天

    [LV.10]以坛为家III

    发表于 2015-7-3 12:09:10 | 显示全部楼层
    支持精典老片
    回复 支持 反对

    使用道具 举报

    匿名  发表于 2015-7-3 13:56:02
    我想下载一部电影
    匿名  发表于 2015-7-3 13:56:04
    我想下载一部电影
    匿名  发表于 2015-7-3 13:56:07
    我想下载一部电影
    高级模式
    B Color Image Link Quote Code Smilies

    本版积分规则

    免责申明|小黑屋|手机版|Archiver|网站地图| 3D一族论坛  

    Copyright © 2001-2015 Comsenz Inc.   All Rights Reserved.

    Powered by Discuz! X3.2( 沪ICP备14045620号-1 )

    快速回复 返回顶部 返回列表