请选择 进入手机版 | 继续访问电脑版
 找回密码

3D一族论坛

查看: 5895|回复: 166

[左右] [心灵传输者3D Jumper.2008.3D][1080p][左右半宽/上下半高][MKV 14.72G/15.01G][BT][外挂中简字幕]

  [复制链接]
  • TA的每日心情
    开心
    2017-3-15 15:19
  • 签到天数: 1634 天

    [LV.Master]伴坛终老

    发表于 2015-7-7 19:00:02 | 显示全部楼层 |阅读模式
    影片截图:

    data/attachment/forum/201507/07/184909mcff632ubbc3ux6d.jpg

         
      片        名: Jumper.2008.3D
      译        名: 心灵传输者3D/空间跳跃者/移动世界/越空行者/时空骇客/穿梭者/凌越时空
      类        别: 动作 科幻 冒险 
      国        家: 欧美
      语        言: 英语
      字        幕: 中文字幕
      集        数:
      文件格式: MKV
      视频尺寸: 1920*1080
      文件大小: 14.72GB/15.01GB
      上映时间: 2008年2月14日 美国
      影片导演: 道格·里曼 Doug Liman
      主要演员: 海登·克里斯滕森 Hayden Christensen
        塞缪尔·杰克逊 Samuel L. Jackson
        杰米·贝尔 Jamie Bell
      推荐等级: ★★★★★
         
    下载地址:
    [下载方式]: bt下载
    [分辨率]: 1080p
    [迅雷地址]:
    [网盘下载]:
    影片简介: fangfang
    涩内向的15岁高中生戴维?莱斯(Max Thieriot 饰)拥有灰暗的童年,母亲在他5岁时离家出走,父亲则粗暴蛮横,他在学校里还经常受到同学的捉弄。某天,他不慎跌入冰窟中,却由此发现自己拥有心灵传输的神奇能力。这项能力可以让戴维凭借想象瞬间从一个地方转移到另一个地方,地与地之间从此没有障碍。
      在此之后,戴维离开家独自居住,并利用这段时间学习掌握心灵传输的技术,而他首要目标锁定在抢银行上。多年后,戴维(Hayden Christensen 饰)因此过上随心所欲、养尊处优的自在生活。然而他的好日子即将走到尽头,一个名叫“游侠”的神秘组织专门追踪具有心灵传输能力的异能者。戴维成了被追击的对象……
    d3ylPn8.jpg


    ◎译  名 
    心灵传输者/空间跳跃者/移动世界/越空行者/时空骇客/穿梭者/凌越时空
    ◎片  名 Jumper
    ◎年  代 2008
    ◎国  家 美国
    ◎类  别 动作/冒险/科幻/惊悚
    ◎语  言 英语
    ◎字  幕   外挂中简字幕
    ◎IMDB评分 6.1/10 from 222,617 users
    ◎IMDB链接 http://www.imdb.com/title/tt0489099/
    ◎片  长 1h 28mn
    ◎导  演 道格·里曼 Doug Liman
    ◎主  演 海登·克里斯滕森 Hayden Christensen
          塞缪尔·杰克逊 Samuel L. Jackson
          杰米·贝尔 Jamie Bell
          蕾切尔·比尔森 Rachel Bilson
          戴安·琳恩 Diane Lane
          克里斯汀·斯图尔特 Kristen Stewart

    ◎简  介 

      羞涩内向的15岁高中生戴维?莱斯(Max Thieriot 饰)拥有灰暗的童年,母亲在他5岁时离家出走,父亲则粗暴蛮横,他在学校里还经常受到同学的捉弄。某天,他不慎跌入冰窟中,却由此发现自己拥有心灵传输的神奇能力。这项能力可以让戴维凭借想象瞬间从一个地方转移到另一个地方,地与地之间从此没有障碍。
      在此之后,戴维离开家独自居住,并利用这段时间学习掌握心灵传输的技术,而他首要目标锁定在抢银行上。多年后,戴维(Hayden Christensen 饰)因此过上随心所欲、养尊处优的自在生活。然而他的好日子即将走到尽头,一个名叫“游侠”的神秘组织专门追踪具有心灵传输能力的异能者。戴维成了被追击的对象……

    ◎获奖情况

      第17届MTV电影奖 (2008)
      MTV电影奖 最佳打斗(提名) 杰米·贝尔 / 海登·克里斯滕森



    Video
    ID                                       : 1
    Format                                   : AVC
    Format/Info                              : Advanced Video Codec
    Format profile                           : High@L4.1
    Format settings, CABAC                   : Yes
    Format settings, ReFrames                : 2 frames
    Codec ID                                 : V_MPEG4/ISO/AVC
    Duration                                 : 1h 28mn
    Nominal bit rate                         : 15.5 Mbps
    Width                                    : 1 920 pixels
    Height                                   : 1 080 pixels
    Display aspect ratio                     : 16:9
    Frame rate mode                          : Constant
    Frame rate                               : 23.976 fps
    Color space                              : YUV
    Chroma subsampling                       : 4:2:0
    Bit depth                                : 8 bits
    Scan type                                : Progressive
    Bits/(Pixel*Frame)                       : 0.312
    Title                                    : Jumper.2008.1080p.3D.BluRay.Half-SBS.x264.DTS-HD.MA.5.1-RARBG
    Writing library                          : x264 core 142
    Encoding settings                        : cabac=1 / ref=1 / deblock=1:-1:-1 / analyse=0x3:0 / me=hex / subme=5 / psy=0 / mixed_ref=0 / me_range=16 / chroma_me=1 / trellis=0 / 8x8dct=1 / cqm=0 / deadzone=21,11 / fast_pskip=1 / chroma_qp_offset=0 / threads=8 / lookahead_threads=2 / sliced_threads=0 / nr=0 / decimate=1 / interlaced=0 / bluray_compat=0 / constrained_intra=0 / bframes=2 / b_pyramid=0 / b_adapt=1 / b_bias=0 / direct=1 / weightb=1 / open_gop=0 / weightp=0 / keyint=24 / keyint_min=13 / scenecut=40 / intra_refresh=0 / rc=abr / mbtree=0 / bitrate=15500 / ratetol=1.0 / qcomp=0.60 / qpmin=0 / qpmax=69 / qpstep=4 / ip_ratio=1.40 / pb_ratio=1.30 / aq=1:1.00
    Default                                  : Yes
    Forced                                   : No
    Color range                              : Limited
    Color primaries                          : BT.709
    Transfer characteristics                 : BT.709
    Matrix coefficients                      : BT.709

    Audio #1
    ID                                       : 2
    Format                                   : DTS
    Format/Info                              : Digital Theater Systems
    Format profile                           : MA / Core
    Mode                                     : 16
    Format settings, Endianness              : Big
    Codec ID                                 : A_DTS
    Duration                                 : 1h 28mn
    Bit rate mode                            : Variable
    Bit rate                                 : Unknown / 1 509 Kbps
    Channel(s)                               : 6 channels
    Channel positions                        : Front: L C R, Side: L R, LFE
    Sampling rate                            : 48.0 KHz
    Bit depth                                : 24 bits
    Compression mode                         : Lossless / Lossy
    Title                                    : Jumper.2008.1080p.3D.BluRay.Half-SBS.x264.DTS-HD.MA.5.1-RARBG
    Language                                 : English
    Default                                  : Yes
    Forced                                   : No

    Audio #2
    ID                                       : 3
    Format                                   : DTS
    Format/Info                              : Digital Theater Systems
    Mode                                     : 16
    Format settings, Endianness              : Big
    Codec ID                                 : A_DTS
    Duration                                 : 1h 28mn
    Bit rate mode                            : Constant
    Bit rate                                 : 1 509 Kbps
    Channel(s)                               : 6 channels
    Channel positions                        : Front: L C R, Side: L R, LFE
    Sampling rate                            : 48.0 KHz
    Bit depth                                : 24 bits
    Compression mode                         : Lossy
    Stream size                              : 953 MiB (6%)
    Title                                    : Jumper.2008.1080p.3D.BluRay.Half-SBS.x264.DTS-HD.MA.5.1-RARBG
    Language                                 : English
    Default                                  : No
    Forced                                   : No

    Audio #3
    ID                                       : 4
    Format                                   : DTS
    Format/Info                              : Digital Theater Systems
    Mode                                     : 16
    Format settings, Endianness              : Big
    Codec ID                                 : A_DTS
    Duration                                 : 1h 28mn
    Bit rate mode                            : Constant
    Bit rate                                 : 768 Kbps
    Channel(s)                               : 6 channels
    Channel positions                        : Front: L C R, Side: L R, LFE
    Sampling rate                            : 48.0 KHz
    Bit depth                                : 24 bits
    Compression mode                         : Lossy
    Stream size                              : 485 MiB (3%)
    Title                                    : Jumper.2008.1080p.3D.BluRay.Half-SBS.x264.DTS-HD.MA.5.1-RARBG
    Language                                 : Russian
    Default                                  : No
    Forced                                   : No

    Audio #4
    ID                                       : 5
    Format                                   : AC-3
    Format/Info                              : Audio Coding 3
    Mode extension                           : CM (complete main)
    Format settings, Endianness              : Big
    Codec ID                                 : A_AC3
    Duration                                 : 1h 28mn
    Bit rate mode                            : Constant
    Bit rate                                 : 448 Kbps
    Channel(s)                               : 6 channels
    Channel positions                        : Front: L C R, Side: L R, LFE
    Sampling rate                            : 48.0 KHz
    Bit depth                                : 16 bits
    Compression mode                         : Lossy
    Stream size                              : 283 MiB (2%)
    Title                                    : Jumper.2008.1080p.3D.BluRay.Half-SBS.x264.DTS-HD.MA.5.1-RARBG
    Language                                 : Czech
    Default                                  : No
    Forced                                   : No

    Audio #5
    ID                                       : 6
    Format                                   : AC-3
    Format/Info                              : Audio Coding 3
    Mode extension                           : CM (complete main)
    Format settings, Endianness              : Big
    Codec ID                                 : A_AC3
    Duration                                 : 1h 28mn
    Bit rate mode                            : Constant
    Bit rate                                 : 448 Kbps
    Channel(s)                               : 6 channels
    Channel positions                        : Front: L C R, Side: L R, LFE
    Sampling rate                            : 48.0 KHz
    Bit depth                                : 16 bits
    Compression mode                         : Lossy
    Stream size                              : 283 MiB (2%)
    Title                                    : Jumper.2008.1080p.3D.BluRay.Half-SBS.x264.DTS-HD.MA.5.1-RARBG
    Language                                 : Hungarian
    Default                                  : No
    Forced                                   : No

    Audio #6
    ID                                       : 7
    Format                                   : AC-3
    Format/Info                              : Audio Coding 3
    Mode extension                           : CM (complete main)
    Format settings, Endianness              : Big
    Codec ID                                 : A_AC3
    Duration                                 : 1h 28mn
    Bit rate mode                            : Constant
    Bit rate                                 : 448 Kbps
    Channel(s)                               : 6 channels
    Channel positions                        : Front: L C R, Side: L R, LFE
    Sampling rate                            : 48.0 KHz
    Bit depth                                : 16 bits
    Compression mode                         : Lossy
    Stream size                              : 283 MiB (2%)
    Title                                    : Jumper.2008.1080p.3D.BluRay.Half-SBS.x264.DTS-HD.MA.5.1-RARBG
    Language                                 : Polish
    Default                                  : No
    Forced                                   : No

    Audio #7
    ID                                       : 8
    Format                                   : AC-3
    Format/Info                              : Audio Coding 3
    Mode extension                           : CM (complete main)
    Format settings, Endianness              : Big
    Codec ID                                 : A_AC3
    Duration                                 : 1h 28mn
    Bit rate mode                            : Constant
    Bit rate                                 : 448 Kbps
    Channel(s)                               : 6 channels
    Channel positions                        : Front: L C R, Side: L R, LFE
    Sampling rate                            : 48.0 KHz
    Bit depth                                : 16 bits
    Compression mode                         : Lossy
    Stream size                              : 283 MiB (2%)
    Title                                    : Jumper.2008.1080p.3D.BluRay.Half-SBS.x264.DTS-HD.MA.5.1-RARBG
    Language                                 : Turkish
    Default                                  : No
    Forced                                   : No

    Audio #8
    ID                                       : 9
    Format                                   : AC-3
    Format/Info                              : Audio Coding 3
    Mode extension                           : CM (complete main)
    Format settings, Endianness              : Big
    Codec ID                                 : A_AC3
    Duration                                 : 1h 28mn
    Bit rate mode                            : Constant
    Bit rate                                 : 448 Kbps
    Channel(s)                               : 6 channels
    Channel positions                        : Front: L C R, Side: L R, LFE
    Sampling rate                            : 48.0 KHz
    Bit depth                                : 16 bits
    Compression mode                         : Lossy
    Stream size                              : 283 MiB (2%)
    Title                                    : Jumper.2008.1080p.3D.BluRay.Half-SBS.x264.DTS-HD.MA.5.1-RARBG
    Language                                 : Ukrainian
    Default                                  : No
    Forced                                   : No

    Text #1
    ID                                       : 10
    Format                                   : PGS
    Muxing mode                              : zlib
    Codec ID                                 : S_HDMV/PGS
    Codec ID/Info                            : Picture based subtitle format used on BDs/HD-DVDs
    Language                                 : English
    Default                                  : No
    Forced                                   : No

    Text #2
    ID                                       : 11
    Format                                   : PGS
    Muxing mode                              : zlib
    Codec ID                                 : S_HDMV/PGS
    Codec ID/Info                            : Picture based subtitle format used on BDs/HD-DVDs
    Language                                 : Russian
    Default                                  : No
    Forced                                   : No

    Text #3
    ID                                       : 12
    Format                                   : PGS
    Muxing mode                              : zlib
    Codec ID                                 : S_HDMV/PGS
    Codec ID/Info                            : Picture based subtitle format used on BDs/HD-DVDs
    Language                                 : Arabic
    Default                                  : No
    Forced                                   : No

    Text #4
    ID                                       : 13
    Format                                   : PGS
    Muxing mode                              : zlib
    Codec ID                                 : S_HDMV/PGS
    Codec ID/Info                            : Picture based subtitle format used on BDs/HD-DVDs
    Language                                 : Bulgarian
    Default                                  : No
    Forced                                   : No

    Text #5
    ID                                       : 14
    Format                                   : PGS
    Muxing mode                              : zlib
    Codec ID                                 : S_HDMV/PGS
    Codec ID/Info                            : Picture based subtitle format used on BDs/HD-DVDs
    Language                                 : Croatian
    Default                                  : No
    Forced                                   : No

    Text #6
    ID                                       : 15
    Format                                   : PGS
    Muxing mode                              : zlib
    Codec ID                                 : S_HDMV/PGS
    Codec ID/Info                            : Picture based subtitle format used on BDs/HD-DVDs
    Language                                 : Czech
    Default                                  : No
    Forced                                   : No

    Text #7
    ID                                       : 16
    Format                                   : PGS
    Muxing mode                              : zlib
    Codec ID                                 : S_HDMV/PGS
    Codec ID/Info                            : Picture based subtitle format used on BDs/HD-DVDs
    Language                                 : Estonian
    Default                                  : No
    Forced                                   : No

    Text #8
    ID                                       : 17
    Format                                   : PGS
    Muxing mode                              : zlib
    Codec ID                                 : S_HDMV/PGS
    Codec ID/Info                            : Picture based subtitle format used on BDs/HD-DVDs
    Language                                 : Greek
    Default                                  : No
    Forced                                   : No

    Text #9
    ID                                       : 18
    Format                                   : PGS
    Muxing mode                              : zlib
    Codec ID                                 : S_HDMV/PGS
    Codec ID/Info                            : Picture based subtitle format used on BDs/HD-DVDs
    Language                                 : Hebrew
    Default                                  : No
    Forced                                   : No

    Text #10
    ID                                       : 19
    Format                                   : PGS
    Muxing mode                              : zlib
    Codec ID                                 : S_HDMV/PGS
    Codec ID/Info                            : Picture based subtitle format used on BDs/HD-DVDs
    Language                                 : Hungarian
    Default                                  : No
    Forced                                   : No

    Text #11
    ID                                       : 20
    Format                                   : PGS
    Muxing mode                              : zlib
    Codec ID                                 : S_HDMV/PGS
    Codec ID/Info                            : Picture based subtitle format used on BDs/HD-DVDs
    Language                                 : Icelandic
    Default                                  : No
    Forced                                   : No

    Text #12
    ID                                       : 21
    Format                                   : PGS
    Muxing mode                              : zlib
    Codec ID                                 : S_HDMV/PGS
    Codec ID/Info                            : Picture based subtitle format used on BDs/HD-DVDs
    Language                                 : Latvian
    Default                                  : No
    Forced                                   : No

    Text #13
    ID                                       : 22
    Format                                   : PGS
    Muxing mode                              : zlib
    Codec ID                                 : S_HDMV/PGS
    Codec ID/Info                            : Picture based subtitle format used on BDs/HD-DVDs
    Language                                 : Lithuanian
    Default                                  : No
    Forced                                   : No

    Text #14
    ID                                       : 23
    Format                                   : PGS
    Muxing mode                              : zlib
    Codec ID                                 : S_HDMV/PGS
    Codec ID/Info                            : Picture based subtitle format used on BDs/HD-DVDs
    Language                                 : Polish
    Default                                  : No
    Forced                                   : No

    Text #15
    ID                                       : 24
    Format                                   : PGS
    Muxing mode                              : zlib
    Codec ID                                 : S_HDMV/PGS
    Codec ID/Info                            : Picture based subtitle format used on BDs/HD-DVDs
    Language                                 : Portuguese
    Default                                  : No
    Forced                                   : No

    Text #16
    ID                                       : 25
    Format                                   : PGS
    Muxing mode                              : zlib
    Codec ID                                 : S_HDMV/PGS
    Codec ID/Info                            : Picture based subtitle format used on BDs/HD-DVDs
    Language                                 : Romanian
    Default                                  : No
    Forced                                   : No

    Text #17
    ID                                       : 26
    Format                                   : PGS
    Muxing mode                              : zlib
    Codec ID                                 : S_HDMV/PGS
    Codec ID/Info                            : Picture based subtitle format used on BDs/HD-DVDs
    Language                                 : Serbian
    Default                                  : No
    Forced                                   : No

    Text #18
    ID                                       : 27
    Format                                   : PGS
    Muxing mode                              : zlib
    Codec ID                                 : S_HDMV/PGS
    Codec ID/Info                            : Picture based subtitle format used on BDs/HD-DVDs
    Language                                 : Slovenian
    Default                                  : No
    Forced                                   : No

    Text #19
    ID                                       : 28
    Format                                   : PGS
    Muxing mode                              : zlib
    Codec ID                                 : S_HDMV/PGS
    Codec ID/Info                            : Picture based subtitle format used on BDs/HD-DVDs
    Language                                 : Turkish
    Default                                  : No
    Forced                                   : No

    Text #20
    ID                                       : 29
    Format                                   : PGS
    Muxing mode                              : zlib
    Codec ID                                 : S_HDMV/PGS
    Codec ID/Info                            : Picture based subtitle format used on BDs/HD-DVDs
    Language                                 : Ukrainian
    Default                                  : No
    Forced                                   : No



    92511881586619684973_thumb.jpg

    91253927909554739237_thumb.jpg

    75193187313737766158_thumb.jpg

    56845087856183498501_thumb.jpg

    56483762479167587674_thumb.jpg

    06943037940893728800_thumb.jpg


    游客,如果您要查看本帖隐藏内容请回复


    Video
    ID                                       : 1
    Format                                   : AVC
    Format/Info                              : Advanced Video Codec
    Format profile                           : High@L4.1
    Format settings, CABAC                   : Yes
    Format settings, ReFrames                : 2 frames
    Codec ID                                 : V_MPEG4/ISO/AVC
    Duration                                 : 1h 28mn
    Nominal bit rate                         : 16.0 Mbps
    Width                                    : 1 920 pixels
    Height                                   : 1 080 pixels
    Display aspect ratio                     : 16:9
    Frame rate mode                          : Constant
    Frame rate                               : 23.976 fps
    Color space                              : YUV
    Chroma subsampling                       : 4:2:0
    Bit depth                                : 8 bits
    Scan type                                : Progressive
    Bits/(Pixel*Frame)                       : 0.322
    Title                                    : Jumper.2008.1080p.3D.BluRay.Half-OU.x264.DTS-HD.MA.5.1-RARBG
    Writing library                          : x264 core 142
    Encoding settings                        : cabac=1 / ref=1 / deblock=1:-1:-1 / analyse=0x3:0 / me=hex / subme=5 / psy=0 / mixed_ref=0 / me_range=16 / chroma_me=1 / trellis=0 / 8x8dct=1 / cqm=0 / deadzone=21,11 / fast_pskip=1 / chroma_qp_offset=0 / threads=8 / lookahead_threads=2 / sliced_threads=0 / nr=0 / decimate=1 / interlaced=0 / bluray_compat=0 / constrained_intra=0 / bframes=2 / b_pyramid=0 / b_adapt=1 / b_bias=0 / direct=1 / weightb=1 / open_gop=0 / weightp=0 / keyint=24 / keyint_min=13 / scenecut=40 / intra_refresh=0 / rc=abr / mbtree=0 / bitrate=16000 / ratetol=1.0 / qcomp=0.60 / qpmin=0 / qpmax=69 / qpstep=4 / ip_ratio=1.40 / pb_ratio=1.30 / aq=1:1.00
    Default                                  : Yes
    Forced                                   : No
    Color range                              : Limited
    Color primaries                          : BT.709
    Transfer characteristics                 : BT.709
    Matrix coefficients                      : BT.709

    Audio #1
    ID                                       : 2
    Format                                   : DTS
    Format/Info                              : Digital Theater Systems
    Format profile                           : MA / Core
    Mode                                     : 16
    Format settings, Endianness              : Big
    Codec ID                                 : A_DTS
    Duration                                 : 1h 28mn
    Bit rate mode                            : Variable
    Bit rate                                 : Unknown / 1 509 Kbps
    Channel(s)                               : 6 channels
    Channel positions                        : Front: L C R, Side: L R, LFE
    Sampling rate                            : 48.0 KHz
    Bit depth                                : 24 bits
    Compression mode                         : Lossless / Lossy
    Title                                    : Jumper.2008.1080p.3D.BluRay.Half-OU.x264.DTS-HD.MA.5.1-RARBG
    Language                                 : English
    Default                                  : Yes
    Forced                                   : No

    Audio #2
    ID                                       : 3
    Format                                   : DTS
    Format/Info                              : Digital Theater Systems
    Mode                                     : 16
    Format settings, Endianness              : Big
    Codec ID                                 : A_DTS
    Duration                                 : 1h 28mn
    Bit rate mode                            : Constant
    Bit rate                                 : 1 509 Kbps
    Channel(s)                               : 6 channels
    Channel positions                        : Front: L C R, Side: L R, LFE
    Sampling rate                            : 48.0 KHz
    Bit depth                                : 24 bits
    Compression mode                         : Lossy
    Stream size                              : 953 MiB (6%)
    Title                                    : Jumper.2008.1080p.3D.BluRay.Half-OU.x264.DTS-HD.MA.5.1-RARBG
    Language                                 : English
    Default                                  : No
    Forced                                   : No

    Audio #3
    ID                                       : 4
    Format                                   : DTS
    Format/Info                              : Digital Theater Systems
    Mode                                     : 16
    Format settings, Endianness              : Big
    Codec ID                                 : A_DTS
    Duration                                 : 1h 28mn
    Bit rate mode                            : Constant
    Bit rate                                 : 768 Kbps
    Channel(s)                               : 6 channels
    Channel positions                        : Front: L C R, Side: L R, LFE
    Sampling rate                            : 48.0 KHz
    Bit depth                                : 24 bits
    Compression mode                         : Lossy
    Stream size                              : 485 MiB (3%)
    Title                                    : Jumper.2008.1080p.3D.BluRay.Half-OU.x264.DTS-HD.MA.5.1-RARBG
    Language                                 : Russian
    Default                                  : No
    Forced                                   : No

    Audio #4
    ID                                       : 5
    Format                                   : AC-3
    Format/Info                              : Audio Coding 3
    Mode extension                           : CM (complete main)
    Format settings, Endianness              : Big
    Codec ID                                 : A_AC3
    Duration                                 : 1h 28mn
    Bit rate mode                            : Constant
    Bit rate                                 : 448 Kbps
    Channel(s)                               : 6 channels
    Channel positions                        : Front: L C R, Side: L R, LFE
    Sampling rate                            : 48.0 KHz
    Bit depth                                : 16 bits
    Compression mode                         : Lossy
    Stream size                              : 283 MiB (2%)
    Title                                    : Jumper.2008.1080p.3D.BluRay.Half-OU.x264.DTS-HD.MA.5.1-RARBG
    Language                                 : Czech
    Default                                  : No
    Forced                                   : No

    Audio #5
    ID                                       : 6
    Format                                   : AC-3
    Format/Info                              : Audio Coding 3
    Mode extension                           : CM (complete main)
    Format settings, Endianness              : Big
    Codec ID                                 : A_AC3
    Duration                                 : 1h 28mn
    Bit rate mode                            : Constant
    Bit rate                                 : 448 Kbps
    Channel(s)                               : 6 channels
    Channel positions                        : Front: L C R, Side: L R, LFE
    Sampling rate                            : 48.0 KHz
    Bit depth                                : 16 bits
    Compression mode                         : Lossy
    Stream size                              : 283 MiB (2%)
    Title                                    : Jumper.2008.1080p.3D.BluRay.Half-OU.x264.DTS-HD.MA.5.1-RARBG
    Language                                 : Hungarian
    Default                                  : No
    Forced                                   : No

    Audio #6
    ID                                       : 7
    Format                                   : AC-3
    Format/Info                              : Audio Coding 3
    Mode extension                           : CM (complete main)
    Format settings, Endianness              : Big
    Codec ID                                 : A_AC3
    Duration                                 : 1h 28mn
    Bit rate mode                            : Constant
    Bit rate                                 : 448 Kbps
    Channel(s)                               : 6 channels
    Channel positions                        : Front: L C R, Side: L R, LFE
    Sampling rate                            : 48.0 KHz
    Bit depth                                : 16 bits
    Compression mode                         : Lossy
    Stream size                              : 283 MiB (2%)
    Title                                    : Jumper.2008.1080p.3D.BluRay.Half-OU.x264.DTS-HD.MA.5.1-RARBG
    Language                                 : Polish
    Default                                  : No
    Forced                                   : No

    Audio #7
    ID                                       : 8
    Format                                   : AC-3
    Format/Info                              : Audio Coding 3
    Mode extension                           : CM (complete main)
    Format settings, Endianness              : Big
    Codec ID                                 : A_AC3
    Duration                                 : 1h 28mn
    Bit rate mode                            : Constant
    Bit rate                                 : 448 Kbps
    Channel(s)                               : 6 channels
    Channel positions                        : Front: L C R, Side: L R, LFE
    Sampling rate                            : 48.0 KHz
    Bit depth                                : 16 bits
    Compression mode                         : Lossy
    Stream size                              : 283 MiB (2%)
    Title                                    : Jumper.2008.1080p.3D.BluRay.Half-OU.x264.DTS-HD.MA.5.1-RARBG
    Language                                 : Turkish
    Default                                  : No
    Forced                                   : No

    Audio #8
    ID                                       : 9
    Format                                   : AC-3
    Format/Info                              : Audio Coding 3
    Mode extension                           : CM (complete main)
    Format settings, Endianness              : Big
    Codec ID                                 : A_AC3
    Duration                                 : 1h 28mn
    Bit rate mode                            : Constant
    Bit rate                                 : 448 Kbps
    Channel(s)                               : 6 channels
    Channel positions                        : Front: L C R, Side: L R, LFE
    Sampling rate                            : 48.0 KHz
    Bit depth                                : 16 bits
    Compression mode                         : Lossy
    Stream size                              : 283 MiB (2%)
    Title                                    : Jumper.2008.1080p.3D.BluRay.Half-OU.x264.DTS-HD.MA.5.1-RARBG
    Language                                 : Ukrainian
    Default                                  : No
    Forced                                   : No

    Text #1
    ID                                       : 10
    Format                                   : PGS
    Muxing mode                              : zlib
    Codec ID                                 : S_HDMV/PGS
    Codec ID/Info                            : Picture based subtitle format used on BDs/HD-DVDs
    Language                                 : English
    Default                                  : No
    Forced                                   : No

    Text #2
    ID                                       : 11
    Format                                   : PGS
    Muxing mode                              : zlib
    Codec ID                                 : S_HDMV/PGS
    Codec ID/Info                            : Picture based subtitle format used on BDs/HD-DVDs
    Language                                 : Russian
    Default                                  : No
    Forced                                   : No

    Text #3
    ID                                       : 12
    Format                                   : PGS
    Muxing mode                              : zlib
    Codec ID                                 : S_HDMV/PGS
    Codec ID/Info                            : Picture based subtitle format used on BDs/HD-DVDs
    Language                                 : Arabic
    Default                                  : No
    Forced                                   : No

    Text #4
    ID                                       : 13
    Format                                   : PGS
    Muxing mode                              : zlib
    Codec ID                                 : S_HDMV/PGS
    Codec ID/Info                            : Picture based subtitle format used on BDs/HD-DVDs
    Language                                 : Bulgarian
    Default                                  : No
    Forced                                   : No

    Text #5
    ID                                       : 14
    Format                                   : PGS
    Muxing mode                              : zlib
    Codec ID                                 : S_HDMV/PGS
    Codec ID/Info                            : Picture based subtitle format used on BDs/HD-DVDs
    Language                                 : Croatian
    Default                                  : No
    Forced                                   : No

    Text #6
    ID                                       : 15
    Format                                   : PGS
    Muxing mode                              : zlib
    Codec ID                                 : S_HDMV/PGS
    Codec ID/Info                            : Picture based subtitle format used on BDs/HD-DVDs
    Language                                 : Czech
    Default                                  : No
    Forced                                   : No

    Text #7
    ID                                       : 16
    Format                                   : PGS
    Muxing mode                              : zlib
    Codec ID                                 : S_HDMV/PGS
    Codec ID/Info                            : Picture based subtitle format used on BDs/HD-DVDs
    Language                                 : Estonian
    Default                                  : No
    Forced                                   : No

    Text #8
    ID                                       : 17
    Format                                   : PGS
    Muxing mode                              : zlib
    Codec ID                                 : S_HDMV/PGS
    Codec ID/Info                            : Picture based subtitle format used on BDs/HD-DVDs
    Language                                 : Greek
    Default                                  : No
    Forced                                   : No

    Text #9
    ID                                       : 18
    Format                                   : PGS
    Muxing mode                              : zlib
    Codec ID                                 : S_HDMV/PGS
    Codec ID/Info                            : Picture based subtitle format used on BDs/HD-DVDs
    Language                                 : Hebrew
    Default                                  : No
    Forced                                   : No

    Text #10
    ID                                       : 19
    Format                                   : PGS
    Muxing mode                              : zlib
    Codec ID                                 : S_HDMV/PGS
    Codec ID/Info                            : Picture based subtitle format used on BDs/HD-DVDs
    Language                                 : Hungarian
    Default                                  : No
    Forced                                   : No

    Text #11
    ID                                       : 20
    Format                                   : PGS
    Muxing mode                              : zlib
    Codec ID                                 : S_HDMV/PGS
    Codec ID/Info                            : Picture based subtitle format used on BDs/HD-DVDs
    Language                                 : Icelandic
    Default                                  : No
    Forced                                   : No

    Text #12
    ID                                       : 21
    Format                                   : PGS
    Muxing mode                              : zlib
    Codec ID                                 : S_HDMV/PGS
    Codec ID/Info                            : Picture based subtitle format used on BDs/HD-DVDs
    Language                                 : Latvian
    Default                                  : No
    Forced                                   : No

    Text #13
    ID                                       : 22
    Format                                   : PGS
    Muxing mode                              : zlib
    Codec ID                                 : S_HDMV/PGS
    Codec ID/Info                            : Picture based subtitle format used on BDs/HD-DVDs
    Language                                 : Lithuanian
    Default                                  : No
    Forced                                   : No

    Text #14
    ID                                       : 23
    Format                                   : PGS
    Muxing mode                              : zlib
    Codec ID                                 : S_HDMV/PGS
    Codec ID/Info                            : Picture based subtitle format used on BDs/HD-DVDs
    Language                                 : Polish
    Default                                  : No
    Forced                                   : No

    Text #15
    ID                                       : 24
    Format                                   : PGS
    Muxing mode                              : zlib
    Codec ID                                 : S_HDMV/PGS
    Codec ID/Info                            : Picture based subtitle format used on BDs/HD-DVDs
    Language                                 : Portuguese
    Default                                  : No
    Forced                                   : No

    Text #16
    ID                                       : 25
    Format                                   : PGS
    Muxing mode                              : zlib
    Codec ID                                 : S_HDMV/PGS
    Codec ID/Info                            : Picture based subtitle format used on BDs/HD-DVDs
    Language                                 : Romanian
    Default                                  : No
    Forced                                   : No

    Text #17
    ID                                       : 26
    Format                                   : PGS
    Muxing mode                              : zlib
    Codec ID                                 : S_HDMV/PGS
    Codec ID/Info                            : Picture based subtitle format used on BDs/HD-DVDs
    Language                                 : Serbian
    Default                                  : No
    Forced                                   : No

    Text #18
    ID                                       : 27
    Format                                   : PGS
    Muxing mode                              : zlib
    Codec ID                                 : S_HDMV/PGS
    Codec ID/Info                            : Picture based subtitle format used on BDs/HD-DVDs
    Language                                 : Slovenian
    Default                                  : No
    Forced                                   : No

    Text #19
    ID                                       : 28
    Format                                   : PGS
    Muxing mode                              : zlib
    Codec ID                                 : S_HDMV/PGS
    Codec ID/Info                            : Picture based subtitle format used on BDs/HD-DVDs
    Language                                 : Turkish
    Default                                  : No
    Forced                                   : No

    Text #20
    ID                                       : 29
    Format                                   : PGS
    Muxing mode                              : zlib
    Codec ID                                 : S_HDMV/PGS
    Codec ID/Info                            : Picture based subtitle format used on BDs/HD-DVDs
    Language                                 : Ukrainian
    Default                                  : No
    Forced                                   : No



    90710967726895657009_thumb.jpg

    64775759155144195074_thumb.jpg

    54286860383329826139_thumb.jpg

    39896255167919705569_thumb.jpg

    08690138284688083902_thumb.jpg

    07778115446265935855_thumb.jpg


    游客,如果您要查看本帖隐藏内容请回复


    中简字幕
    游客,如果您要查看本帖隐藏内容请回复

    游客,如果您要查看本帖隐藏内容请回复

  • TA的每日心情

    2017-3-1 15:35
  • 签到天数: 666 天

    [LV.9]以坛为家II

    发表于 2015-7-7 20:48:38 | 显示全部楼层
    动作冒险科幻惊悚为何是mtv
    回复 支持 反对

    使用道具 举报

  • TA的每日心情
    开心
    2015-8-4 21:29
  • 签到天数: 345 天

    [LV.8]以坛为家III

    发表于 2015-7-7 23:07:07 | 显示全部楼层
    谢谢楼主分享!!
    回复 支持 反对

    使用道具 举报

  • TA的每日心情
    开心
    2017-1-19 06:34
  • 签到天数: 1509 天

    [LV.Master]伴坛终老

    发表于 2015-7-8 06:25:06 | 显示全部楼层
    好极了,太好了。
    回复 支持 反对

    使用道具 举报

  • TA的每日心情
    开心
    2017-2-28 10:27
  • 签到天数: 509 天

    [LV.9]以坛为家II

    发表于 2015-7-8 06:34:31 | 显示全部楼层
    谢谢分享,心灵传输者3D
    回复 支持 反对

    使用道具 举报

  • TA的每日心情
    开心
    2016-12-14 12:22
  • 签到天数: 680 天

    [LV.9]以坛为家II

    发表于 2015-7-8 09:04:37 | 显示全部楼层

    来迟了```只能是地板了```
    回复 支持 反对

    使用道具 举报

  • TA的每日心情
    慵懒
    2015-7-16 17:42
  • 签到天数: 9 天

    [LV.3]偶尔看看II

    发表于 2015-7-8 12:26:56 | 显示全部楼层
    谢谢楼主分享啦!
    回复 支持 反对

    使用道具 举报

  • TA的每日心情
    开心
    2017-2-20 17:20
  • 签到天数: 168 天

    [LV.7]常住居民III

    发表于 2015-7-8 15:35:22 | 显示全部楼层
    好片共赏,多谢楼主分享!!!!
    回复 支持 反对

    使用道具 举报

    该用户从未签到

    发表于 2015-7-8 16:10:01 来自手机 | 显示全部楼层
    谢谢您的上传分享
    回复 支持 反对

    使用道具 举报

  • TA的每日心情
    开心
    2016-7-13 08:44
  • 签到天数: 123 天

    [LV.7]常住居民III

    发表于 2015-7-8 16:19:18 | 显示全部楼层
    看看再说
    回复 支持 反对

    使用道具 举报

    高级模式
    B Color Image Link Quote Code Smilies

    本版积分规则

    免责申明|小黑屋|手机版|Archiver|网站地图| 3D一族论坛  

    Copyright © 2001-2015 Comsenz Inc.   All Rights Reserved.

    Powered by Discuz! X3.2( 沪ICP备14045620号-1 )

    快速回复 返回顶部 返回列表