请选择 进入手机版 | 继续访问电脑版
 找回密码

3D一族论坛

查看: 8316|回复: 307

[左右] [爱丽丝梦游仙境3D Alice.in.Wonderland.2010.3D][1080p][左右半宽/上下半高][MKV 20.75G/21.09G][BT][外挂中简字幕]

  [复制链接]
  • TA的每日心情
    开心
    2017-10-30 14:49
  • 签到天数: 1666 天

    [LV.Master]伴坛终老

    发表于 2015-7-8 10:02:21 | 显示全部楼层 |阅读模式
    影片截图:

    data/attachment/forum/201507/08/095708z7ffo6fooqor83fz.jpg

         
      片        名: Alice.in.Wonderland.2010.3D
      译        名: 爱丽丝梦游仙境3D/魔境梦游(台)/爱丽丝梦游奇境/爱丽丝漫游奇境
      类        别: 冒险 剧情 
      国        家: 欧美
      语        言: 英语
      字        幕: 中文字幕
      集        数:
      文件格式: MKV
      视频尺寸: 1920*1080
      文件大小: 20.75GB/21.09GB
      上映时间: 2010-03-05(美国)
      影片导演: 蒂姆·波顿 Tim Burton
      主要演员: 米娅·华希科沃斯卡 Mia Wasikowska....Alice Kingsley
        约翰尼·德普 Johnny Depp....The Mad Hatter
        海伦娜·伯翰·卡特 Helena Bonham Carter....The Red Queen
      推荐等级: ★★★★★
         
    下载地址:
    [下载方式]: bt下载
    [分辨率]: 1080p
    [迅雷地址]:
    [网盘下载]:
    影片简介: fangfang
    爱丽斯(米娅·华希科沃斯卡 Mia Wasikowska 饰)始终被同一个梦魇所困扰,直到她20岁时参加的一场聚会。本认为是一场无聊至极的聚会而已,没想到却是精心策划的求婚仪式。面对养尊处优的公子哥哈米什突如其来的求婚,毫无准备的爱丽斯着实被吓了一跳。爱丽斯被一只身马甲的兔子所吸引,在追赶过程中爱丽斯掉入了一个深不见底的树洞里,来到了一个如同仙境般不可思议的“地下世界”。此时,生活在地下世界的善良人们似乎都在盼望着她的到来,可是她却认为这是一场梦,只想快点醒过来回到现实世界。然而,在认识疯疯癫癫的疯帽子(约翰尼·德普 Johnny Depp 饰)之后,爱丽斯才知道地下世界正处于“红桃皇后”(海伦娜·伯翰·卡特 Helena Bonham Carter 饰)的血腥统治之下,按照“皇历”的预言,只是她才能帮助“白色皇后”(安妮·海瑟薇 Anne Hath...
    aliceinwonderland3d.jpg

    p481531253.jpg


    【影片原名】Alice in Wonderland

    【中文译名】爱丽丝梦游仙境/魔境梦游(台)/爱丽丝梦游奇境/爱丽丝漫游奇境
    【出品公司】Walt Disney Pictures
    【出品年代】2010 年
    【上映日期】2010年3月26日 中国         
    【影片级别】USAG
    【官方网站】http://disney.go.com/disneypictures/aliceinwonderland/
    【IMDB链接】http://www.imdb.com/title/tt1014759
    【IMDB评分】6.5/10 from 251,628 users
    【国  家】美国
    【类  别】冒险/家庭/幻想
    【导  演】蒂姆·波顿 Tim Burton
    【主  演】米娅·华希科沃斯卡 Mia Wasikowska....Alice Kingsley
          约翰尼·德普 Johnny Depp....The Mad Hatter
          海伦娜·伯翰·卡特 Helena Bonham Carter....The Red Queen
          克利斯丁·格拉夫 Crispin Glover....The Knave of Hearts
          安妮·海瑟薇 Anne Hathaway....The White Queen
          斯蒂芬·弗雷 Stephen Fry....The Cheshire Cat
          克里斯托弗·李 Christopher Lee....The Jabberwock
          麦克·辛 Michael Sheen....The White Rabbit
          阿伦·瑞克曼 Alan Rickman....The Caterpillar
          马特·卢卡斯 Matt Lucas....Tweedledee / Tweedledum
          蒂莫西·斯波 Timothy Spall....The Bloodhound
          芭芭拉·温德索 Barbara Windsor....The Dormouse
          马尔顿·索克斯 Marton Csokas....Charles Kingsley
          艾莉诺·汤姆林森 Eleanor Tomlinson....Fiona Chataway
          琳赛·邓肯 Lindsay Duncan....Helen Kingsley



    【内容简介】

         距离那一次历险奇遇已经过去了十年……曾经漫游奇境的爱丽丝(米娅·华希科沃斯卡饰),今年业已19岁,她生活在一个华丽富庶的大庄园里,衣食无忧,生活奢靡,在社会风气的带动下,渐渐的成长为家庭心目中所冀望的那种贵族女子,却早已忘却自己在9岁时的那些奇妙无比的经历。时光荏苒,在家族为他举办的19岁的生日宴会上,一位富豪的儿子向他求婚,对方是哈米什·爱斯科特(利奥·比尔饰),哈米什虽然家财万贯,性格却愚笨而木讷,跟爱丽丝根本不是一路人。爱丽丝发觉到自己并不想要这样的生活,渴望改变现状的她在小白兔的带领下,爱丽丝再次步入仙境。
      
         这里依然是她童年来过的地方,一切都没有发生太大的变化,有着奇妙的黄色瞳孔的疯帽子先生(约翰尼·德普饰)率先欢迎了爱丽丝的到来,而专断凶狠的红桃皇后(海伦娜·伯翰·卡特饰饰)依然尖叫着要砍掉其他人的头,甚至连自己的妹妹白皇后(安妮·海瑟薇饰)也不放过。在双胞胎兄弟(马特·卢卡斯饰)的帮助下,爱丽丝逐渐地恢复了记忆,她将在这个童话般的奇妙世界里重新审视自己……

    一句话评论

        《爱丽丝梦游仙境》这一阙奇诡的童话,在蒂姆·波顿的执导下,再度焕发出不一样的黑色风采。 ——firstshowing.net

          疯狂的美妙,令观众陶醉! ——《好莱坞报道》

         目不暇接的新奇,蒂姆·波顿创造了一个银幕奇迹! ——《今日美国》



    Video
    ID                                       : 1
    Format                                   : AVC
    Format/Info                              : Advanced Video Codec
    Format profile                           : High@L4.1
    Format settings, CABAC                   : Yes
    Format settings, ReFrames                : 2 frames
    Codec ID                                 : V_MPEG4/ISO/AVC
    Duration                                 : 1h 48mn
    Nominal bit rate                         : 15.5 Mbps
    Width                                    : 1 920 pixels
    Height                                   : 1 080 pixels
    Display aspect ratio                     : 16:9
    Frame rate mode                          : Constant
    Frame rate                               : 23.976 fps
    Color space                              : YUV
    Chroma subsampling                       : 4:2:0
    Bit depth                                : 8 bits
    Scan type                                : Progressive
    Bits/(Pixel*Frame)                       : 0.312
    Title                                    : Alice.in.Wonderland.2010.1080p.3D.BluRay.Half-SBS.x264.DTS-HD.MA.5.1-RARBG
    Writing library                          : x264 core 142
    Encoding settings                        : cabac=1 / ref=1 / deblock=1:-1:-1 / analyse=0x3:0 / me=hex / subme=5 / psy=0 / mixed_ref=0 / me_range=16 / chroma_me=1 / trellis=0 / 8x8dct=1 / cqm=0 / deadzone=21,11 / fast_pskip=1 / chroma_qp_offset=0 / threads=8 / lookahead_threads=2 / sliced_threads=0 / nr=0 / decimate=1 / interlaced=0 / bluray_compat=0 / constrained_intra=0 / bframes=2 / b_pyramid=0 / b_adapt=1 / b_bias=0 / direct=1 / weightb=1 / open_gop=0 / weightp=0 / keyint=24 / keyint_min=13 / scenecut=40 / intra_refresh=0 / rc=abr / mbtree=0 / bitrate=15500 / ratetol=1.0 / qcomp=0.60 / qpmin=0 / qpmax=69 / qpstep=4 / ip_ratio=1.40 / pb_ratio=1.30 / aq=1:1.00
    Default                                  : Yes
    Forced                                   : No
    Color range                              : Limited
    Color primaries                          : BT.709
    Transfer characteristics                 : BT.709
    Matrix coefficients                      : BT.709

    Audio #1
    ID                                       : 2
    Format                                   : DTS
    Format/Info                              : Digital Theater Systems
    Format profile                           : MA / Core
    Mode                                     : 16
    Format settings, Endianness              : Big
    Codec ID                                 : A_DTS
    Duration                                 : 1h 48mn
    Bit rate mode                            : Variable
    Bit rate                                 : Unknown / 1 509 Kbps
    Channel(s)                               : 6 channels
    Channel positions                        : Front: L C R, Side: L R, LFE
    Sampling rate                            : 48.0 KHz
    Bit depth                                : 24 bits
    Compression mode                         : Lossless / Lossy
    Title                                    : Alice.in.Wonderland.2010.1080p.3D.BluRay.Half-SBS.x264.DTS-HD.MA.5.1-RARBG
    Language                                 : English
    Default                                  : Yes
    Forced                                   : No

    Audio #2
    ID                                       : 3
    Format                                   : DTS
    Format/Info                              : Digital Theater Systems
    Format profile                           : ES
    Mode                                     : 16
    Format settings, Endianness              : Big
    Codec ID                                 : A_DTS
    Duration                                 : 1h 48mn
    Bit rate mode                            : Constant
    Bit rate                                 : 1 509 Kbps
    Channel(s)                               : 6 channels
    Channel positions                        : Front: L C R, Side: L R, LFE
    Sampling rate                            : 48.0 KHz
    Bit depth                                : 24 bits
    Compression mode                         : Lossy
    Stream size                              : 1.14 GiB (6%)
    Title                                    : Alice.in.Wonderland.2010.1080p.3D.BluRay.Half-SBS.x264.DTS-HD.MA.5.1-RARBG
    Language                                 : English
    Default                                  : No
    Forced                                   : No

    Audio #3
    ID                                       : 4
    Format                                   : AC-3
    Format/Info                              : Audio Coding 3
    Mode extension                           : CM (complete main)
    Format settings, Endianness              : Big
    Codec ID                                 : A_AC3
    Duration                                 : 1h 48mn
    Bit rate mode                            : Constant
    Bit rate                                 : 640 Kbps
    Channel(s)                               : 6 channels
    Channel positions                        : Front: L C R, Side: L R, LFE
    Sampling rate                            : 48.0 KHz
    Bit depth                                : 16 bits
    Compression mode                         : Lossy
    Stream size                              : 497 MiB (2%)
    Title                                    : Alice.in.Wonderland.2010.1080p.3D.BluRay.Half-SBS.x264.DTS-HD.MA.5.1-RARBG
    Language                                 : Czech
    Default                                  : No
    Forced                                   : No

    Audio #4
    ID                                       : 5
    Format                                   : AC-3
    Format/Info                              : Audio Coding 3
    Mode extension                           : CM (complete main)
    Format settings, Endianness              : Big
    Codec ID                                 : A_AC3
    Duration                                 : 1h 48mn
    Bit rate mode                            : Constant
    Bit rate                                 : 640 Kbps
    Channel(s)                               : 6 channels
    Channel positions                        : Front: L C R, Side: L R, LFE
    Sampling rate                            : 48.0 KHz
    Bit depth                                : 16 bits
    Compression mode                         : Lossy
    Stream size                              : 497 MiB (2%)
    Title                                    : Alice.in.Wonderland.2010.1080p.3D.BluRay.Half-SBS.x264.DTS-HD.MA.5.1-RARBG
    Language                                 : Hungarian
    Default                                  : No
    Forced                                   : No

    Audio #5
    ID                                       : 6
    Format                                   : AC-3
    Format/Info                              : Audio Coding 3
    Mode extension                           : CM (complete main)
    Format settings, Endianness              : Big
    Codec ID                                 : A_AC3
    Duration                                 : 1h 48mn
    Bit rate mode                            : Constant
    Bit rate                                 : 640 Kbps
    Channel(s)                               : 6 channels
    Channel positions                        : Front: L C R, Side: L R, LFE
    Sampling rate                            : 48.0 KHz
    Bit depth                                : 16 bits
    Compression mode                         : Lossy
    Stream size                              : 497 MiB (2%)
    Title                                    : Alice.in.Wonderland.2010.1080p.3D.BluRay.Half-SBS.x264.DTS-HD.MA.5.1-RARBG
    Language                                 : Russian
    Default                                  : No
    Forced                                   : No

    Audio #6
    ID                                       : 7
    Format                                   : AC-3
    Format/Info                              : Audio Coding 3
    Mode extension                           : CM (complete main)
    Format settings, Endianness              : Big
    Codec ID                                 : A_AC3
    Duration                                 : 1h 48mn
    Bit rate mode                            : Constant
    Bit rate                                 : 640 Kbps
    Channel(s)                               : 6 channels
    Channel positions                        : Front: L C R, Side: L R, LFE
    Sampling rate                            : 48.0 KHz
    Bit depth                                : 16 bits
    Compression mode                         : Lossy
    Stream size                              : 497 MiB (2%)
    Title                                    : Alice.in.Wonderland.2010.1080p.3D.BluRay.Half-SBS.x264.DTS-HD.MA.5.1-RARBG
    Language                                 : Ukrainian
    Default                                  : No
    Forced                                   : No

    Audio #7
    ID                                       : 8
    Format                                   : AC-3
    Format/Info                              : Audio Coding 3
    Mode extension                           : CM (complete main)
    Format settings, Endianness              : Big
    Codec ID                                 : A_AC3
    Duration                                 : 1h 48mn
    Bit rate mode                            : Constant
    Bit rate                                 : 640 Kbps
    Channel(s)                               : 6 channels
    Channel positions                        : Front: L C R, Side: L R, LFE
    Sampling rate                            : 48.0 KHz
    Bit depth                                : 16 bits
    Compression mode                         : Lossy
    Stream size                              : 497 MiB (2%)
    Title                                    : Alice.in.Wonderland.2010.1080p.3D.BluRay.Half-SBS.x264.DTS-HD.MA.5.1-RARBG
    Language                                 : Slovak
    Default                                  : No
    Forced                                   : No

    Audio #8
    ID                                       : 9
    Format                                   : AC-3
    Format/Info                              : Audio Coding 3
    Mode extension                           : CM (complete main)
    Format settings, Endianness              : Big
    Codec ID                                 : A_AC3
    Duration                                 : 1h 48mn
    Bit rate mode                            : Constant
    Bit rate                                 : 640 Kbps
    Channel(s)                               : 6 channels
    Channel positions                        : Front: L C R, Side: L R, LFE
    Sampling rate                            : 48.0 KHz
    Bit depth                                : 16 bits
    Compression mode                         : Lossy
    Stream size                              : 497 MiB (2%)
    Title                                    : Alice.in.Wonderland.2010.1080p.3D.BluRay.Half-SBS.x264.DTS-HD.MA.5.1-RARBG
    Language                                 : Norwegian
    Default                                  : No
    Forced                                   : No

    Audio #9
    ID                                       : 10
    Format                                   : AC-3
    Format/Info                              : Audio Coding 3
    Mode extension                           : CM (complete main)
    Format settings, Endianness              : Big
    Codec ID                                 : A_AC3
    Duration                                 : 1h 48mn
    Bit rate mode                            : Constant
    Bit rate                                 : 640 Kbps
    Channel(s)                               : 6 channels
    Channel positions                        : Front: L C R, Side: L R, LFE
    Sampling rate                            : 48.0 KHz
    Bit depth                                : 16 bits
    Compression mode                         : Lossy
    Stream size                              : 497 MiB (2%)
    Title                                    : Alice.in.Wonderland.2010.1080p.3D.BluRay.Half-SBS.x264.DTS-HD.MA.5.1-RARBG
    Language                                 : Danish
    Default                                  : No
    Forced                                   : No

    Audio #10
    ID                                       : 11
    Format                                   : AC-3
    Format/Info                              : Audio Coding 3
    Mode extension                           : CM (complete main)
    Format settings, Endianness              : Big
    Codec ID                                 : A_AC3
    Duration                                 : 1h 48mn
    Bit rate mode                            : Constant
    Bit rate                                 : 640 Kbps
    Channel(s)                               : 6 channels
    Channel positions                        : Front: L C R, Side: L R, LFE
    Sampling rate                            : 48.0 KHz
    Bit depth                                : 16 bits
    Compression mode                         : Lossy
    Stream size                              : 497 MiB (2%)
    Title                                    : Alice.in.Wonderland.2010.1080p.3D.BluRay.Half-SBS.x264.DTS-HD.MA.5.1-RARBG
    Language                                 : Lithuanian
    Default                                  : No
    Forced                                   : No

    Audio #11
    ID                                       : 12
    Format                                   : AC-3
    Format/Info                              : Audio Coding 3
    Mode extension                           : CM (complete main)
    Format settings, Endianness              : Big
    Codec ID                                 : A_AC3
    Duration                                 : 1h 48mn
    Bit rate mode                            : Constant
    Bit rate                                 : 640 Kbps
    Channel(s)                               : 6 channels
    Channel positions                        : Front: L C R, Side: L R, LFE
    Sampling rate                            : 48.0 KHz
    Bit depth                                : 16 bits
    Compression mode                         : Lossy
    Stream size                              : 497 MiB (2%)
    Title                                    : Alice.in.Wonderland.2010.1080p.3D.BluRay.Half-SBS.x264.DTS-HD.MA.5.1-RARBG
    Language                                 : Estonian
    Default                                  : No
    Forced                                   : No

    Audio #12
    ID                                       : 13
    Format                                   : AC-3
    Format/Info                              : Audio Coding 3
    Mode extension                           : CM (complete main)
    Format settings, Endianness              : Big
    Codec ID                                 : A_AC3
    Duration                                 : 1h 48mn
    Bit rate mode                            : Constant
    Bit rate                                 : 640 Kbps
    Channel(s)                               : 6 channels
    Channel positions                        : Front: L C R, Side: L R, LFE
    Sampling rate                            : 48.0 KHz
    Bit depth                                : 16 bits
    Compression mode                         : Lossy
    Stream size                              : 497 MiB (2%)
    Title                                    : Alice.in.Wonderland.2010.1080p.3D.BluRay.Half-SBS.x264.DTS-HD.MA.5.1-RARBG
    Language                                 : Hebrew
    Default                                  : No
    Forced                                   : No

    Text #1
    ID                                       : 14
    Format                                   : PGS
    Muxing mode                              : zlib
    Codec ID                                 : S_HDMV/PGS
    Codec ID/Info                            : Picture based subtitle format used on BDs/HD-DVDs
    Language                                 : English
    Default                                  : No
    Forced                                   : No

    Text #2
    ID                                       : 15
    Format                                   : PGS
    Muxing mode                              : zlib
    Codec ID                                 : S_HDMV/PGS
    Codec ID/Info                            : Picture based subtitle format used on BDs/HD-DVDs
    Language                                 : English
    Default                                  : No
    Forced                                   : No

    Text #3
    ID                                       : 16
    Format                                   : PGS
    Muxing mode                              : zlib
    Codec ID                                 : S_HDMV/PGS
    Codec ID/Info                            : Picture based subtitle format used on BDs/HD-DVDs
    Language                                 : Czech
    Default                                  : No
    Forced                                   : No

    Text #4
    ID                                       : 17
    Format                                   : PGS
    Muxing mode                              : zlib
    Codec ID                                 : S_HDMV/PGS
    Codec ID/Info                            : Picture based subtitle format used on BDs/HD-DVDs
    Language                                 : Hungarian
    Default                                  : No
    Forced                                   : No

    Text #5
    ID                                       : 18
    Format                                   : PGS
    Muxing mode                              : zlib
    Codec ID                                 : S_HDMV/PGS
    Codec ID/Info                            : Picture based subtitle format used on BDs/HD-DVDs
    Language                                 : Greek
    Default                                  : No
    Forced                                   : No

    Text #6
    ID                                       : 19
    Format                                   : PGS
    Muxing mode                              : zlib
    Codec ID                                 : S_HDMV/PGS
    Codec ID/Info                            : Picture based subtitle format used on BDs/HD-DVDs
    Language                                 : Russian
    Default                                  : No
    Forced                                   : No

    Text #7
    ID                                       : 20
    Format                                   : PGS
    Muxing mode                              : zlib
    Codec ID                                 : S_HDMV/PGS
    Codec ID/Info                            : Picture based subtitle format used on BDs/HD-DVDs
    Language                                 : Ukrainian
    Default                                  : No
    Forced                                   : No

    Text #8
    ID                                       : 21
    Format                                   : PGS
    Muxing mode                              : zlib
    Codec ID                                 : S_HDMV/PGS
    Codec ID/Info                            : Picture based subtitle format used on BDs/HD-DVDs
    Language                                 : Slovak
    Default                                  : No
    Forced                                   : No

    Text #9
    ID                                       : 22
    Format                                   : PGS
    Muxing mode                              : zlib
    Codec ID                                 : S_HDMV/PGS
    Codec ID/Info                            : Picture based subtitle format used on BDs/HD-DVDs
    Language                                 : Norwegian
    Default                                  : No
    Forced                                   : No

    Text #10
    ID                                       : 23
    Format                                   : PGS
    Muxing mode                              : zlib
    Codec ID                                 : S_HDMV/PGS
    Codec ID/Info                            : Picture based subtitle format used on BDs/HD-DVDs
    Language                                 : Danish
    Default                                  : No
    Forced                                   : No

    Text #11
    ID                                       : 24
    Format                                   : PGS
    Muxing mode                              : zlib
    Codec ID                                 : S_HDMV/PGS
    Codec ID/Info                            : Picture based subtitle format used on BDs/HD-DVDs
    Language                                 : Hebrew
    Default                                  : No
    Forced                                   : No

    Text #12
    ID                                       : 25
    Format                                   : PGS
    Muxing mode                              : zlib
    Codec ID                                 : S_HDMV/PGS
    Codec ID/Info                            : Picture based subtitle format used on BDs/HD-DVDs
    Language                                 : Lithuanian
    Default                                  : No
    Forced                                   : No

    Text #13
    ID                                       : 26
    Format                                   : PGS
    Muxing mode                              : zlib
    Codec ID                                 : S_HDMV/PGS
    Codec ID/Info                            : Picture based subtitle format used on BDs/HD-DVDs
    Language                                 : Estonian
    Default                                  : No
    Forced                                   : No

    Text #14
    ID                                       : 27
    Format                                   : PGS
    Muxing mode                              : zlib
    Codec ID                                 : S_HDMV/PGS
    Codec ID/Info                            : Picture based subtitle format used on BDs/HD-DVDs
    Language                                 : Bulgarian
    Default                                  : No
    Forced                                   : No

    Text #15
    ID                                       : 28
    Format                                   : PGS
    Muxing mode                              : zlib
    Codec ID                                 : S_HDMV/PGS
    Codec ID/Info                            : Picture based subtitle format used on BDs/HD-DVDs
    Language                                 : Romanian
    Default                                  : No
    Forced                                   : No

    Text #16
    ID                                       : 29
    Format                                   : PGS
    Muxing mode                              : zlib
    Codec ID                                 : S_HDMV/PGS
    Codec ID/Info                            : Picture based subtitle format used on BDs/HD-DVDs
    Language                                 : Latvian
    Default                                  : No
    Forced                                   : No

    Text #17
    ID                                       : 30
    Format                                   : PGS
    Muxing mode                              : zlib
    Codec ID                                 : S_HDMV/PGS
    Codec ID/Info                            : Picture based subtitle format used on BDs/HD-DVDs
    Language                                 : Serbian
    Default                                  : No
    Forced                                   : No

    Text #18
    ID                                       : 31
    Format                                   : PGS
    Muxing mode                              : zlib
    Codec ID                                 : S_HDMV/PGS
    Codec ID/Info                            : Picture based subtitle format used on BDs/HD-DVDs
    Language                                 : Croatian
    Default                                  : No
    Forced                                   : No

    Text #19
    ID                                       : 32
    Format                                   : PGS
    Muxing mode                              : zlib
    Codec ID                                 : S_HDMV/PGS
    Codec ID/Info                            : Picture based subtitle format used on BDs/HD-DVDs
    Language                                 : Slovenian
    Default                                  : No
    Forced                                   : No

    Text #20
    ID                                       : 33
    Format                                   : PGS
    Muxing mode                              : zlib
    Codec ID                                 : S_HDMV/PGS
    Codec ID/Info                            : Picture based subtitle format used on BDs/HD-DVDs
    Language                                 : Czech
    Default                                  : No
    Forced                                   : No

    Text #21
    ID                                       : 34
    Format                                   : PGS
    Muxing mode                              : zlib
    Codec ID                                 : S_HDMV/PGS
    Codec ID/Info                            : Picture based subtitle format used on BDs/HD-DVDs
    Language                                 : Hungarian
    Default                                  : No
    Forced                                   : No

    Text #22
    ID                                       : 35
    Format                                   : PGS
    Muxing mode                              : zlib
    Codec ID                                 : S_HDMV/PGS
    Codec ID/Info                            : Picture based subtitle format used on BDs/HD-DVDs
    Language                                 : Russian
    Default                                  : No
    Forced                                   : No

    Text #23
    ID                                       : 36
    Format                                   : PGS
    Muxing mode                              : zlib
    Codec ID                                 : S_HDMV/PGS
    Codec ID/Info                            : Picture based subtitle format used on BDs/HD-DVDs
    Language                                 : Ukrainian
    Default                                  : No
    Forced                                   : No

    Text #24
    ID                                       : 37
    Format                                   : PGS
    Muxing mode                              : zlib
    Codec ID                                 : S_HDMV/PGS
    Codec ID/Info                            : Picture based subtitle format used on BDs/HD-DVDs
    Language                                 : Slovak
    Default                                  : No
    Forced                                   : No

    Text #25
    ID                                       : 38
    Format                                   : PGS
    Muxing mode                              : zlib
    Codec ID                                 : S_HDMV/PGS
    Codec ID/Info                            : Picture based subtitle format used on BDs/HD-DVDs
    Language                                 : Norwegian
    Default                                  : No
    Forced                                   : No

    Text #26
    ID                                       : 39
    Format                                   : PGS
    Muxing mode                              : zlib
    Codec ID                                 : S_HDMV/PGS
    Codec ID/Info                            : Picture based subtitle format used on BDs/HD-DVDs
    Language                                 : Danish
    Default                                  : No
    Forced                                   : No

    Text #27
    ID                                       : 40
    Format                                   : PGS
    Muxing mode                              : zlib
    Codec ID                                 : S_HDMV/PGS
    Codec ID/Info                            : Picture based subtitle format used on BDs/HD-DVDs
    Language                                 : Hebrew
    Default                                  : No
    Forced                                   : No


    33164937384562557320_thumb.jpg

    49381335097935705549_thumb.jpg

    50604637070895495422_thumb.jpg

    80968822360581195589_thumb.jpg

    88700724365799891290_thumb.jpg

    92566371048554859040_thumb.jpg

    游客,如果您要查看本帖隐藏内容请回复


    Video
    ID                                       : 1
    Format                                   : AVC
    Format/Info                              : Advanced Video Codec
    Format profile                           : High@L4.1
    Format settings, CABAC                   : Yes
    Format settings, ReFrames                : 2 frames
    Codec ID                                 : V_MPEG4/ISO/AVC
    Duration                                 : 1h 48mn
    Nominal bit rate                         : 16.0 Mbps
    Width                                    : 1 920 pixels
    Height                                   : 1 080 pixels
    Display aspect ratio                     : 16:9
    Frame rate mode                          : Constant
    Frame rate                               : 23.976 fps
    Color space                              : YUV
    Chroma subsampling                       : 4:2:0
    Bit depth                                : 8 bits
    Scan type                                : Progressive
    Bits/(Pixel*Frame)                       : 0.322
    Title                                    : Alice.in.Wonderland.2010.1080p.3D.BluRay.Half-OU.x264.DTS-HD.MA.5.1-RARBG
    Writing library                          : x264 core 142
    Encoding settings                        : cabac=1 / ref=1 / deblock=1:-1:-1 / analyse=0x3:0 / me=hex / subme=5 / psy=0 / mixed_ref=0 / me_range=16 / chroma_me=1 / trellis=0 / 8x8dct=1 / cqm=0 / deadzone=21,11 / fast_pskip=1 / chroma_qp_offset=0 / threads=8 / lookahead_threads=2 / sliced_threads=0 / nr=0 / decimate=1 / interlaced=0 / bluray_compat=0 / constrained_intra=0 / bframes=2 / b_pyramid=0 / b_adapt=1 / b_bias=0 / direct=1 / weightb=1 / open_gop=0 / weightp=0 / keyint=24 / keyint_min=13 / scenecut=40 / intra_refresh=0 / rc=abr / mbtree=0 / bitrate=16000 / ratetol=1.0 / qcomp=0.60 / qpmin=0 / qpmax=69 / qpstep=4 / ip_ratio=1.40 / pb_ratio=1.30 / aq=1:1.00
    Default                                  : Yes
    Forced                                   : No
    Color range                              : Limited
    Color primaries                          : BT.709
    Transfer characteristics                 : BT.709
    Matrix coefficients                      : BT.709

    Audio #1
    ID                                       : 2
    Format                                   : DTS
    Format/Info                              : Digital Theater Systems
    Format profile                           : MA / Core
    Mode                                     : 16
    Format settings, Endianness              : Big
    Codec ID                                 : A_DTS
    Duration                                 : 1h 48mn
    Bit rate mode                            : Variable
    Bit rate                                 : Unknown / 1 509 Kbps
    Channel(s)                               : 6 channels
    Channel positions                        : Front: L C R, Side: L R, LFE
    Sampling rate                            : 48.0 KHz
    Bit depth                                : 24 bits
    Compression mode                         : Lossless / Lossy
    Title                                    : Alice.in.Wonderland.2010.1080p.3D.BluRay.Half-OU.x264.DTS-HD.MA.5.1-RARBG
    Language                                 : English
    Default                                  : Yes
    Forced                                   : No

    Audio #2
    ID                                       : 3
    Format                                   : DTS
    Format/Info                              : Digital Theater Systems
    Format profile                           : ES
    Mode                                     : 16
    Format settings, Endianness              : Big
    Codec ID                                 : A_DTS
    Duration                                 : 1h 48mn
    Bit rate mode                            : Constant
    Bit rate                                 : 1 509 Kbps
    Channel(s)                               : 6 channels
    Channel positions                        : Front: L C R, Side: L R, LFE
    Sampling rate                            : 48.0 KHz
    Bit depth                                : 24 bits
    Compression mode                         : Lossy
    Stream size                              : 1.14 GiB (5%)
    Title                                    : Alice.in.Wonderland.2010.1080p.3D.BluRay.Half-OU.x264.DTS-HD.MA.5.1-RARBG
    Language                                 : English
    Default                                  : No
    Forced                                   : No

    Audio #3
    ID                                       : 4
    Format                                   : AC-3
    Format/Info                              : Audio Coding 3
    Mode extension                           : CM (complete main)
    Format settings, Endianness              : Big
    Codec ID                                 : A_AC3
    Duration                                 : 1h 48mn
    Bit rate mode                            : Constant
    Bit rate                                 : 640 Kbps
    Channel(s)                               : 6 channels
    Channel positions                        : Front: L C R, Side: L R, LFE
    Sampling rate                            : 48.0 KHz
    Bit depth                                : 16 bits
    Compression mode                         : Lossy
    Stream size                              : 497 MiB (2%)
    Title                                    : Alice.in.Wonderland.2010.1080p.3D.BluRay.Half-OU.x264.DTS-HD.MA.5.1-RARBG
    Language                                 : Czech
    Default                                  : No
    Forced                                   : No

    Audio #4
    ID                                       : 5
    Format                                   : AC-3
    Format/Info                              : Audio Coding 3
    Mode extension                           : CM (complete main)
    Format settings, Endianness              : Big
    Codec ID                                 : A_AC3
    Duration                                 : 1h 48mn
    Bit rate mode                            : Constant
    Bit rate                                 : 640 Kbps
    Channel(s)                               : 6 channels
    Channel positions                        : Front: L C R, Side: L R, LFE
    Sampling rate                            : 48.0 KHz
    Bit depth                                : 16 bits
    Compression mode                         : Lossy
    Stream size                              : 497 MiB (2%)
    Title                                    : Alice.in.Wonderland.2010.1080p.3D.BluRay.Half-OU.x264.DTS-HD.MA.5.1-RARBG
    Language                                 : Hungarian
    Default                                  : No
    Forced                                   : No

    Audio #5
    ID                                       : 6
    Format                                   : AC-3
    Format/Info                              : Audio Coding 3
    Mode extension                           : CM (complete main)
    Format settings, Endianness              : Big
    Codec ID                                 : A_AC3
    Duration                                 : 1h 48mn
    Bit rate mode                            : Constant
    Bit rate                                 : 640 Kbps
    Channel(s)                               : 6 channels
    Channel positions                        : Front: L C R, Side: L R, LFE
    Sampling rate                            : 48.0 KHz
    Bit depth                                : 16 bits
    Compression mode                         : Lossy
    Stream size                              : 497 MiB (2%)
    Title                                    : Alice.in.Wonderland.2010.1080p.3D.BluRay.Half-OU.x264.DTS-HD.MA.5.1-RARBG
    Language                                 : Russian
    Default                                  : No
    Forced                                   : No

    Audio #6
    ID                                       : 7
    Format                                   : AC-3
    Format/Info                              : Audio Coding 3
    Mode extension                           : CM (complete main)
    Format settings, Endianness              : Big
    Codec ID                                 : A_AC3
    Duration                                 : 1h 48mn
    Bit rate mode                            : Constant
    Bit rate                                 : 640 Kbps
    Channel(s)                               : 6 channels
    Channel positions                        : Front: L C R, Side: L R, LFE
    Sampling rate                            : 48.0 KHz
    Bit depth                                : 16 bits
    Compression mode                         : Lossy
    Stream size                              : 497 MiB (2%)
    Title                                    : Alice.in.Wonderland.2010.1080p.3D.BluRay.Half-OU.x264.DTS-HD.MA.5.1-RARBG
    Language                                 : Ukrainian
    Default                                  : No
    Forced                                   : No

    Audio #7
    ID                                       : 8
    Format                                   : AC-3
    Format/Info                              : Audio Coding 3
    Mode extension                           : CM (complete main)
    Format settings, Endianness              : Big
    Codec ID                                 : A_AC3
    Duration                                 : 1h 48mn
    Bit rate mode                            : Constant
    Bit rate                                 : 640 Kbps
    Channel(s)                               : 6 channels
    Channel positions                        : Front: L C R, Side: L R, LFE
    Sampling rate                            : 48.0 KHz
    Bit depth                                : 16 bits
    Compression mode                         : Lossy
    Stream size                              : 497 MiB (2%)
    Title                                    : Alice.in.Wonderland.2010.1080p.3D.BluRay.Half-OU.x264.DTS-HD.MA.5.1-RARBG
    Language                                 : Slovak
    Default                                  : No
    Forced                                   : No

    Audio #8
    ID                                       : 9
    Format                                   : AC-3
    Format/Info                              : Audio Coding 3
    Mode extension                           : CM (complete main)
    Format settings, Endianness              : Big
    Codec ID                                 : A_AC3
    Duration                                 : 1h 48mn
    Bit rate mode                            : Constant
    Bit rate                                 : 640 Kbps
    Channel(s)                               : 6 channels
    Channel positions                        : Front: L C R, Side: L R, LFE
    Sampling rate                            : 48.0 KHz
    Bit depth                                : 16 bits
    Compression mode                         : Lossy
    Stream size                              : 497 MiB (2%)
    Title                                    : Alice.in.Wonderland.2010.1080p.3D.BluRay.Half-OU.x264.DTS-HD.MA.5.1-RARBG
    Language                                 : Norwegian
    Default                                  : No
    Forced                                   : No

    Audio #9
    ID                                       : 10
    Format                                   : AC-3
    Format/Info                              : Audio Coding 3
    Mode extension                           : CM (complete main)
    Format settings, Endianness              : Big
    Codec ID                                 : A_AC3
    Duration                                 : 1h 48mn
    Bit rate mode                            : Constant
    Bit rate                                 : 640 Kbps
    Channel(s)                               : 6 channels
    Channel positions                        : Front: L C R, Side: L R, LFE
    Sampling rate                            : 48.0 KHz
    Bit depth                                : 16 bits
    Compression mode                         : Lossy
    Stream size                              : 497 MiB (2%)
    Title                                    : Alice.in.Wonderland.2010.1080p.3D.BluRay.Half-OU.x264.DTS-HD.MA.5.1-RARBG
    Language                                 : Danish
    Default                                  : No
    Forced                                   : No

    Audio #10
    ID                                       : 11
    Format                                   : AC-3
    Format/Info                              : Audio Coding 3
    Mode extension                           : CM (complete main)
    Format settings, Endianness              : Big
    Codec ID                                 : A_AC3
    Duration                                 : 1h 48mn
    Bit rate mode                            : Constant
    Bit rate                                 : 640 Kbps
    Channel(s)                               : 6 channels
    Channel positions                        : Front: L C R, Side: L R, LFE
    Sampling rate                            : 48.0 KHz
    Bit depth                                : 16 bits
    Compression mode                         : Lossy
    Stream size                              : 497 MiB (2%)
    Title                                    : Alice.in.Wonderland.2010.1080p.3D.BluRay.Half-OU.x264.DTS-HD.MA.5.1-RARBG
    Language                                 : Lithuanian
    Default                                  : No
    Forced                                   : No

    Audio #11
    ID                                       : 12
    Format                                   : AC-3
    Format/Info                              : Audio Coding 3
    Mode extension                           : CM (complete main)
    Format settings, Endianness              : Big
    Codec ID                                 : A_AC3
    Duration                                 : 1h 48mn
    Bit rate mode                            : Constant
    Bit rate                                 : 640 Kbps
    Channel(s)                               : 6 channels
    Channel positions                        : Front: L C R, Side: L R, LFE
    Sampling rate                            : 48.0 KHz
    Bit depth                                : 16 bits
    Compression mode                         : Lossy
    Stream size                              : 497 MiB (2%)
    Title                                    : Alice.in.Wonderland.2010.1080p.3D.BluRay.Half-OU.x264.DTS-HD.MA.5.1-RARBG
    Language                                 : Estonian
    Default                                  : No
    Forced                                   : No

    Audio #12
    ID                                       : 13
    Format                                   : AC-3
    Format/Info                              : Audio Coding 3
    Mode extension                           : CM (complete main)
    Format settings, Endianness              : Big
    Codec ID                                 : A_AC3
    Duration                                 : 1h 48mn
    Bit rate mode                            : Constant
    Bit rate                                 : 640 Kbps
    Channel(s)                               : 6 channels
    Channel positions                        : Front: L C R, Side: L R, LFE
    Sampling rate                            : 48.0 KHz
    Bit depth                                : 16 bits
    Compression mode                         : Lossy
    Stream size                              : 497 MiB (2%)
    Title                                    : Alice.in.Wonderland.2010.1080p.3D.BluRay.Half-OU.x264.DTS-HD.MA.5.1-RARBG
    Language                                 : Hebrew
    Default                                  : No
    Forced                                   : No

    Text #1
    ID                                       : 14
    Format                                   : PGS
    Muxing mode                              : zlib
    Codec ID                                 : S_HDMV/PGS
    Codec ID/Info                            : Picture based subtitle format used on BDs/HD-DVDs
    Language                                 : English
    Default                                  : No
    Forced                                   : No

    Text #2
    ID                                       : 15
    Format                                   : PGS
    Muxing mode                              : zlib
    Codec ID                                 : S_HDMV/PGS
    Codec ID/Info                            : Picture based subtitle format used on BDs/HD-DVDs
    Language                                 : English
    Default                                  : No
    Forced                                   : No

    Text #3
    ID                                       : 16
    Format                                   : PGS
    Muxing mode                              : zlib
    Codec ID                                 : S_HDMV/PGS
    Codec ID/Info                            : Picture based subtitle format used on BDs/HD-DVDs
    Language                                 : Czech
    Default                                  : No
    Forced                                   : No

    Text #4
    ID                                       : 17
    Format                                   : PGS
    Muxing mode                              : zlib
    Codec ID                                 : S_HDMV/PGS
    Codec ID/Info                            : Picture based subtitle format used on BDs/HD-DVDs
    Language                                 : Hungarian
    Default                                  : No
    Forced                                   : No

    Text #5
    ID                                       : 18
    Format                                   : PGS
    Muxing mode                              : zlib
    Codec ID                                 : S_HDMV/PGS
    Codec ID/Info                            : Picture based subtitle format used on BDs/HD-DVDs
    Language                                 : Greek
    Default                                  : No
    Forced                                   : No

    Text #6
    ID                                       : 19
    Format                                   : PGS
    Muxing mode                              : zlib
    Codec ID                                 : S_HDMV/PGS
    Codec ID/Info                            : Picture based subtitle format used on BDs/HD-DVDs
    Language                                 : Russian
    Default                                  : No
    Forced                                   : No

    Text #7
    ID                                       : 20
    Format                                   : PGS
    Muxing mode                              : zlib
    Codec ID                                 : S_HDMV/PGS
    Codec ID/Info                            : Picture based subtitle format used on BDs/HD-DVDs
    Language                                 : Ukrainian
    Default                                  : No
    Forced                                   : No

    Text #8
    ID                                       : 21
    Format                                   : PGS
    Muxing mode                              : zlib
    Codec ID                                 : S_HDMV/PGS
    Codec ID/Info                            : Picture based subtitle format used on BDs/HD-DVDs
    Language                                 : Slovak
    Default                                  : No
    Forced                                   : No

    Text #9
    ID                                       : 22
    Format                                   : PGS
    Muxing mode                              : zlib
    Codec ID                                 : S_HDMV/PGS
    Codec ID/Info                            : Picture based subtitle format used on BDs/HD-DVDs
    Language                                 : Norwegian
    Default                                  : No
    Forced                                   : No

    Text #10
    ID                                       : 23
    Format                                   : PGS
    Muxing mode                              : zlib
    Codec ID                                 : S_HDMV/PGS
    Codec ID/Info                            : Picture based subtitle format used on BDs/HD-DVDs
    Language                                 : Danish
    Default                                  : No
    Forced                                   : No

    Text #11
    ID                                       : 24
    Format                                   : PGS
    Muxing mode                              : zlib
    Codec ID                                 : S_HDMV/PGS
    Codec ID/Info                            : Picture based subtitle format used on BDs/HD-DVDs
    Language                                 : Hebrew
    Default                                  : No
    Forced                                   : No

    Text #12
    ID                                       : 25
    Format                                   : PGS
    Muxing mode                              : zlib
    Codec ID                                 : S_HDMV/PGS
    Codec ID/Info                            : Picture based subtitle format used on BDs/HD-DVDs
    Language                                 : Lithuanian
    Default                                  : No
    Forced                                   : No

    Text #13
    ID                                       : 26
    Format                                   : PGS
    Muxing mode                              : zlib
    Codec ID                                 : S_HDMV/PGS
    Codec ID/Info                            : Picture based subtitle format used on BDs/HD-DVDs
    Language                                 : Estonian
    Default                                  : No
    Forced                                   : No

    Text #14
    ID                                       : 27
    Format                                   : PGS
    Muxing mode                              : zlib
    Codec ID                                 : S_HDMV/PGS
    Codec ID/Info                            : Picture based subtitle format used on BDs/HD-DVDs
    Language                                 : Bulgarian
    Default                                  : No
    Forced                                   : No

    Text #15
    ID                                       : 28
    Format                                   : PGS
    Muxing mode                              : zlib
    Codec ID                                 : S_HDMV/PGS
    Codec ID/Info                            : Picture based subtitle format used on BDs/HD-DVDs
    Language                                 : Romanian
    Default                                  : No
    Forced                                   : No

    Text #16
    ID                                       : 29
    Format                                   : PGS
    Muxing mode                              : zlib
    Codec ID                                 : S_HDMV/PGS
    Codec ID/Info                            : Picture based subtitle format used on BDs/HD-DVDs
    Language                                 : Latvian
    Default                                  : No
    Forced                                   : No

    Text #17
    ID                                       : 30
    Format                                   : PGS
    Muxing mode                              : zlib
    Codec ID                                 : S_HDMV/PGS
    Codec ID/Info                            : Picture based subtitle format used on BDs/HD-DVDs
    Language                                 : Serbian
    Default                                  : No
    Forced                                   : No

    Text #18
    ID                                       : 31
    Format                                   : PGS
    Muxing mode                              : zlib
    Codec ID                                 : S_HDMV/PGS
    Codec ID/Info                            : Picture based subtitle format used on BDs/HD-DVDs
    Language                                 : Croatian
    Default                                  : No
    Forced                                   : No

    Text #19
    ID                                       : 32
    Format                                   : PGS
    Muxing mode                              : zlib
    Codec ID                                 : S_HDMV/PGS
    Codec ID/Info                            : Picture based subtitle format used on BDs/HD-DVDs
    Language                                 : Slovenian
    Default                                  : No
    Forced                                   : No

    Text #20
    ID                                       : 33
    Format                                   : PGS
    Muxing mode                              : zlib
    Codec ID                                 : S_HDMV/PGS
    Codec ID/Info                            : Picture based subtitle format used on BDs/HD-DVDs
    Language                                 : Czech
    Default                                  : No
    Forced                                   : No

    Text #21
    ID                                       : 34
    Format                                   : PGS
    Muxing mode                              : zlib
    Codec ID                                 : S_HDMV/PGS
    Codec ID/Info                            : Picture based subtitle format used on BDs/HD-DVDs
    Language                                 : Hungarian
    Default                                  : No
    Forced                                   : No

    Text #22
    ID                                       : 35
    Format                                   : PGS
    Muxing mode                              : zlib
    Codec ID                                 : S_HDMV/PGS
    Codec ID/Info                            : Picture based subtitle format used on BDs/HD-DVDs
    Language                                 : Russian
    Default                                  : No
    Forced                                   : No

    Text #23
    ID                                       : 36
    Format                                   : PGS
    Muxing mode                              : zlib
    Codec ID                                 : S_HDMV/PGS
    Codec ID/Info                            : Picture based subtitle format used on BDs/HD-DVDs
    Language                                 : Ukrainian
    Default                                  : No
    Forced                                   : No

    Text #24
    ID                                       : 37
    Format                                   : PGS
    Muxing mode                              : zlib
    Codec ID                                 : S_HDMV/PGS
    Codec ID/Info                            : Picture based subtitle format used on BDs/HD-DVDs
    Language                                 : Slovak
    Default                                  : No
    Forced                                   : No

    Text #25
    ID                                       : 38
    Format                                   : PGS
    Muxing mode                              : zlib
    Codec ID                                 : S_HDMV/PGS
    Codec ID/Info                            : Picture based subtitle format used on BDs/HD-DVDs
    Language                                 : Norwegian
    Default                                  : No
    Forced                                   : No

    Text #26
    ID                                       : 39
    Format                                   : PGS
    Muxing mode                              : zlib
    Codec ID                                 : S_HDMV/PGS
    Codec ID/Info                            : Picture based subtitle format used on BDs/HD-DVDs
    Language                                 : Danish
    Default                                  : No
    Forced                                   : No

    Text #27
    ID                                       : 40
    Format                                   : PGS
    Muxing mode                              : zlib
    Codec ID                                 : S_HDMV/PGS
    Codec ID/Info                            : Picture based subtitle format used on BDs/HD-DVDs
    Language                                 : Hebrew
    Default                                  : No
    Forced                                   : No



    96613709358449737926_thumb.jpg

    91556888046672650288_thumb.jpg

    73646014245981173356_thumb.jpg

    61659606249464366367_thumb.jpg

    47000760361466129767_thumb.jpg

    30639256854261536348_thumb.jpg


    游客,如果您要查看本帖隐藏内容请回复



    中简字幕
    游客,如果您要查看本帖隐藏内容请回复

  • TA的每日心情

    2017-3-1 15:35
  • 签到天数: 666 天

    [LV.9]以坛为家II

    发表于 2015-7-8 11:01:02 | 显示全部楼层
    看不过来了,这几天怎么这么多芯片啊
    回复 支持 反对

    使用道具 举报

  • TA的每日心情
    开心
    2016-11-1 15:32
  • 签到天数: 153 天

    [LV.7]常住居民III

    发表于 2015-7-8 11:59:00 | 显示全部楼层
    是谁抢了我的沙发```
    回复 支持 反对

    使用道具 举报

  • TA的每日心情
    开心
    2016-11-1 15:32
  • 签到天数: 153 天

    [LV.7]常住居民III

    发表于 2015-7-8 11:59:46 | 显示全部楼层
    资源太少了```下载好慢```
    回复 支持 反对

    使用道具 举报

  • TA的每日心情
    开心
    2015-7-8 11:31
  • 签到天数: 1 天

    [LV.1]初来乍到

    发表于 2015-7-8 12:07:37 | 显示全部楼层
    爱丽丝梦游仙境3D Alice.in.Wonderland.2010.3D][1080p][左右半宽/上下半高][MKV 20.75G/21.09G][BT][外挂中简字幕] [
    回复 支持 反对

    使用道具 举报

  • TA的每日心情
    开心
    2017-1-19 06:34
  • 签到天数: 1509 天

    [LV.Master]伴坛终老

    发表于 2015-7-8 12:14:14 | 显示全部楼层
    好的好的,好极了。
    回复 支持 反对

    使用道具 举报

  • TA的每日心情
    开心
    2017-2-20 17:20
  • 签到天数: 168 天

    [LV.7]常住居民III

    发表于 2015-7-8 15:31:42 | 显示全部楼层
    好片共赏,多谢楼主分享!!!!
    回复 支持 反对

    使用道具 举报

  • TA的每日心情

    2015-11-2 16:06
  • 签到天数: 4 天

    [LV.2]偶尔看看I

    发表于 2015-7-8 16:13:54 | 显示全部楼层
    谢谢楼主分享!
    回复 支持 反对

    使用道具 举报

  • TA的每日心情
    奋斗
    2017-4-30 16:14
  • 签到天数: 491 天

    [LV.9]以坛为家II

    发表于 2015-7-8 18:44:45 | 显示全部楼层
    好片共赏,多谢楼主分享!
    回复 支持 反对

    使用道具 举报

  • TA的每日心情

    2017-1-18 11:09
  • 签到天数: 563 天

    [LV.9]以坛为家II

    发表于 2015-7-8 19:51:07 | 显示全部楼层
    不错啊。。呵呵
    回复 支持 反对

    使用道具 举报

    您需要登录后才可以回帖 登录 | 立即注册

    本版积分规则

    免责申明|小黑屋|手机版|Archiver|网站地图| 3D一族论坛  

    Copyright © 2001-2015 Comsenz Inc.   All Rights Reserved.

    Powered by Discuz! X3.2( 沪ICP备14045620号-1 )

    快速回复 返回顶部 返回列表