请选择 进入手机版 | 继续访问电脑版
 找回密码

3D一族论坛

查看: 13566|回复: 420

[左右] [重返侏罗纪3D Back.To.The.Jurassic.2015.3D][1080p][左右半宽/上下半高][MKV 9.88G/10.18G][BT][外挂中简字幕]

  [复制链接]
  • TA的每日心情
    开心
    6 天前
  • 签到天数: 1637 天

    [LV.Master]伴坛终老

    发表于 2015-7-8 20:18:34 | 显示全部楼层 |阅读模式
    影片截图:

    data/attachment/forum/201507/08/200813wkart6chsyrhfeak.jpg

         
      片        名: Back.To.The.Jurassic.2015.3D
      译        名: 重返侏罗纪.2015.3D
      类        别: 冒险 动漫 
      国        家: 欧美
      语        言: 英语
      字        幕: 中文字幕
      集        数:
      文件格式: MKV
      视频尺寸: 1920*1080
      文件大小: 9.88GB/10.18GB
      上映时间:
      影片导演: Melanie Griffith ... Tyra (voice)
      主要演员: Jane Lynch ... Sue (voice)
        William Baldwin ... Sarco (voice)
        Stephen Baldwin ... Surly (voice)
      推荐等级: ★★★★★
         
    下载地址:
    [下载方式]: bt下载
    [分辨率]: 1080p
    [迅雷地址]:
    [网盘下载]:
    影片简介: fangfang
    厄尼,茱莉亚和马克斯意外启动时间机器,发现自己早在6500万年,他们通过一个溺爱的恐龙妈妈和喧闹的恐龙兄弟,回到当下,父母情节拯救他们。
    本帖最后由 xdwl 于 2015-7-8 20:23 编辑

    Back to the Jurassic_front.jpg


    ◎译  名 重返侏罗纪

    ◎片  名 Back to the Jurassic

    ◎年  代 2015

    ◎国  家 美国

    ◎语  言 英语

    ◎IMDb评分  5.8/10 from 37 users

    ◎IMDb链接  http://www.imdb.com/title/tt4693418/

    ◎片  长 86分钟

    ◎主  演 Melanie Griffith        ...        Tyra (voice)

                     Jane Lynch        ...        Sue (voice)

                     William Baldwin        ...        Sarco (voice)

                     Stephen Baldwin        ...        Surly (voice)

                     Rob Schneider        ...        Dodger (voice)

                     Pamela Adlon        ...        Ernie (voice)

                     Fred Tatasciore        ...        Dr. Santiago (voice)

    ◎简  介


      Ernie, Julia, and Max accidentally start a time-machine and find themselves back in time 65 million years, where they are adopted by a doting dinosaur mom and a rambunctious dinosaur brother while, back in the present day, their parents plot their rescue.



    厄尼,茱莉亚和马克斯意外启动时间机器,发现自己早在6500万年,他们通过一个溺爱的恐龙妈妈和喧闹的恐龙兄弟,回到当下,父母情节拯救他们。



    Video
    ID                                       : 1
    Format                                   : AVC
    Format/Info                              : Advanced Video Codec
    Format profile                           : High@L4.1
    Format settings, CABAC                   : Yes
    Format settings, ReFrames                : 2 frames
    Codec ID                                 : V_MPEG4/ISO/AVC
    Duration                                 : 1h 25mn
    Bit rate                                 : 15.5 Mbps
    Width                                    : 1 920 pixels
    Height                                   : 1 080 pixels
    Display aspect ratio                     : 16:9
    Frame rate mode                          : Constant
    Frame rate                               : 23.976 fps
    Color space                              : YUV
    Chroma subsampling                       : 4:2:0
    Bit depth                                : 8 bits
    Scan type                                : Progressive
    Bits/(Pixel*Frame)                       : 0.312
    Stream size                              : 9.11 GiB (92%)
    Title                                    : Back.To.The.Jurassic.2015.1080p.3D.BluRay.Half-SBS.x264.DD5.1-RARBG
    Writing library                          : x264 core 142
    Encoding settings                        : cabac=1 / ref=1 / deblock=1:-1:-1 / analyse=0x3:0 / me=hex / subme=5 / psy=0 / mixed_ref=0 / me_range=16 / chroma_me=1 / trellis=0 / 8x8dct=1 / cqm=0 / deadzone=21,11 / fast_pskip=1 / chroma_qp_offset=0 / threads=8 / lookahead_threads=2 / sliced_threads=0 / nr=0 / decimate=1 / interlaced=0 / bluray_compat=0 / constrained_intra=0 / bframes=2 / b_pyramid=0 / b_adapt=1 / b_bias=0 / direct=1 / weightb=1 / open_gop=0 / weightp=0 / keyint=24 / keyint_min=13 / scenecut=40 / intra_refresh=0 / rc=abr / mbtree=0 / bitrate=15500 / ratetol=1.0 / qcomp=0.60 / qpmin=0 / qpmax=69 / qpstep=4 / ip_ratio=1.40 / pb_ratio=1.30 / aq=1:1.00
    Default                                  : Yes
    Forced                                   : No
    Color range                              : Limited
    Color primaries                          : BT.709
    Transfer characteristics                 : BT.709
    Matrix coefficients                      : BT.709

    Audio #1
    ID                                       : 2
    Format                                   : AC-3
    Format/Info                              : Audio Coding 3
    Mode extension                           : CM (complete main)
    Format settings, Endianness              : Big
    Codec ID                                 : A_AC3
    Duration                                 : 1h 25mn
    Bit rate mode                            : Constant
    Bit rate                                 : 640 Kbps
    Channel(s)                               : 6 channels
    Channel positions                        : Front: L C R, Side: L R, LFE
    Sampling rate                            : 48.0 KHz
    Bit depth                                : 16 bits
    Compression mode                         : Lossy
    Stream size                              : 393 MiB (4%)
    Title                                    : Back.To.The.Jurassic.2015.1080p.3D.BluRay.Half-SBS.x264.DD5.1-RARBG
    Language                                 : English
    Default                                  : Yes
    Forced                                   : No

    Audio #2
    ID                                       : 3
    Format                                   : AC-3
    Format/Info                              : Audio Coding 3
    Mode extension                           : CM (complete main)
    Format settings, Endianness              : Big
    Codec ID                                 : A_AC3
    Duration                                 : 1h 25mn
    Bit rate mode                            : Constant
    Bit rate                                 : 320 Kbps
    Channel(s)                               : 2 channels
    Channel positions                        : Front: L R
    Sampling rate                            : 48.0 KHz
    Bit depth                                : 16 bits
    Compression mode                         : Lossy
    Stream size                              : 197 MiB (2%)
    Title                                    : Back.To.The.Jurassic.2015.1080p.3D.BluRay.Half-SBS.x264.DD5.1-RARBG
    Language                                 : English
    Default                                  : No
    Forced                                   : No

    Text #1
    ID                                       : 4
    Format                                   : PGS
    Muxing mode                              : zlib
    Codec ID                                 : S_HDMV/PGS
    Codec ID/Info                            : Picture based subtitle format used on BDs/HD-DVDs
    Language                                 : English
    Default                                  : No
    Forced                                   : No

    Text #2
    ID                                       : 5
    Format                                   : PGS
    Muxing mode                              : zlib
    Codec ID                                 : S_HDMV/PGS
    Codec ID/Info                            : Picture based subtitle format used on BDs/HD-DVDs
    Language                                 : Spanish
    Default                                  : No
    Forced                                   : No


    11601383199099395723_thumb.jpg

    36081663833360370040_thumb.jpg

    43579455417428284969_thumb.jpg

    44307003909919545722_thumb.jpg

    66849822169426829158_thumb.jpg

    86764478452473475412_thumb.jpg

    游客,如果您要查看本帖隐藏内容请回复


    Video
    ID                                       : 1
    Format                                   : AVC
    Format/Info                              : Advanced Video Codec
    Format profile                           : High@L4.1
    Format settings, CABAC                   : Yes
    Format settings, ReFrames                : 2 frames
    Codec ID                                 : V_MPEG4/ISO/AVC
    Duration                                 : 1h 25mn
    Bit rate                                 : 16.0 Mbps
    Width                                    : 1 920 pixels
    Height                                   : 1 080 pixels
    Display aspect ratio                     : 16:9
    Frame rate mode                          : Constant
    Frame rate                               : 23.976 fps
    Color space                              : YUV
    Chroma subsampling                       : 4:2:0
    Bit depth                                : 8 bits
    Scan type                                : Progressive
    Bits/(Pixel*Frame)                       : 0.322
    Stream size                              : 9.40 GiB (92%)
    Title                                    : Back.To.The.Jurassic.2015.1080p.3D.BluRay.Half-OU.x264.DD5.1-RARBG
    Writing library                          : x264 core 142
    Encoding settings                        : cabac=1 / ref=1 / deblock=1:-1:-1 / analyse=0x3:0 / me=hex / subme=5 / psy=0 / mixed_ref=0 / me_range=16 / chroma_me=1 / trellis=0 / 8x8dct=1 / cqm=0 / deadzone=21,11 / fast_pskip=1 / chroma_qp_offset=0 / threads=8 / lookahead_threads=2 / sliced_threads=0 / nr=0 / decimate=1 / interlaced=0 / bluray_compat=0 / constrained_intra=0 / bframes=2 / b_pyramid=0 / b_adapt=1 / b_bias=0 / direct=1 / weightb=1 / open_gop=0 / weightp=0 / keyint=24 / keyint_min=13 / scenecut=40 / intra_refresh=0 / rc=abr / mbtree=0 / bitrate=16000 / ratetol=1.0 / qcomp=0.60 / qpmin=0 / qpmax=69 / qpstep=4 / ip_ratio=1.40 / pb_ratio=1.30 / aq=1:1.00
    Default                                  : Yes
    Forced                                   : No
    Color range                              : Limited
    Color primaries                          : BT.709
    Transfer characteristics                 : BT.709
    Matrix coefficients                      : BT.709

    Audio #1
    ID                                       : 2
    Format                                   : AC-3
    Format/Info                              : Audio Coding 3
    Mode extension                           : CM (complete main)
    Format settings, Endianness              : Big
    Codec ID                                 : A_AC3
    Duration                                 : 1h 25mn
    Bit rate mode                            : Constant
    Bit rate                                 : 640 Kbps
    Channel(s)                               : 6 channels
    Channel positions                        : Front: L C R, Side: L R, LFE
    Sampling rate                            : 48.0 KHz
    Bit depth                                : 16 bits
    Compression mode                         : Lossy
    Stream size                              : 393 MiB (4%)
    Title                                    : Back.To.The.Jurassic.2015.1080p.3D.BluRay.Half-OU.x264.DD5.1-RARBG
    Language                                 : English
    Default                                  : Yes
    Forced                                   : No

    Audio #2
    ID                                       : 3
    Format                                   : AC-3
    Format/Info                              : Audio Coding 3
    Mode extension                           : CM (complete main)
    Format settings, Endianness              : Big
    Codec ID                                 : A_AC3
    Duration                                 : 1h 25mn
    Bit rate mode                            : Constant
    Bit rate                                 : 320 Kbps
    Channel(s)                               : 2 channels
    Channel positions                        : Front: L R
    Sampling rate                            : 48.0 KHz
    Bit depth                                : 16 bits
    Compression mode                         : Lossy
    Stream size                              : 197 MiB (2%)
    Title                                    : Back.To.The.Jurassic.2015.1080p.3D.BluRay.Half-OU.x264.DD5.1-RARBG
    Language                                 : English
    Default                                  : No
    Forced                                   : No

    Text #1
    ID                                       : 4
    Format                                   : PGS
    Muxing mode                              : zlib
    Codec ID                                 : S_HDMV/PGS
    Codec ID/Info                            : Picture based subtitle format used on BDs/HD-DVDs
    Language                                 : English
    Default                                  : No
    Forced                                   : No

    Text #2
    ID                                       : 5
    Format                                   : PGS
    Muxing mode                              : zlib
    Codec ID                                 : S_HDMV/PGS
    Codec ID/Info                            : Picture based subtitle format used on BDs/HD-DVDs
    Language                                 : Spanish
    Default                                  : No
    Forced                                   : No


    00212098587467046199_thumb.jpg

    05744410998849429995_thumb.jpg

    51413297971180730033_thumb.jpg

    67571297782572660411_thumb.jpg

    81119881733160872685_thumb.jpg

    90883135949426461802_thumb.jpg

    游客,如果您要查看本帖隐藏内容请回复


    中简字幕
    游客,如果您要查看本帖隐藏内容请回复

  • TA的每日心情
    开心
    昨天 10:32
  • 签到天数: 820 天

    [LV.10]以坛为家III

    发表于 2015-7-8 20:58:12 | 显示全部楼层
    不错,顶一下。
    回复 支持 1 反对 0

    使用道具 举报

    匿名  发表于 2015-7-8 21:12:30
    重返侏罗纪
  • TA的每日心情

    2017-3-6 17:34
  • 签到天数: 65 天

    [LV.6]常住居民II

    发表于 2015-7-8 21:13:28 | 显示全部楼层
    重返侏罗纪
    回复 支持 反对

    使用道具 举报

  • TA的每日心情
    开心
    1 小时前
  • 签到天数: 1005 天

    [LV.10]以坛为家III

    发表于 2015-7-8 21:33:15 | 显示全部楼层
    谢谢分享
    回复 支持 反对

    使用道具 举报

    匿名  发表于 2015-7-8 21:54:11
    [重返侏罗纪3D Back.To.The.Jurassic.2015.3D][1080p][左右半宽/上
  • TA的每日心情
    开心
    2017-3-1 17:11
  • 签到天数: 226 天

    [LV.7]常住居民III

    发表于 2015-7-8 21:55:22 | 显示全部楼层
    [重返侏罗纪3D Back.To.The.Jurassic.2015.3D][1080p][左右半宽/上
    回复 支持 反对

    使用道具 举报

  • TA的每日心情
    开心
    2017-3-1 17:11
  • 签到天数: 226 天

    [LV.7]常住居民III

    发表于 2015-7-8 21:55:56 | 显示全部楼层
    [重返侏罗纪3D Back.To.The.Jurassic.2015.3D][1080p][左右半宽/上
    回复 支持 反对

    使用道具 举报

    高级模式
    B Color Image Link Quote Code Smilies

    本版积分规则

    免责申明|小黑屋|手机版|Archiver|网站地图| 3D一族论坛  

    Copyright © 2001-2015 Comsenz Inc.   All Rights Reserved.

    Powered by Discuz! X3.2( 沪ICP备14045620号-1 )

    快速回复 返回顶部 返回列表