请选择 进入手机版 | 继续访问电脑版
 找回密码

3D一族论坛

查看: 9440|回复: 215

[左右] [真人游戏3D Gamer.2009.3D][1080p][左右半宽/上下半高][MKV 14.14G/14.52G][BT][外挂中简字幕]

  [复制链接]
  • TA的每日心情
    开心
    2017-3-15 15:19
  • 签到天数: 1634 天

    [LV.Master]伴坛终老

    发表于 2015-7-9 10:02:02 | 显示全部楼层 |阅读模式
    影片截图:

    data/attachment/forum/201507/09/095723h8o16olol4k4dk34.jpg

         
      片        名: Gamer.2009.3D
      译        名: 真人游戏3D
      类        别: 动作 科幻 
      国        家: 欧美
      语        言: 英语
      字        幕: 中文字幕
      集        数:
      文件格式: MKV
      视频尺寸: 1920*1080
      文件大小: 14.14G/14.52G
      上映时间: 2009-09-04(美国)
      影片导演: 马克·耐沃尔代 Mark Neveldine
      主要演员: 杰拉德·巴特勒 Gerard Butler....Kable
        安贝·瓦莱塔 Amber Valletta....Angie
        迈克尔·C·豪尔 Michael C. Hall....Ken Castle
      推荐等级: ★★★★★
         
    下载地址:
    [下载方式]: bt下载
    [分辨率]: 1080p
    [迅雷地址]:
    [网盘下载]:
    影片简介: fangfang
    影片的故事设定贡在了不太遥远的未来,被囚禁在死囚区的关押犯Kabel(杰拉德·巴特勒饰演),无意中成为了那个时代里流行文化的英雄人物。因为每周,全世界数以万计双眼睛正通过网上的一款名为《凶手》(Slayers)的极端暴力的多人在线游戏,收看他同其他数百名罪犯的生死拼杀,这款游戏是由科技天才Ken Castle(迈克尔·豪尔饰演)发明的。在这位能操控游戏人物一举一动的年轻富有的玩家眼里,Kable只是一个虚拟角色。而对这款带有高科技奴役色彩游戏持反对态度的人们来说,Kable成为了在战斗中崩解发明者Castle的关键因素。他在两方对峙势力的十字准星瞄准之下,和一位十几岁小玩家的远程操控之下,必须施展自身非凡的战斗技能逃离游戏,并摧垮Castle和他的游戏系统。
    090404oogkhgmargohaa1t.jpg.thumb.jpg


    ◎片  名 Gamer
    ◎译  名 真人游戏
    ◎年  代 2009
    ◎国  家 美国
    ◎类  别 动作/科幻/惊悚
    ◎IMDB评分 5.8/10 (14,361 votes)
    ◎IMDB链接 http://www.imdb.com/title/tt1034032/
    ◎语  言 英语
    ◎片  长 95Mins
    ◎导  演 马克·耐沃尔代 Mark Neveldine
    ◎主  演 杰拉德·巴特勒 Gerard Butler....Kable
          安贝·瓦莱塔 Amber Valletta....Angie
          迈克尔·C·豪尔 Michael C. Hall....Ken Castle
          凯拉·塞吉维克 Kyra Sedgwick....Gina Parker Smith
          罗根·勒曼 Logan Lerman....Simon
          艾莉森·洛曼 Alison Lohman....Trace
          泰瑞·克鲁斯 Terry Crews....Hackman
          米洛·文堤米利亚 Milo Ventimiglia....Rick Rape
          约翰·雷吉扎莫 John Leguizamo....Freek
          艾伦·余 Aaron Yoo....Humanez Dude
          凯斯·大卫 Keith David
          佐伊·贝尔 Zoe Bell....Sandra
          山姆·威特沃 Sam Witwer....Social Worker
          艾弗连·莱米雷斯 Efren Ramirez....DJ Twist
          卢达·克里斯 Ludacris....Humanz Brother
          约翰尼·威特沃斯 Johnny Whitworth....Scotch

       

    ◎简  介 

      影片的故事设定贡在了不太遥远的未来,被囚禁在死囚区的关押犯Kabel(杰拉德·巴特勒饰演),无意中成为了那个时代里流行文化的英雄人物。因为每周,全世界数以万计双眼睛正通过网上的一款名为《凶手》(Slayers)的极端暴力的多人在线游戏,收看他同其他数百名罪犯的生死拼杀,这款游戏是由科技天才Ken Castle(迈克尔·豪尔饰演)发明的。在这位能操控游戏人物一举一动的年轻富有的玩家眼里,Kable只是一个虚拟角色。而对这款带有高科技奴役色彩游戏持反对态度的人们来说,Kable成为了在战斗中崩解发明者Castle的关键因素。他在两方对峙势力的十字准星瞄准之下,和一位十几岁小玩家的远程操控之下,必须施展自身非凡的战斗技能逃离游戏,并摧垮Castle和他的游戏系统。

      在并不遥远的未来世界里,网络游戏风靡全球,不过玩法可跟如今动动鼠标键盘的操作方式不太一样,而是将玩家的神经末梢接入,可以直接操作游戏角色,而操作的这些游戏角色,却都是活生生的真人。游戏的开发商是亿万富翁肯·卡索(迈克尔·C·豪尔饰),他利用全球各地监狱里的那些死囚来当成玩家们在虚拟世界里的角色,这些死囚的命运完全掌握在了操纵他们的玩家手里,而肯·卡索对这些死囚们声称,只要获得30次胜利,那么你就能重获自由!

      西蒙(罗根·勒曼饰)是一个年纪轻轻的游戏狂人,在这款名为"杀人者"的游戏里他已经获得了不计其数的胜利,而他在游戏里操纵的角色则是凯伯尔(杰拉德·巴特勒饰)。每周西蒙都会操纵凯伯尔来对付一波又一波的敌人,在战场上搏斗杀戮,然后赢取胜利,渐渐的,凯伯尔成了这个游戏里人人皆知的英雄人物。而现实生活中的凯伯尔则是一名被陷害而进入监狱的可怜人,他怀着强烈的生存意志,必须要在这个游戏里生存下去,这样才有机会走到外面的世界,见到自己的亲人。可是凯伯尔也明白,如果单靠自己的力量,永远只能是一个被肯·卡索安排在虚拟游戏里的角斗士,想重获自由的机会极其渺茫,因此,他必须和西蒙合作,通过这个真人游戏的重重试炼。而肯·卡索自然也不会轻易的让凯伯尔完成30场游戏的胜利。这场用生命做赌注的游戏,究竟谁能笑到最后呢?

    ◎一句话评论

    主角们参加比赛的过程显得过于漫长,让这部电影成绚了一部完全异展现杀戮镜头的血浆之作。

    --《纽约时报》

    一部讲述未来的角斗士如何逃离竞技场的电影,场面上显得相当的儿童不宜。

    --reelmoviecritic.com

    ◎幕后制作

      残忍无极限的动作电影

      2006年,一部《怒火攻心》曾经让影迷咋舌于其场面的火暴和大胆程度,而那部电影的编导正是导演本片的马克·耐沃尔代和布莱恩·泰勒。继去年再接再厉《怒火攻心2:高压电》之后,今年两人又联手为大家奉上了同样血腥暴力的《真人游戏》。对于这部以网络游戏作为噱头的电影,马克·耐沃尔代说:"这是一部讲述未来世界里的网络游戏的电影,而里面所提及到的网络游戏其实是一种我们这个年代无法做到的仿真游戏。它能够将两个人的思维互相接驳进入,然后在虚拟世界里进行沟通。实际上我觉得这个点子非常的棒,这是一个有着许多玩家竞技的战场,在这个战场里发生的一切事情,对于玩家来说是可以完全不负任何责任,但游戏里的角色却都是真人,他们的命运完全捏在了那些在家里玩游戏的玩家手里。这种环境和对生命的态度形成的强烈反差,是这部电影最大的冲突所在。"

      马克·耐沃尔代和布莱恩·泰勒之前的作品都以血腥暴力作为卖点,这次的《真人游戏》同样也不例外。在这部电影里,两人依然继续着R级电影的路线,布莱恩·泰勒详细地叙述着他是如何的肆意挥洒着血浆:"这是一场你死我活的战场,我们必须要把那种生存的残酷展现给观众,因此本片里动作场面的设计完全是从一个要活命的人的角度来考虑,那样的人会抓住身边一切的机会而不放过,他们为了活下去,会做出很多平时大家根本不敢做也不敢想的事情出来。因此你们会见到电影里的杰拉德·巴特勒是如何的利用身边的一切机会过关斩将,他会把对手的手弄断,用手里的枪打得对手浑身都是窟窿……在《真人游戏》里,观众能体会到生存是何等的残酷。"

      游走与虚拟与现实之间的角色

      在《真人游戏》里,罗根·勒曼扮演的是一位十分会玩游戏的年轻人,而他对这个角色也相当喜欢:"我本身就是一个很喜欢玩游戏的人,我家里有各式各样的游戏软件,如果有空坐下来,我会连上网,和人对战一把。在《真人游戏》里我所扮演的角色要比我痴迷得多,他是虚拟战争游戏里的英雄,在整个故事的发展中,他都可以在他那舒适的高科技游戏房里玩着这款异常暴力的游戏。那种感觉就好像你的周围全部都是用来操作的控制杆,只是这款真人游戏要更加复杂一些。相信没有人能够拒绝这样的娱乐方式,很快就会像我的角色一样,彻底地沉迷于其中。因为,你能够主宰另外一个人的命运,这对于一个普通人来说,是多么了不起的事。"

      经历了《300勇士》的大热之后,杰拉德·巴特勒重装上阵,继续着他的银幕铁汉形象。对于《真人游戏》,杰拉德·巴特勒说:"在这部电影里,我所扮演的是一位充满了绝望的囚犯,他渴望活下去,渴望获得自由,而他参加了能够为他获得自由的一场游戏,这是一场非常危险的游戏,稍有不慎他就会玩完。所以在整部电影里,我扮演的角色大部分时间都是皱着眉头,精神高度紧张,因为他要面对随时降临的危险。影片里两位导演为我设计了许多的动作场面,有一些的确很危险,例如有一幕我需要开着车将车外的敌人甩下车的戏,我必须真的开着车将他扔下车,这使我在拍摄的时候不得不加倍小心,既要注意车不能撞到前面的路障,又要提防甩的势头过猛,对车外的演员造成伤害。另外那些爆炸镜头可一个没少了我的存在,有好几次离我只有那么十来米,看着面前爆炸的火花,我心里真够悬的。两位导演为这部电影设计的动作场面让我十分喜欢,这是我拍得十分过瘾的一部电影。"

    ◎花絮

    ·《真人游戏》是马克·耐沃尔代和布莱恩·泰勒合作编导的第三部电影,前两部为《怒火攻心》、《怒火攻心2:高压电》。

    ·本片的男主角杰拉德·巴特勒是筹拍期间确定的第一名演员。

    ·《真人游戏》当中涉及网络游戏的操作界面,主创人员邀请了大量的游戏玩家提出了相应的意见。

    精彩对白

    Simon:"Hello, we met again, this time,the mission is more tough. "

    Kable:"Yes, kid. But we need to win this war. "

    Simon:"No problem. I win the war, you get your freedom!"

    西蒙:"你好,我们又见面了,这次的任务难度不小。"

    凯伯尔:"是的,孩子。但我们需要赢得这场战争。"

    西蒙:"没有问题。我赢得战争,你赢得自由!


    Video
    ID                                       : 1
    Format                                   : AVC
    Format/Info                              : Advanced Video Codec
    Format profile                           : High@L4.1
    Format settings, CABAC                   : Yes
    Format settings, ReFrames                : 2 frames
    Codec ID                                 : V_MPEG4/ISO/AVC
    Duration                                 : 1h 35mn
    Nominal bit rate                         : 15.5 Mbps
    Width                                    : 1 920 pixels
    Height                                   : 1 080 pixels
    Display aspect ratio                     : 16:9
    Frame rate mode                          : Constant
    Frame rate                               : 23.976 fps
    Color space                              : YUV
    Chroma subsampling                       : 4:2:0
    Bit depth                                : 8 bits
    Scan type                                : Progressive
    Bits/(Pixel*Frame)                       : 0.312
    Title                                    : Gamer.2009.1080p.3D.BluRay.Half-SBS.x264.DTS-HD.MA.7.1-RARBG
    Writing library                          : x264 core 142
    Encoding settings                        : cabac=1 / ref=1 / deblock=1:-1:-1 / analyse=0x3:0 / me=hex / subme=5 / psy=0 / mixed_ref=0 / me_range=16 / chroma_me=1 / trellis=0 / 8x8dct=1 / cqm=0 / deadzone=21,11 / fast_pskip=1 / chroma_qp_offset=0 / threads=8 / lookahead_threads=2 / sliced_threads=0 / nr=0 / decimate=1 / interlaced=0 / bluray_compat=0 / constrained_intra=0 / bframes=2 / b_pyramid=0 / b_adapt=1 / b_bias=0 / direct=1 / weightb=1 / open_gop=0 / weightp=0 / keyint=24 / keyint_min=13 / scenecut=40 / intra_refresh=0 / rc=abr / mbtree=0 / bitrate=15500 / ratetol=1.0 / qcomp=0.60 / qpmin=0 / qpmax=69 / qpstep=4 / ip_ratio=1.40 / pb_ratio=1.30 / aq=1:1.00
    Default                                  : Yes
    Forced                                   : No
    Color range                              : Limited
    Color primaries                          : BT.709
    Transfer characteristics                 : BT.709
    Matrix coefficients                      : BT.709

    Audio #1
    ID                                       : 2
    Format                                   : DTS
    Format/Info                              : Digital Theater Systems
    Format profile                           : MA / Core
    Mode                                     : 16
    Format settings, Endianness              : Big
    Codec ID                                 : A_DTS
    Duration                                 : 1h 35mn
    Bit rate mode                            : Variable
    Bit rate                                 : Unknown / 1 509 Kbps
    Channel(s)                               : 8 channels / 6 channels
    Channel positions                        : Front: L C R, Side: L R, Back: L R, LFE / Front: L C R, Side: L R, LFE
    Sampling rate                            : 48.0 KHz
    Bit depth                                : 24 bits
    Compression mode                         : Lossless / Lossy
    Title                                    : Gamer.2009.1080p.3D.BluRay.Half-SBS.x264.DTS-HD.MA.7.1-RARBG
    Language                                 : English
    Default                                  : Yes
    Forced                                   : No

    Audio #2
    ID                                       : 3
    Format                                   : DTS
    Format/Info                              : Digital Theater Systems
    Mode                                     : 16
    Format settings, Endianness              : Big
    Codec ID                                 : A_DTS
    Duration                                 : 1h 35mn
    Bit rate mode                            : Constant
    Bit rate                                 : 1 509 Kbps
    Channel(s)                               : 6 channels
    Channel positions                        : Front: L C R, Side: L R, LFE
    Sampling rate                            : 48.0 KHz
    Bit depth                                : 24 bits
    Compression mode                         : Lossy
    Stream size                              : 1.00 GiB (7%)
    Title                                    : Gamer.2009.1080p.3D.BluRay.Half-SBS.x264.DTS-HD.MA.7.1-RARBG
    Language                                 : English
    Default                                  : No
    Forced                                   : No

    Text
    ID                                       : 4
    Format                                   : PGS
    Muxing mode                              : zlib
    Codec ID                                 : S_HDMV/PGS
    Codec ID/Info                            : Picture based subtitle format used on BDs/HD-DVDs
    Language                                 : English
    Default                                  : No
    Forced                                   : No



    66948359903897471746_thumb.jpg

    54628534767649817804_thumb.jpg

    52778353063072464561_thumb.jpg

    31851685204306648631_thumb.jpg

    25369772026210553903_thumb.jpg

    09426459131871207572_thumb.jpg

    游客,如果您要查看本帖隐藏内容请回复




    Video
    ID                                       : 1
    Format                                   : AVC
    Format/Info                              : Advanced Video Codec
    Format profile                           : High@L4.1
    Format settings, CABAC                   : Yes
    Format settings, ReFrames                : 2 frames
    Codec ID                                 : V_MPEG4/ISO/AVC
    Duration                                 : 1h 35mn
    Nominal bit rate                         : 16.0 Mbps
    Width                                    : 1 920 pixels
    Height                                   : 1 080 pixels
    Display aspect ratio                     : 16:9
    Frame rate mode                          : Constant
    Frame rate                               : 23.976 fps
    Color space                              : YUV
    Chroma subsampling                       : 4:2:0
    Bit depth                                : 8 bits
    Scan type                                : Progressive
    Bits/(Pixel*Frame)                       : 0.322
    Title                                    : Gamer.2009.1080p.3D.BluRay.Half-OU.x264.DTS-HD.MA.7.1-RARBG
    Writing library                          : x264 core 142
    Encoding settings                        : cabac=1 / ref=1 / deblock=1:-1:-1 / analyse=0x3:0 / me=hex / subme=5 / psy=0 / mixed_ref=0 / me_range=16 / chroma_me=1 / trellis=0 / 8x8dct=1 / cqm=0 / deadzone=21,11 / fast_pskip=1 / chroma_qp_offset=0 / threads=8 / lookahead_threads=2 / sliced_threads=0 / nr=0 / decimate=1 / interlaced=0 / bluray_compat=0 / constrained_intra=0 / bframes=2 / b_pyramid=0 / b_adapt=1 / b_bias=0 / direct=1 / weightb=1 / open_gop=0 / weightp=0 / keyint=24 / keyint_min=13 / scenecut=40 / intra_refresh=0 / rc=abr / mbtree=0 / bitrate=16000 / ratetol=1.0 / qcomp=0.60 / qpmin=0 / qpmax=69 / qpstep=4 / ip_ratio=1.40 / pb_ratio=1.30 / aq=1:1.00
    Default                                  : Yes
    Forced                                   : No
    Color range                              : Limited
    Color primaries                          : BT.709
    Transfer characteristics                 : BT.709
    Matrix coefficients                      : BT.709

    Audio #1
    ID                                       : 2
    Format                                   : DTS
    Format/Info                              : Digital Theater Systems
    Format profile                           : MA / Core
    Mode                                     : 16
    Format settings, Endianness              : Big
    Codec ID                                 : A_DTS
    Duration                                 : 1h 35mn
    Bit rate mode                            : Variable
    Bit rate                                 : Unknown / 1 509 Kbps
    Channel(s)                               : 8 channels / 6 channels
    Channel positions                        : Front: L C R, Side: L R, Back: L R, LFE / Front: L C R, Side: L R, LFE
    Sampling rate                            : 48.0 KHz
    Bit depth                                : 24 bits
    Compression mode                         : Lossless / Lossy
    Title                                    : Gamer.2009.1080p.3D.BluRay.Half-OU.x264.DTS-HD.MA.7.1-RARBG
    Language                                 : English
    Default                                  : Yes
    Forced                                   : No

    Audio #2
    ID                                       : 3
    Format                                   : DTS
    Format/Info                              : Digital Theater Systems
    Mode                                     : 16
    Format settings, Endianness              : Big
    Codec ID                                 : A_DTS
    Duration                                 : 1h 35mn
    Bit rate mode                            : Constant
    Bit rate                                 : 1 509 Kbps
    Channel(s)                               : 6 channels
    Channel positions                        : Front: L C R, Side: L R, LFE
    Sampling rate                            : 48.0 KHz
    Bit depth                                : 24 bits
    Compression mode                         : Lossy
    Stream size                              : 1.00 GiB (7%)
    Title                                    : Gamer.2009.1080p.3D.BluRay.Half-OU.x264.DTS-HD.MA.7.1-RARBG
    Language                                 : English
    Default                                  : No
    Forced                                   : No

    Text
    ID                                       : 4
    Format                                   : PGS
    Muxing mode                              : zlib
    Codec ID                                 : S_HDMV/PGS
    Codec ID/Info                            : Picture based subtitle format used on BDs/HD-DVDs
    Language                                 : English
    Default                                  : No
    Forced                                   : No




    90946145619208778222_thumb.jpg

    87617125001727268570_thumb.jpg

    52782269392067240062_thumb.jpg

    51153026783969012439_thumb.jpg

    17341825270595628575_thumb.jpg

    05012168893476862322_thumb.jpg


    游客,如果您要查看本帖隐藏内容请回复


    中简字幕
    游客,如果您要查看本帖隐藏内容请回复

    游客,如果您要查看本帖隐藏内容请回复

  • TA的每日心情

    2016-2-24 08:48
  • 签到天数: 23 天

    [LV.4]偶尔看看III

    发表于 2015-7-9 11:31:41 | 显示全部楼层
    好像不错,收下了
    回复 支持 反对

    使用道具 举报

  • TA的每日心情
    开心
    2017-1-19 06:34
  • 签到天数: 1509 天

    [LV.Master]伴坛终老

    发表于 2015-7-9 12:13:27 | 显示全部楼层
    好极了,太好了。
    回复 支持 反对

    使用道具 举报

  • TA的每日心情
    开心
    2017-3-10 12:17
  • 签到天数: 939 天

    [LV.10]以坛为家III

    发表于 2015-7-9 12:58:36 | 显示全部楼层
    我只能说“谢谢分享”
    回复 支持 反对

    使用道具 举报

  • TA的每日心情
    开心
    2017-3-10 12:17
  • 签到天数: 939 天

    [LV.10]以坛为家III

    发表于 2015-7-9 12:59:07 | 显示全部楼层
    我只能说“谢谢分享”
    回复 支持 反对

    使用道具 举报

  • TA的每日心情
    开心
    2016-3-25 12:00
  • 签到天数: 379 天

    [LV.9]以坛为家II

    发表于 2015-7-9 13:56:11 | 显示全部楼层
    真人游戏3D
    回复 支持 反对

    使用道具 举报

  • TA的每日心情
    开心
    2016-3-25 12:00
  • 签到天数: 379 天

    [LV.9]以坛为家II

    发表于 2015-7-9 13:57:22 | 显示全部楼层
    真人游戏3D
    回复 支持 反对

    使用道具 举报

  • TA的每日心情
    难过
    2015-7-9 15:14
  • 签到天数: 8 天

    [LV.3]偶尔看看II

    发表于 2015-7-9 15:18:54 | 显示全部楼层
    谢谢老板。无私奉献
    回复 支持 反对

    使用道具 举报

  • TA的每日心情

    2016-8-7 12:19
  • 签到天数: 504 天

    [LV.9]以坛为家II

    发表于 2015-7-9 16:31:31 | 显示全部楼层
    我只能说“谢谢分享”
    回复 支持 反对

    使用道具 举报

    该用户从未签到

    发表于 2015-7-9 16:49:40 来自手机 | 显示全部楼层
    我只能说“谢谢分享”
    回复 支持 反对

    使用道具 举报

    高级模式
    B Color Image Link Quote Code Smilies

    本版积分规则

    免责申明|小黑屋|手机版|Archiver|网站地图| 3D一族论坛  

    Copyright © 2001-2015 Comsenz Inc.   All Rights Reserved.

    Powered by Discuz! X3.2( 沪ICP备14045620号-1 )

    快速回复 返回顶部 返回列表