请选择 进入手机版 | 继续访问电脑版
 找回密码

3D一族论坛

查看: 3499|回复: 87

[720P] [X战警:逆转未来(导演剪辑版) X-Men.Days.of.Future.Past.2014.THE.ROGUE.CUT][720p/1080p][MKV 14.96G/6.55G/10.93G][BT]

[复制链接]
  • TA的每日心情
    开心
    6 天前
  • 签到天数: 1637 天

    [LV.Master]伴坛终老

    发表于 2015-7-9 10:28:49 | 显示全部楼层 |阅读模式
    本帖最后由 xdwl 于 2015-7-19 17:47 编辑

    86fe086e971b0e1d9efe05bdcf14430f60310195.jpg


    ◎译  名 
    X战警:逆转未来/X战警前传2/X战警:未来昔日(台)/变种特攻:未来同盟战(港)
    ◎片  名 X-Men: Days of Future Past
    ◎年  代 2014
    ◎国  家 美国/英国
    ◎类  别 动作/冒险/奇幻  
    ◎语  言 英语
    ◎字  幕 外挂中简字幕/中英特效字幕
    ◎IMDB评分 8.1/10 from 415,000 users
    ◎IMDB链接 http://www.imdb.com/title/tt1877832/
    ◎片  长 2h 28min
    ◎导  演 布莱恩·辛格 Bryan Singer
    ◎主  演 休·杰克曼 Hugh Jackman ....金刚狼罗根 Logan / Wolverine
          詹姆斯·麦卡沃伊 James McAvoy ....查尔斯·泽维尔 Charles Xavier  
          迈克尔·法斯宾德 Michael Fassbender ....艾瑞克·兰谢尔 Erik Lehnsherr / Magneto
          詹妮弗·劳伦斯 Jennifer Lawrence ....魔形女瑞雯 Raven / Mystique
          彼特·丁拉基 Peter Dinklage ....玻利瓦尔·特拉斯克 Bolivar Trask
          尼古拉斯·霍尔特 Nicholas Hoult ....野兽汉克·麦考伊 Hank McCoy / Beast
          伊万·彼得斯 Evan Peters ....快银 Pietro Maximoff / Quicksilver
          帕特里克·斯图尔特 Patrick Stewart ....X教授 Professor Charles Xavier
            伊恩·麦克莱恩 Ian McKellen ....万磁王 Erik Lehnsherr / Magneto - older
          哈莉·贝瑞 Halle Berry ....暴风女Ororo Munroe / Storm
          艾伦·佩姬 Ellen Page ....幻影猫凯蒂 Kitty Pryde / Shadowcat
          乔什·赫尔曼 Josh Helman 威廉·斯特瑞克 William Stryker
          范冰冰 Bingbing Fan ....闪烁 Clarice Ferguson / Blink
          丹尼尔·库德摩尔 Daniel Cudmore 钢力士 Piotr Rasputin / Colossus
          肖恩·阿什莫 Shawn Ashmore ....冰人 Bobby Drake / Iceman
          奥马·希 Omar Sy ....毕肖普 Bishop (rumored)
          波波·斯图尔特 BooBoo Stewart ....征途 James Proudstar / Warpath
          阿丹·坎托 Adan Canto ....黑子 Sunspot
          卢卡斯·提尔 Lucas Till 法官 Alex Summers / Havok
          伊万·乔尼凯特 Evan Jonigkeit ....蛤蟆Toad
          安娜·帕奎因 Anna Paquin ....罗刹女 Marie /Rogue
          布兰登·帕德 Brendan Pedder ....天启(彩蛋)
          法米克·詹森 Famke Janssen ....琴·格蕾/凤凰女 Jean Grey (uncredited)
          詹姆斯·麦斯登 James Marsden ....斯科特·萨默斯/镭射眼
          拉里·戴 Larry Day ....General Caris
          Thai-Hoa Le ....General Nhuan
          Robert Crooks ....Nixon's Aide
          Jaa Smith-Johnson ....Mutant soldier
          Jason Deline ....News Anchor (uncredited)
          Gregg Lowe ....Ink
          teve Barry ....Tower 8 Photographer (uncredited)
          摩根·莉莉 Morgan Lily ....Young Raven
          凯尔希·格兰莫 Kelsey Grammer ....汉克·麦考伊/野兽 Hank McCoy / Beast (rumored)
          阿历克斯·伊万诺维奇 Alex Ivanovici ....Quarantine Doctor
          Jason Bell ....Trask's Guard (uncredited)
          Mark Camacho ....President Nixon
          Alexander Felici ....Young Mutant Scavenger
          Jan Gerste ....Gwen
          Massimo Cannistraro ....Ramone
          麦克·道帕德 Mike Dopud ....Pinstripe Mafioso
          李·维伦纽夫 Lee Villeneuve ....Black Coast Mafioso
          Andreas Apergis ....Col. Sanders
          Robert Montcalm .....Vietnam MP Guard
          Alain Dahan ....Quarantine Doctor #2
          Freddy Bessa ....Quarantine Doctor #3
          Patricia Tougas ....Quarantine Nurse
          迈克尔·勒纳 Michael Lerner ....Senator Brickman
          Chris Claremont ....Congressman Parker
          Len Wein ....Congresman Davis
          François Paquette ....Congressman McCarter
          Zabryna Guevara ....Trask Secretary
          Zehra Leverman ....Ms. Maximoff
          Angela Galuppo ....Pentagon Tour Guide
          Milo Chang Sigel ....Pentagon Tour Boy
          Kiana Chang Sigel ....Pentagon Young Girl
          Victor Cornfoot ....Surveillance Guard #1
          Brent Skagford ....Surveillance Guard #2
          Kyle Gatehouse ....Pentagon Cook
          John-sebastien Cote ....Mustachioed Kitchen Guard




    ◎简  介 


      故事发生在并不遥远的未来,X战警遭遇了史上最大的生存危机,他们必须回到过去拯救自己的命运。X战警也许在我们这个时代,是有着最先进基因的生物,但在不久的未来,他们都被“特拉斯克工业”创始人玻利瓦尔·特拉斯克所制造并指挥的新型特种战斗机器人“哨兵”所猎杀,并有着被灭绝的危险。

      哨兵机器人可以检测出任何形式的变种类型,而他们的基因则能够让他们瞬间变换和改造自身,从而击败X战警。这使得X战警的唯一希望,便是回到过去,在特拉斯克的研究最终导致他们的灭绝之前,改变历史。

      利用幻影猫凯蒂的能力,金刚狼罗根穿越时空开始了这个艰辛的旅程。这一次,他必须联合年轻的变种人领袖X教授,以及他一生的对手万磁王,去找到魔形女,并阻止特拉斯克。时间已经迫在眉睫,在过去,亦在未来,X战警同哨兵机器人的大决战即将展开……

    花絮

    .布莱恩·辛格就“时空旅行”这个问题与詹姆斯·卡梅隆展开了两个多小时的讨论。卡梅隆曾导演《终结者》1与2,对另一宇宙和弦理论有不少了解。

    .布莱恩·辛格在帕特里克·斯图尔特与伊恩·麦克莱恩巡回演出舞台剧时找到他们,邀请他们出演影片。两人都很吃惊,他们以为法斯宾德与麦卡沃伊已经继承了他们的衣钵,两人对再次回归表示喜悦。

    .饰演魔形女的詹妮弗·劳伦斯的化妆准备时间从上一部《X战警:第一课》的8个小时锐减到3-4个小时,劳伦斯表示此次的颜料也更为温和,不过要是能像《阿凡达》一样在脸上贴感应点就更好了!

    .迈克尔·法斯宾德为了让自己演绎的万磁王更接近伊恩·麦克莱恩,特意反复观摩伊恩的视频,学习他的说话方式与动作。

    .饰演反派特拉斯克的彼特·丁拉基说,导演布莱恩·辛格之所以选择他是因为他是个矮人,“我是个矮人,有点像变种人一样,我认为特拉斯克在内心深处对自己是矮人这一事实非常敏感。”

    .乔什·赫尔曼最初要出演的角色是反派红坦克,不过最终剧本删掉了这个角色,赫尔曼因此成为了年轻版威廉·斯特瑞克——金刚狼的死敌。7编剧西蒙·金伯格说,《X战警:逆转未来》受到了穿越电影《时空大挪移》、《终结者》、《回到未来》和《环形使者》的影响。

    .在《X战警2》中饰演夜行者的艾伦·卡明拒绝回归,因为夜行者的上妆准备过程太辛苦了。

    .饰演老版万磁王与X教授的伊恩·麦克莱恩与帕特里克·斯图尔特以及饰演年轻版万磁王与X教授的迈克尔·法斯宾德与詹姆斯·麦卡沃伊都在舞台上或者电影中出演过莎士比亚的经典角色——麦克白。

    .以詹姆斯·麦卡沃伊为首的年轻剧组成员们在拍摄空隙经常展开BB枪大战,迈克尔·法斯宾德、詹妮弗·劳伦斯等人都是游戏的狂热参与者,而金刚狼休·杰克曼则表示自己不像年轻人们那么疯。

    .尽管影片上映前有罗刹女戏份被剪光的传言,最终上映版本中罗刹女还是短暂出现了一下。

    Video
    ID                                       : 1
    Format                                   : AVC
    Format/Info                              : Advanced Video Codec
    Format profile                           : High@L4.1
    Format settings, CABAC                   : Yes
    Format settings, ReFrames                : 5 frames
    Codec ID                                 : V_MPEG4/ISO/AVC
    Duration                                 : 2h 28mn
    Nominal bit rate                         : 9 009 Kbps
    Width                                    : 1 920 pixels
    Height                                   : 800 pixels
    Display aspect ratio                     : 2.40:1
    Frame rate mode                          : Constant
    Frame rate                               : 23.976 fps
    Color space                              : YUV
    Chroma subsampling                       : 4:2:0
    Bit depth                                : 8 bits
    Scan type                                : Progressive
    Bits/(Pixel*Frame)                       : 0.245
    Title                                    : X-Men.Days.of.Future.Past.2014.THE.ROGUE.CUT.1080p.BluRay.x264.DTS-HD.MA.7.1-RARBG
    Writing library                          : x264 core 146 r2538 121396c
    Encoding settings                        : cabac=1 / ref=5 / deblock=1:0:0 / analyse=0x3:0x133 / me=umh / subme=8 / psy=1 / psy_rd=1.00:0.00 / mixed_ref=1 / me_range=16 / chroma_me=1 / trellis=1 / 8x8dct=1 / cqm=0 / deadzone=21,11 / fast_pskip=0 / chroma_qp_offset=-2 / threads=12 / lookahead_threads=2 / sliced_threads=0 / nr=0 / decimate=1 / interlaced=0 / bluray_compat=0 / constrained_intra=0 / bframes=3 / b_pyramid=2 / b_adapt=1 / b_bias=0 / direct=1 / weightb=1 / open_gop=0 / weightp=2 / keyint=250 / keyint_min=23 / scenecut=40 / intra_refresh=0 / rc_lookahead=40 / rc=2pass / mbtree=1 / bitrate=9009 / ratetol=1.0 / qcomp=0.60 / qpmin=0 / qpmax=69 / qpstep=4 / cplxblur=20.0 / qblur=0.5 / ip_ratio=1.40 / aq=1:1.00
    Language                                 : English
    Default                                  : Yes
    Forced                                   : No

    Audio
    ID                                       : 2
    Format                                   : DTS
    Format/Info                              : Digital Theater Systems
    Format profile                           : MA / Core
    Mode                                     : 16
    Format settings, Endianness              : Big
    Codec ID                                 : A_DTS
    Duration                                 : 2h 28mn
    Bit rate mode                            : Variable
    Bit rate                                 : Unknown / 1 509 Kbps
    Channel(s)                               : 8 channels / 6 channels
    Channel positions                        : Front: L C R, Side: L R, Back: L R, LFE / Front: L C R, Side: L R, LFE
    Sampling rate                            : 48.0 KHz
    Bit depth                                : 24 bits
    Compression mode                         : Lossless / Lossy
    Title                                    : X-Men.Days.of.Future.Past.2014.THE.ROGUE.CUT.1080p.BluRay.x264.DTS-HD.MA.7.1-RARBG
    Language                                 : English
    Default                                  : Yes
    Forced                                   : No

    Text #1
    ID                                       : 3
    Format                                   : UTF-8
    Codec ID                                 : S_TEXT/UTF8
    Codec ID/Info                            : UTF-8 Plain Text
    Title                                    : FORCED
    Language                                 : English
    Default                                  : Yes
    Forced                                   : No

    Text #2
    ID                                       : 4
    Format                                   : UTF-8
    Codec ID                                 : S_TEXT/UTF8
    Codec ID/Info                            : UTF-8 Plain Text
    Language                                 : English
    Default                                  : No
    Forced                                   : No


    95377304287781170170_thumb.jpg

    21437489248855546338_thumb.jpg

    26972917444827801828_thumb.jpg

    70064211409433281452_thumb.jpg

    93152499373491454331_thumb.jpg

    94668847522740184781_thumb.jpg

    游客,如果您要查看本帖隐藏内容请回复


    Video
    ID                                       : 1
    Format                                   : AVC
    Format/Info                              : Advanced Video Codec
    Format profile                           : High@L4.1
    Format settings, CABAC                   : Yes
    Format settings, ReFrames                : 5 frames
    Codec ID                                 : V_MPEG4/ISO/AVC
    Duration                                 : 2h 28mn
    Bit rate                                 : 4 796 Kbps
    Width                                    : 1 280 pixels
    Height                                   : 536 pixels
    Display aspect ratio                     : 2.40:1
    Frame rate mode                          : Constant
    Frame rate                               : 23.976 fps
    Color space                              : YUV
    Chroma subsampling                       : 4:2:0
    Bit depth                                : 8 bits
    Scan type                                : Progressive
    Bits/(Pixel*Frame)                       : 0.292
    Stream size                              : 4.86 GiB (74%)
    Writing library                          : x264 core 146 r2538 121396c
    Encoding settings                        : cabac=1 / ref=5 / deblock=1:0:0 / analyse=0x3:0x133 / me=umh / subme=8 / psy=1 / psy_rd=1.00:0.00 / mixed_ref=1 / me_range=16 / chroma_me=1 / trellis=1 / 8x8dct=1 / cqm=0 / deadzone=21,11 / fast_pskip=0 / chroma_qp_offset=-2 / threads=12 / lookahead_threads=2 / sliced_threads=0 / nr=0 / decimate=1 / interlaced=0 / bluray_compat=0 / constrained_intra=0 / bframes=3 / b_pyramid=2 / b_adapt=1 / b_bias=0 / direct=1 / weightb=1 / open_gop=0 / weightp=2 / keyint=250 / keyint_min=23 / scenecut=40 / intra_refresh=0 / rc_lookahead=40 / rc=2pass / mbtree=1 / bitrate=4796 / ratetol=1.0 / qcomp=0.60 / qpmin=0 / qpmax=69 / qpstep=4 / cplxblur=20.0 / qblur=0.5 / ip_ratio=1.40 / aq=1:1.00
    Language                                 : English
    Default                                  : Yes
    Forced                                   : No
    DURATION                                 : 02:28:45.709000000
    NUMBER_OF_FRAMES                         : 214003
    NUMBER_OF_BYTES                          : 5350654674
    _STATISTICS_WRITING_APP                  : mkvmerge v8.1.0 (\'Psychedelic Postcard\') 64bit
    _STATISTICS_WRITING_DATE_UTC             : 2015-07-08 17:21:40
    _STATISTICS_TAGS                         : BPS DURATION NUMBER_OF_FRAMES NUMBER_OF_BYTES

    Audio
    ID                                       : 2
    Format                                   : DTS
    Format/Info                              : Digital Theater Systems
    Format profile                           : ES
    Mode                                     : 16
    Format settings, Endianness              : Big
    Codec ID                                 : A_DTS
    Duration                                 : 2h 28mn
    Bit rate mode                            : Constant
    Bit rate                                 : 1 509 Kbps
    Channel(s)                               : 6 channels
    Channel positions                        : Front: L C R, Side: L R, LFE
    Sampling rate                            : 48.0 KHz
    Bit depth                                : 24 bits
    Compression mode                         : Lossy
    Stream size                              : 1.57 GiB (24%)
    Language                                 : English
    Default                                  : Yes
    Forced                                   : No

    Text #1
    ID                                       : 3
    Format                                   : UTF-8
    Codec ID                                 : S_TEXT/UTF8
    Codec ID/Info                            : UTF-8 Plain Text
    Title                                    : forced
    Language                                 : English
    Default                                  : Yes
    Forced                                   : No

    Text #2
    ID                                       : 4
    Format                                   : UTF-8
    Codec ID                                 : S_TEXT/UTF8
    Codec ID/Info                            : UTF-8 Plain Text
    Language                                 : English
    Default                                  : No
    Forced                                   : No


    46627333365013657590_thumb.jpg

    游客,如果您要查看本帖隐藏内容请回复

    Video
    ID                                       : 1
    Format                                   : AVC
    Format/Info                              : Advanced Video Codec
    Format profile                           : High@L4.1
    Format settings, CABAC                   : Yes
    Format settings, ReFrames                : 5 frames
    Codec ID                                 : V_MPEG4/ISO/AVC
    Duration                                 : 2h 28mn
    Bit rate                                 : 9 009 Kbps
    Width                                    : 1 920 pixels
    Height                                   : 800 pixels
    Display aspect ratio                     : 2.40:1
    Frame rate mode                          : Constant
    Frame rate                               : 23.976 fps
    Color space                              : YUV
    Chroma subsampling                       : 4:2:0
    Bit depth                                : 8 bits
    Scan type                                : Progressive
    Bits/(Pixel*Frame)                       : 0.245
    Stream size                              : 9.15 GiB (84%)
    Writing library                          : x264 core 146 r2538 121396c
    Encoding settings                        : cabac=1 / ref=5 / deblock=1:0:0 / analyse=0x3:0x133 / me=umh / subme=8 / psy=1 / psy_rd=1.00:0.00 / mixed_ref=1 / me_range=16 / chroma_me=1 / trellis=1 / 8x8dct=1 / cqm=0 / deadzone=21,11 / fast_pskip=0 / chroma_qp_offset=-2 / threads=12 / lookahead_threads=2 / sliced_threads=0 / nr=0 / decimate=1 / interlaced=0 / bluray_compat=0 / constrained_intra=0 / bframes=3 / b_pyramid=2 / b_adapt=1 / b_bias=0 / direct=1 / weightb=1 / open_gop=0 / weightp=2 / keyint=250 / keyint_min=23 / scenecut=40 / intra_refresh=0 / rc_lookahead=40 / rc=2pass / mbtree=1 / bitrate=9009 / ratetol=1.0 / qcomp=0.60 / qpmin=0 / qpmax=69 / qpstep=4 / cplxblur=20.0 / qblur=0.5 / ip_ratio=1.40 / aq=1:1.00
    Language                                 : English
    Default                                  : Yes
    Forced                                   : No
    DURATION                                 : 02:28:45.709000000
    NUMBER_OF_FRAMES                         : 214003
    NUMBER_OF_BYTES                          : 10050509329
    _STATISTICS_WRITING_APP                  : mkvmerge v8.1.0 (\'Psychedelic Postcard\') 64bit
    _STATISTICS_WRITING_DATE_UTC             : 2015-07-08 22:48:49
    _STATISTICS_TAGS                         : BPS DURATION NUMBER_OF_FRAMES NUMBER_OF_BYTES

    Audio
    ID                                       : 2
    Format                                   : DTS
    Format/Info                              : Digital Theater Systems
    Format profile                           : ES
    Mode                                     : 16
    Format settings, Endianness              : Big
    Codec ID                                 : A_DTS
    Duration                                 : 2h 28mn
    Bit rate mode                            : Constant
    Bit rate                                 : 1 509 Kbps
    Channel(s)                               : 6 channels
    Channel positions                        : Front: L C R, Side: L R, LFE
    Sampling rate                            : 48.0 KHz
    Bit depth                                : 24 bits
    Compression mode                         : Lossy
    Stream size                              : 1.57 GiB (14%)
    Language                                 : English
    Default                                  : Yes
    Forced                                   : No

    Text #1
    ID                                       : 3
    Format                                   : UTF-8
    Codec ID                                 : S_TEXT/UTF8
    Codec ID/Info                            : UTF-8 Plain Text
    Title                                    : forced
    Language                                 : English
    Default                                  : Yes
    Forced                                   : No

    Text #2
    ID                                       : 4
    Format                                   : UTF-8
    Codec ID                                 : S_TEXT/UTF8
    Codec ID/Info                            : UTF-8 Plain Text
    Language                                 : English
    Default                                  : No
    Forced                                   : No



    游客,如果您要查看本帖隐藏内容请回复

    外挂中简字幕/中英特效字幕
    游客,如果您要查看本帖隐藏内容请回复



  • TA的每日心情
    奋斗
    2017-2-22 12:17
  • 签到天数: 779 天

    [LV.10]以坛为家III

    发表于 2015-7-9 12:05:05 | 显示全部楼层
    支持经典片
    回复 支持 反对

    使用道具 举报

  • TA的每日心情
    开心
    2017-2-20 17:20
  • 签到天数: 168 天

    [LV.7]常住居民III

    发表于 2015-7-9 17:27:00 | 显示全部楼层
    好片共赏,多谢楼主分享!!!
    回复 支持 反对

    使用道具 举报

  • TA的每日心情
    开心
    2017-1-4 22:13
  • 签到天数: 271 天

    [LV.8]以坛为家III

    发表于 2015-7-9 19:50:05 | 显示全部楼层
    不错,顶一下。
    回复 支持 反对

    使用道具 举报

  • TA的每日心情
    开心
    2015-7-9 20:04
  • 签到天数: 8 天

    [LV.3]偶尔看看II

    发表于 2015-7-9 20:05:24 | 显示全部楼层
    有字幕吗?
    回复 支持 反对

    使用道具 举报

    匿名  发表于 2015-7-9 20:10:49
    好片共赏,多谢楼主分享!!!
    匿名  发表于 2015-7-9 20:10:52
    好片共赏,多谢楼主分享!!!
  • TA的每日心情
    开心
    2017-3-4 22:35
  • 签到天数: 291 天

    [LV.8]以坛为家III

    发表于 2015-7-9 20:13:29 | 显示全部楼层
    好片共赏,多谢楼主分享!!!
    回复 支持 反对

    使用道具 举报

  • TA的每日心情
    开心
    2017-4-21 10:44
  • 签到天数: 182 天

    [LV.7]常住居民III

    发表于 2015-7-9 23:31:46 | 显示全部楼层
    大片来袭,不容错过!!
    回复 支持 反对

    使用道具 举报

  • TA的每日心情
    慵懒
    2016-9-14 02:23
  • 签到天数: 174 天

    [LV.7]常住居民III

    发表于 2015-7-10 02:22:13 | 显示全部楼层
    谢谢分享!
    回复 支持 反对

    使用道具 举报

    高级模式
    B Color Image Link Quote Code Smilies

    本版积分规则

    免责申明|小黑屋|手机版|Archiver|网站地图| 3D一族论坛  

    Copyright © 2001-2015 Comsenz Inc.   All Rights Reserved.

    Powered by Discuz! X3.2( 沪ICP备14045620号-1 )

    快速回复 返回顶部 返回列表