请选择 进入手机版 | 继续访问电脑版
 找回密码

3D一族论坛

查看: 18568|回复: 2128

[左右] [九层妖塔3D Chronicles.of.the.Ghostly.Tribe.2015.3D][1080p 左右半宽][MKV 10.41G][MP4 4.22G][BT][国语中字]

  [复制链接]
  • TA的每日心情
    开心
    3 天前
  • 签到天数: 1642 天

    [LV.Master]伴坛终老

    发表于 2015-11-12 10:06:48 | 显示全部楼层 |阅读模式
    影片截图:

    data/attachment/forum/201511/12/095930wfb11cj01ee3lfpl.jpg

         
      片        名: 九层妖塔 / 陆川版鬼吹灯 / 鬼吹灯之九层妖塔 / 吹灯传说之精绝古城 / 鬼吹灯
      译        名: Chronicles.of.the.Ghostly.Tribe.2015.3D
      类        别: 动作 冒险 
      国        家: 大陆
      语        言: 国语
      字        幕: 中文字幕
      集        数:
      文件格式: mp4
      视频尺寸: 1920*1080
      文件大小: 10.41GB/4.22GB
      上映时间: 2015
      影片导演: 陆川 Chuan Lu
      主要演员: 赵又廷 Mark Chao ...胡八一
        姚晨 Chen Yao ...Shirley杨
        冯粒 Li Feng ...王胖子
      推荐等级: ★★★★★
         
    下载地址:
    [下载方式]: bt下载
    [分辨率]: 1080p
    [迅雷地址]:
    [网盘下载]:
    影片简介: fangfang
    1979年,昆仑山发现神秘生物骸骨,由胡八一(赵又廷饰)率领的探险队深入昆仑山腹地,寻找有关古生物遗迹的更多秘密,却不料在这个过程中遭到不同神秘生物的轮番攻击,并意外坠入九层妖塔,除胡八一外,一行人生死成谜。

      胡八一退伍后回到北京,重逢了发小王凯旋(冯粒饰),并在神秘人(李晨饰)与科考队(凤小岳、唐嫣、李光洁饰)两股力量的夹缝中重新踏上了探寻未知文明的征程,途中与Shirley杨(姚晨饰)邂逅,熟识的面孔唤醒了他身处探险队那段日子的记忆。此行凶险,在还没来得及搞清楚shirley的真实身份之际,胡八一、Shirley、王胖子率领一行人便在王子墓、石油小镇等地遭到不明生物的轰炸,这里所发生的一切再度指向九层妖塔,而这次等待他们的,将是一个尘封已千年的未解之谜……
    本帖最后由 xdwl 于 2016-4-25 09:06 编辑

    15326060.jpg
    e4f97c5f75b084671e46ddea596b907f0800b967.jpg


    ◎译  名 
    九层妖塔 / 陆川版鬼吹灯 / 鬼吹灯之九层妖塔 / 吹灯传说之精绝古城 / 鬼吹灯
    ◎片  名 Chronicles of the Ghostly Tribe
    ◎年  代 2015-0
    ◎国  家 中国   
    ◎类  别 动作/惊悚/冒险
    ◎语  言 普通话
    ◎字  幕 简体中文   
    ◎IMDB评分  4.7/10 from 60 users  
    ◎IMDB链接 http://www.imdb.com/title/tt4819498/
    ◎片  长 1h 58mn
    ◎导  演 陆川 Chuan Lu
    ◎主  演 赵又廷 Mark Chao ...胡八一
          姚晨 Chen Yao ...Shirley杨
          冯粒 Li Feng ...王胖子
          李晨 Chen Li ...王馆长
          唐嫣 Yan Tang ...曹维维
          凤小岳 Rhydian Vaughan ...陈东
          李光洁 Guangjie Li ...韩九阳
          王庆祥 Qingxiang Wang ...杨教授
          王德顺 Deshun Wang ...安立满
          吴军 Jun Wu
          林宁 Ning Lin
       
    ◎简  介   

      1979年,昆仑山发现神秘生物骸骨,由胡八一(赵又廷饰)率领的探险队深入昆仑山腹地,寻找有关古生物遗迹的更多秘密,却不料在这个过程中遭到不同神秘生物的轮番攻击,并意外坠入九层妖塔,除胡八一外,一行人生死成谜。

      胡八一退伍后回到北京,重逢了发小王凯旋(冯粒饰),并在神秘人(李晨饰)与科考队(凤小岳、唐嫣、李光洁饰)两股力量的夹缝中重新踏上了探寻未知文明的征程,途中与Shirley杨(姚晨饰)邂逅,熟识的面孔唤醒了他身处探险队那段日子的记忆。此行凶险,在还没来得及搞清楚shirley的真实身份之际,胡八一、Shirley、王胖子率领一行人便在王子墓、石油小镇等地遭到不明生物的轰炸,这里所发生的一切再度指向九层妖塔,而这次等待他们的,将是一个尘封已千年的未解之谜……

    花絮

    .影片根据天下霸唱小说《鬼吹灯之精绝古城》改编。

    .电影《九层妖塔》一共有1500多个镜头。

    .电影的特效镜头由电影《指环王》特效总监John负责。



    Video
    ID                                       : 1
    Format                                   : AVC
    Format/Info                              : Advanced Video Codec
    Format profile                           : High@L4.1
    Format settings, CABAC                   : Yes
    Format settings, ReFrames                : 4 frames
    Codec ID                                 : V_MPEG4/ISO/AVC
    Duration                                 : 1h 58mn
    Bit rate                                 : 12.0 Mbps
    Width                                    : 1 920 pixels
    Height                                   : 1 080 pixels
    Display aspect ratio                     : 16:9
    Frame rate mode                          : Constant
    Frame rate                               : 23.976 fps
    Color space                              : YUV
    Chroma subsampling                       : 4:2:0
    Bit depth                                : 8 bits
    Scan type                                : Progressive
    Bits/(Pixel*Frame)                       : 0.241
    Stream size                              : 9.88 GiB (95%)
    Writing library                          : x264 core 133 r2334 a3ac64b
    Encoding settings                        : cabac=1 / ref=4 / deblock=1:-3:-3 / analyse=0x3:0x133 / me=umh / subme=11 / psy=1 / psy_rd=1.05:0.10 / mixed_ref=1 / me_range=64 / chroma_me=1 / trellis=2 / 8x8dct=1 / cqm=0 / deadzone=21,11 / fast_pskip=0 / chroma_qp_offset=-3 / threads=12 / lookahead_threads=2 / sliced_threads=0 / nr=0 / decimate=1 / interlaced=0 / bluray_compat=0 / constrained_intra=0 / bframes=8 / b_pyramid=2 / b_adapt=2 / b_bias=0 / direct=3 / weightb=1 / open_gop=0 / weightp=2 / keyint=250 / keyint_min=23 / scenecut=40 / intra_refresh=0 / rc_lookahead=80 / rc=2pass / mbtree=1 / bitrate=12000 / ratetol=1.0 / qcomp=0.60 / qpmin=0 / qpmax=69 / qpstep=4 / cplxblur=20.0 / qblur=0.5 / vbv_maxrate=40000 / vbv_bufsize=30000 / nal_hrd=none / ip_ratio=1.40 / aq=1:0.80
    Language                                 : English
    Default                                  : Yes
    Forced                                   : No

    Audio
    ID                                       : 2
    Format                                   : AC-3
    Format/Info                              : Audio Coding 3
    Mode extension                           : CM (complete main)
    Format settings, Endianness              : Big
    Codec ID                                 : A_AC3
    Duration                                 : 1h 58mn
    Bit rate mode                            : Constant
    Bit rate                                 : 640 Kbps
    Channel(s)                               : 6 channels
    Channel positions                        : Front: L C R, Side: L R, LFE
    Sampling rate                            : 48.0 KHz
    Frame rate                               : 31.250 fps (1536 spf)
    Compression mode                         : Lossy
    Stream size                              : 540 MiB (5%)
    Language                                 : Chinese
    Default                                  : Yes
    Forced                                   : No

    00922516325228010916_thumb.jpg
    23483520874512664136_thumb.jpg

    91873503067657525530_thumb.jpg

    40736457691733617149_thumb.jpg

    34539750184640918735_thumb.jpg

    54972036704277807107_thumb.jpg

    游客,如果您要查看本帖隐藏内容请回复




    General
    Format                         : MPEG-4
    Format profile                 : Base Media
    Codec ID                       : isom
    File size                      : 4.22 GiB
    Duration                       : 1h 58mn
    Overall bit rate               : 5 121 Kbps
    Writing application            : Lavf56.15.102

    Video
    ID                             : 1
    Format                         : AVC
    Format/Info                    : Advanced Video Codec
    Format profile                 : High@L4
    Format settings, CABAC         : Yes
    Format settings, ReFrames      : 4 frames
    Codec ID                       : avc1
    Codec ID/Info                  : Advanced Video Coding
    Duration                       : 1h 58mn
    Bit rate                       : 4 981 Kbps
    Width                          : 1 920 pixels
    Height                         : 800 pixels
    Display aspect ratio           : 2.40:1
    Frame rate mode                : Constant
    Frame rate                     : 24.000 fps
    Color space                    : YUV
    Chroma subsampling             : 4:2:0
    Bit depth                      : 8 bits
    Scan type                      : Progressive
    Bits/(Pixel*Frame)             : 0.135
    Stream size                    : 4.11 GiB (97%)
    Writing library                : Provided by  :: H.264/MPEG-4 AVC codec -V 1.6.08

    Audio
    ID                             : 2
    Format                         : AAC
    Format/Info                    : Advanced Audio Codec
    Format profile                 : LC
    Codec ID                       : 40
    Duration                       : 1h 58mn
    Bit rate mode                  : Constant
    Bit rate                       : 128 Kbps
    Channel(s)                     : 2 channels
    Channel positions              : Front: L R
    Sampling rate                  : 44.1 KHz
    Compression mode               : Lossy
    Stream size                    : 108 MiB (2%)



    f8TTRSx.jpg


    9DWhGN1.jpg

    beeFcaa.jpg

    N5ne7DZ.jpg

    X1okoH7.jpg

    游客,如果您要查看本帖隐藏内容请回复



    评分

    参与人数 1威望 +5 e币 +11 贡献 +5 收起 理由
    lsjsyp + 5 + 11 + 5 2D的都没看呢,正好看3D的。版主给力.

    查看全部评分

  • TA的每日心情
    开心
    2015-11-12 10:54
  • 签到天数: 1 天

    [LV.1]初来乍到

    发表于 2015-11-12 10:54:49 | 显示全部楼层
    权威而而且热污染犬瘟热完全人群
    回复 支持 1 反对 0

    使用道具 举报

  • TA的每日心情

    2016-6-12 22:34
  • 签到天数: 47 天

    [LV.5]常住居民I

    发表于 2015-11-12 10:09:21 | 显示全部楼层
    睦。。。。。看看。。。。
    回复 支持 反对

    使用道具 举报

    匿名  发表于 2015-11-12 10:13:47
    ddddddddddddddddddd
  • TA的每日心情
    开心
    2016-8-27 00:02
  • 签到天数: 28 天

    [LV.4]偶尔看看III

    发表于 2015-11-12 10:14:44 | 显示全部楼层
    ddddddddddddddddddd
    回复 支持 反对

    使用道具 举报

  • TA的每日心情
    无聊
    2016-2-29 19:28
  • 签到天数: 16 天

    [LV.4]偶尔看看III

    发表于 2015-11-12 10:17:15 | 显示全部楼层
    有3D之前看什么2D的!
    回复 支持 反对

    使用道具 举报

  • TA的每日心情
    开心
    2017-1-14 19:20
  • 签到天数: 696 天

    [LV.9]以坛为家II

    发表于 2015-11-12 10:39:03 | 显示全部楼层

    谢谢楼主分享
    回复 支持 反对

    使用道具 举报

  • TA的每日心情

    2017-4-29 14:25
  • 签到天数: 66 天

    [LV.6]常住居民II

    发表于 2015-11-12 10:42:15 | 显示全部楼层
    哎哟 碉堡了
    回复 支持 反对

    使用道具 举报

    匿名  发表于 2015-11-12 10:50:55
    11111111111111111111111111111111111111111111111111111111111111111
    匿名  发表于 2015-11-12 10:51:20
    1111111111111111111111111114444444444444444444444444444444444
    高级模式
    B Color Image Link Quote Code Smilies

    本版积分规则

    免责申明|小黑屋|手机版|Archiver|网站地图| 3D一族论坛  

    Copyright © 2001-2015 Comsenz Inc.   All Rights Reserved.

    Powered by Discuz! X3.2( 沪ICP备14045620号-1 )

    快速回复 返回顶部 返回列表