请选择 进入手机版 | 继续访问电脑版
 找回密码

3D一族论坛

查看: 13874|回复: 703

[左右] [霍比特人3:五军之战3D(加长版).2014.3D.EXTENDED][1080p][MKV (16.89G+13.53G)(17.2G+13.8G)17.4G/13.11G/2.41G][BT]

  [复制链接]
  • TA的每日心情
    开心
    5 天前
  • 签到天数: 1664 天

    [LV.Master]伴坛终老

    发表于 2015-11-15 10:57:15 | 显示全部楼层 |阅读模式
    影片截图:

    data/attachment/forum/201511/15/104928yh1p8pop8zpwiikv.jpg

         
      片        名: The.Hobbit.The.Battle.of.the.Five.Armies.2014.3D.EXTENDED
      译        名: 霍比特人3:五军之战/哈比人:五军之战(港台)/哈比人:奇境再返(台)/哈比人:汗血回归/指环王前传:霍比特人(下)/霍比特人3:去而复返
      类        别: 动作 冒险 
      国        家: 欧美
      语        言: 英语
      字        幕: 中英字幕
      集        数:
      文件格式: MKV
      视频尺寸: 1920*1080
      文件大小: (16.89GB+13.53GB)(17.2GB+13.8GB)17.4GB/13.11GB/2.41GB
      上映时间: 2014-12-17(美国)/2015-01-23(中国大陆)
      影片导演: 彼得·杰克逊 Peter Jackson
      主要演员: 马丁·弗瑞曼 Martin Freeman
        伊恩·麦克莱恩 Ian McKellen
        理查德·阿米蒂奇 Richard Armitage
      推荐等级: ★★★★★
         
    下载地址:
    [下载方式]: bt下载
    [分辨率]: 1080p
    [迅雷地址]:
    [网盘下载]:
    影片简介: fangfang
    被吵醒的史矛革大闹长湖镇,最终为人类巴德(卢克·伊万斯 Luke Evans 饰)射杀。索林·橡木盾(理查德·阿米蒂奇 Richard Armitage 饰)多年的夙愿终于实现,孤山埃尔波尔重新回到矮人手中。然而这位矮人王子仿佛被史矛革的贪婪和堆成山的黄金迷惑了心窍,他 疯狂地搜寻象征王位的阿肯宝石,不仅撕毁了付给长湖镇报酬的约定,更拒绝了精灵王(李·佩斯 Lee Pace 饰)索要本族国宝的要求,为此导致三族的战争一触即发。与此同时,苍白半兽人阿索格率领大军浩浩荡荡向孤山逼近。得知消息的灰袍巫师甘道夫(伊恩·麦凯伦 Ian McKellen 饰)从中调停斡旋,而被索林视为唯一朋友的霍比特人比尔博·巴金斯(马丁·弗里曼 Martin John C. Freeman 饰)则掌握着中土命运的关键。五军会战,爆发在即!
      本片根据J.R.R·托尔金的同名原著改编,为霍比特人系列的最后一部。
    本帖最后由 xdwl 于 2015-11-18 23:55 编辑

    123354_front.jpg
    9175070.jpg


    ◎译  名 霍比特人3:五军之战/哈比人:五军之战(港台)/哈比人:奇境再返(台)/哈比人:汗血回归/指环王前传:霍比特人(下)/霍比特人3:去而复返
    ◎片  名 The Hobbit: The Battle of the Five Armies
    ◎年  代 2014
    ◎国  家 美国/新西兰
    ◎类  别 动作/奇幻/冒险
    ◎语  言 英语
    ◎上映日期 2014-12-17(美国)/2015-01-23(中国大陆)
    ◎IMDb评分  7.5/10 from 307,275 users
    ◎IMDb链接  http://www.imdb.com/title/tt2310332/
    ◎豆瓣评分 8.2/10 from 153,504 users
    ◎豆瓣链接 http://movie.douban.com/subject/2973079/
    ◎片  长 144分钟/164分钟(加长版)
    ◎导  演 彼得·杰克逊 Peter Jackson
    ◎主  演 马丁·弗瑞曼 Martin Freeman
          伊恩·麦克莱恩 Ian McKellen
          理查德·阿米蒂奇 Richard Armitage
          伊万杰琳·莉莉 Evangeline Lilly
          李·佩斯 Lee Pace
          卢克·伊万斯 Luke Evans
          本尼迪克特·康伯巴奇 Benedict Cumberbatch
          肯·斯托特 Ken Stott
          詹姆斯·内斯比特 James Nesbitt
          比利·康诺利 Billy Connolly
          凯特·布兰切特 Cate Blanchett
          伊安·霍姆 Ian Holm
          克里斯托弗·李 Christopher Lee
          雨果·维文 Hugo Weaving
          奥兰多·布鲁姆 Orlando Bloom
          马努·贝内特 Manu Bennett
          艾丹·特纳 Aidan Turner
          迪恩·奥戈曼 Dean O'Gorman
          格拉汉姆·麦克泰维什 Graham McTavish
          斯蒂芬·弗雷 Stephen Fry
          米卡埃尔·佩斯布兰特 Mikael Persbrandt

    ◎简  介

      被吵醒的史矛革大闹长湖镇,最终为人类巴德(卢克·伊万斯 Luke Evans 饰)射杀。索林·橡木盾(理查德·阿米蒂奇 Richard Armitage 饰)多年的夙愿终于实现,孤山埃尔波尔重新回到矮人手中。然而这位矮人王子仿佛被史矛革的贪婪和堆成山的黄金迷惑了心窍,他 疯狂地搜寻象征王位的阿肯宝石,不仅撕毁了付给长湖镇报酬的约定,更拒绝了精灵王(李·佩斯 Lee Pace 饰)索要本族国宝的要求,为此导致三族的战争一触即发。与此同时,苍白半兽人阿索格率领大军浩浩荡荡向孤山逼近。得知消息的灰袍巫师甘道夫(伊恩·麦凯伦 Ian McKellen 饰)从中调停斡旋,而被索林视为唯一朋友的霍比特人比尔博·巴金斯(马丁·弗里曼 Martin John C. Freeman 饰)则掌握着中土命运的关键。五军会战,爆发在即!
      本片根据J.R.R·托尔金的同名原著改编,为霍比特人系列的最后一部。

    ◎获奖情况

      第87届奥斯卡金像奖 (2015)
      最佳音效剪辑(提名)

      第17届美国青少年选择奖 (2015)
      最佳科幻/奇幻电影(提名)



    Video
    ID                                       : 1
    Format                                   : AVC
    Format/Info                              : Advanced Video Codec
    Format profile                           : High@L4.1
    Format settings, CABAC                   : Yes
    Format settings, ReFrames                : 2 frames
    Codec ID                                 : V_MPEG4/ISO/AVC
    Duration                                 : 1h 30mn
    Nominal bit rate                         : 15.5 Mbps
    Width                                    : 1 920 pixels
    Height                                   : 1 080 pixels
    Display aspect ratio                     : 16:9
    Frame rate mode                          : Constant
    Frame rate                               : 23.976 fps
    Color space                              : YUV
    Chroma subsampling                       : 4:2:0
    Bit depth                                : 8 bits
    Scan type                                : Progressive
    Bits/(Pixel*Frame)                       : 0.312
    Title                                    : The.Hobbit.The.Battle.of.the.Five.Armies.2014.DISC1.EXTENDED.1080p.3D.BluRay.Half-SBS.x264.DTS-HD.MA.7.1-RARBG
    Writing library                          : x264 core 142
    Encoding settings                        : cabac=1 / ref=1 / deblock=1:-1:-1 / analyse=0x3:0 / me=hex / subme=5 / psy=0 / mixed_ref=0 / me_range=16 / chroma_me=1 / trellis=0 / 8x8dct=1 / cqm=0 / deadzone=21,11 / fast_pskip=1 / chroma_qp_offset=0 / threads=8 / lookahead_threads=2 / sliced_threads=0 / nr=0 / decimate=1 / interlaced=0 / bluray_compat=0 / constrained_intra=0 / bframes=2 / b_pyramid=0 / b_adapt=1 / b_bias=0 / direct=1 / weightb=1 / open_gop=0 / weightp=0 / keyint=24 / keyint_min=13 / scenecut=40 / intra_refresh=0 / rc=abr / mbtree=0 / bitrate=15500 / ratetol=1.0 / qcomp=0.60 / qpmin=0 / qpmax=69 / qpstep=4 / ip_ratio=1.40 / pb_ratio=1.30 / aq=1:1.00
    Default                                  : Yes
    Forced                                   : No
    Color range                              : Limited
    Color primaries                          : BT.709
    Transfer characteristics                 : BT.709
    Matrix coefficients                      : BT.709

    Audio #1
    ID                                       : 2
    Format                                   : DTS
    Format/Info                              : Digital Theater Systems
    Format profile                           : MA / Core
    Mode                                     : 16
    Format settings, Endianness              : Big
    Codec ID                                 : A_DTS
    Duration                                 : 1h 30mn
    Bit rate mode                            : Variable
    Bit rate                                 : Unknown / 1 509 Kbps
    Channel(s)                               : 8 channels / 6 channels
    Channel positions                        : Front: L C R, Side: L R, Back: L R, LFE / Front: L C R, Side: L R, LFE
    Sampling rate                            : 48.0 KHz
    Bit depth                                : 24 bits
    Compression mode                         : Lossless / Lossy
    Title                                    : The.Hobbit.The.Battle.of.the.Five.Armies.2014.DISC1.EXTENDED.1080p.3D.BluRay.Half-SBS.x264.DTS-HD.MA.7.1-RARBG
    Language                                 : English
    Default                                  : Yes
    Forced                                   : No

    Audio #2
    ID                                       : 3
    Format                                   : DTS
    Format/Info                              : Digital Theater Systems
    Mode                                     : 16
    Format settings, Endianness              : Big
    Codec ID                                 : A_DTS
    Duration                                 : 1h 30mn
    Bit rate mode                            : Constant
    Bit rate                                 : 1 509 Kbps
    Channel(s)                               : 6 channels
    Channel positions                        : Front: L C R, Side: L R, LFE
    Sampling rate                            : 48.0 KHz
    Bit depth                                : 24 bits
    Compression mode                         : Lossy
    Stream size                              : 981 MiB (6%)
    Title                                    : The.Hobbit.The.Battle.of.the.Five.Armies.2014.DISC1.EXTENDED.1080p.3D.BluRay.Half-SBS.x264.DTS-HD.MA.7.1-RARBG
    Language                                 : English
    Default                                  : No
    Forced                                   : No

    Audio #3
    ID                                       : 4
    Format                                   : DTS
    Format/Info                              : Digital Theater Systems
    Format profile                           : MA / Core
    Mode                                     : 16
    Format settings, Endianness              : Big
    Codec ID                                 : A_DTS
    Duration                                 : 1h 30mn
    Bit rate mode                            : Variable
    Bit rate                                 : Unknown / 1 509 Kbps
    Channel(s)                               : 8 channels / 6 channels
    Channel positions                        : Front: L C R, Side: L R, Back: L R, LFE / Front: L C R, Side: L R, LFE
    Sampling rate                            : 48.0 KHz
    Bit depth                                : 16 bits
    Compression mode                         : Lossless / Lossy
    Title                                    : The.Hobbit.The.Battle.of.the.Five.Armies.2014.DISC1.EXTENDED.1080p.3D.BluRay.Half-SBS.x264.DTS-HD.MA.7.1-RARBG
    Language                                 : French
    Default                                  : No
    Forced                                   : No

    Audio #4
    ID                                       : 5
    Format                                   : DTS
    Format/Info                              : Digital Theater Systems
    Mode                                     : 16
    Format settings, Endianness              : Big
    Codec ID                                 : A_DTS
    Duration                                 : 1h 30mn
    Bit rate mode                            : Constant
    Bit rate                                 : 1 509 Kbps
    Channel(s)                               : 6 channels
    Channel positions                        : Front: L C R, Side: L R, LFE
    Sampling rate                            : 48.0 KHz
    Bit depth                                : 16 bits
    Compression mode                         : Lossy
    Stream size                              : 981 MiB (6%)
    Title                                    : The.Hobbit.The.Battle.of.the.Five.Armies.2014.DISC1.EXTENDED.1080p.3D.BluRay.Half-SBS.x264.DTS-HD.MA.7.1-RARBG
    Language                                 : French
    Default                                  : No
    Forced                                   : No

    Audio #5
    ID                                       : 6
    Format                                   : AC-3
    Format/Info                              : Audio Coding 3
    Mode extension                           : CM (complete main)
    Format settings, Endianness              : Big
    Codec ID                                 : A_AC3
    Duration                                 : 1h 30mn
    Bit rate mode                            : Constant
    Bit rate                                 : 448 Kbps
    Channel(s)                               : 6 channels
    Channel positions                        : Front: L C R, Side: L R, LFE
    Sampling rate                            : 48.0 KHz
    Compression mode                         : Lossy
    Stream size                              : 291 MiB (2%)
    Title                                    : The.Hobbit.The.Battle.of.the.Five.Armies.2014.DISC1.EXTENDED.1080p.3D.BluRay.Half-SBS.x264.DTS-HD.MA.7.1-RARBG
    Language                                 : Italian
    Default                                  : No
    Forced                                   : No

    Text #1
    ID                                       : 7
    Format                                   : PGS
    Muxing mode                              : zlib
    Codec ID                                 : S_HDMV/PGS
    Codec ID/Info                            : Picture based subtitle format used on BDs/HD-DVDs
    Language                                 : English
    Default                                  : No
    Forced                                   : No

    Text #2
    ID                                       : 8
    Format                                   : PGS
    Muxing mode                              : zlib
    Codec ID                                 : S_HDMV/PGS
    Codec ID/Info                            : Picture based subtitle format used on BDs/HD-DVDs
    Language                                 : French
    Default                                  : No
    Forced                                   : No

    Text #3
    ID                                       : 9
    Format                                   : PGS
    Muxing mode                              : zlib
    Codec ID                                 : S_HDMV/PGS
    Codec ID/Info                            : Picture based subtitle format used on BDs/HD-DVDs
    Language                                 : Italian
    Default                                  : No
    Forced                                   : No

    Text #4
    ID                                       : 10
    Format                                   : PGS
    Muxing mode                              : zlib
    Codec ID                                 : S_HDMV/PGS
    Codec ID/Info                            : Picture based subtitle format used on BDs/HD-DVDs
    Language                                 : Dutch
    Default                                  : No
    Forced                                   : No

    Text #5
    ID                                       : 11
    Format                                   : PGS
    Muxing mode                              : zlib
    Codec ID                                 : S_HDMV/PGS
    Codec ID/Info                            : Picture based subtitle format used on BDs/HD-DVDs
    Language                                 : French
    Default                                  : No
    Forced                                   : No

    Text #6
    ID                                       : 12
    Format                                   : PGS
    Muxing mode                              : zlib
    Codec ID                                 : S_HDMV/PGS
    Codec ID/Info                            : Picture based subtitle format used on BDs/HD-DVDs
    Language                                 : Italian
    Default                                  : No
    Forced                                   : No

    24847457690501324379_thumb.jpg

    39735864440388323447_thumb.jpg

    55761786485615007469_thumb.jpg

    66818283941940417986_thumb.jpg

    69006819664690650878_thumb.jpg

    95092723898755271330_thumb.jpg

    游客,如果您要查看本帖隐藏内容请回复



    Video
    ID                                       : 1
    Format                                   : AVC
    Format/Info                              : Advanced Video Codec
    Format profile                           : High@L4.1
    Format settings, CABAC                   : Yes
    Format settings, ReFrames                : 2 frames
    Codec ID                                 : V_MPEG4/ISO/AVC
    Duration                                 : 1h 13mn
    Nominal bit rate                         : 15.5 Mbps
    Width                                    : 1 920 pixels
    Height                                   : 1 080 pixels
    Display aspect ratio                     : 16:9
    Frame rate mode                          : Constant
    Frame rate                               : 23.976 fps
    Color space                              : YUV
    Chroma subsampling                       : 4:2:0
    Bit depth                                : 8 bits
    Scan type                                : Progressive
    Bits/(Pixel*Frame)                       : 0.312
    Title                                    : The.Hobbit.The.Battle.of.the.Five.Armies.2014.DISC2.EXTENDED.1080p.3D.BluRay.Half-SBS.x264.DTS-HD.MA.7.1-RARBG
    Writing library                          : x264 core 142
    Encoding settings                        : cabac=1 / ref=1 / deblock=1:-1:-1 / analyse=0x3:0 / me=hex / subme=5 / psy=0 / mixed_ref=0 / me_range=16 / chroma_me=1 / trellis=0 / 8x8dct=1 / cqm=0 / deadzone=21,11 / fast_pskip=1 / chroma_qp_offset=0 / threads=8 / lookahead_threads=2 / sliced_threads=0 / nr=0 / decimate=1 / interlaced=0 / bluray_compat=0 / constrained_intra=0 / bframes=2 / b_pyramid=0 / b_adapt=1 / b_bias=0 / direct=1 / weightb=1 / open_gop=0 / weightp=0 / keyint=24 / keyint_min=13 / scenecut=40 / intra_refresh=0 / rc=abr / mbtree=0 / bitrate=15500 / ratetol=1.0 / qcomp=0.60 / qpmin=0 / qpmax=69 / qpstep=4 / ip_ratio=1.40 / pb_ratio=1.30 / aq=1:1.00
    Default                                  : Yes
    Forced                                   : No
    Color range                              : Limited
    Color primaries                          : BT.709
    Transfer characteristics                 : BT.709
    Matrix coefficients                      : BT.709

    Audio #1
    ID                                       : 2
    Format                                   : DTS
    Format/Info                              : Digital Theater Systems
    Format profile                           : MA / Core
    Mode                                     : 16
    Format settings, Endianness              : Big
    Codec ID                                 : A_DTS
    Duration                                 : 1h 13mn
    Bit rate mode                            : Variable
    Bit rate                                 : Unknown / 1 509 Kbps
    Channel(s)                               : 8 channels / 6 channels
    Channel positions                        : Front: L C R, Side: L R, Back: L R, LFE / Front: L C R, Side: L R, LFE
    Sampling rate                            : 48.0 KHz
    Bit depth                                : 24 bits
    Compression mode                         : Lossless / Lossy
    Title                                    : The.Hobbit.The.Battle.of.the.Five.Armies.2014.DISC2.EXTENDED.1080p.3D.BluRay.Half-SBS.x264.DTS-HD.MA.7.1-RARBG
    Language                                 : English
    Default                                  : Yes
    Forced                                   : No

    Audio #2
    ID                                       : 3
    Format                                   : DTS
    Format/Info                              : Digital Theater Systems
    Mode                                     : 16
    Format settings, Endianness              : Big
    Codec ID                                 : A_DTS
    Duration                                 : 1h 13mn
    Bit rate mode                            : Constant
    Bit rate                                 : 1 509 Kbps
    Channel(s)                               : 6 channels
    Channel positions                        : Front: L C R, Side: L R, LFE
    Sampling rate                            : 48.0 KHz
    Bit depth                                : 24 bits
    Compression mode                         : Lossy
    Stream size                              : 790 MiB (6%)
    Title                                    : The.Hobbit.The.Battle.of.the.Five.Armies.2014.DISC2.EXTENDED.1080p.3D.BluRay.Half-SBS.x264.DTS-HD.MA.7.1-RARBG
    Language                                 : English
    Default                                  : No
    Forced                                   : No

    Audio #3
    ID                                       : 4
    Format                                   : DTS
    Format/Info                              : Digital Theater Systems
    Format profile                           : MA / Core
    Mode                                     : 16
    Format settings, Endianness              : Big
    Codec ID                                 : A_DTS
    Duration                                 : 1h 13mn
    Bit rate mode                            : Variable
    Bit rate                                 : Unknown / 1 509 Kbps
    Channel(s)                               : 8 channels / 6 channels
    Channel positions                        : Front: L C R, Side: L R, Back: L R, LFE / Front: L C R, Side: L R, LFE
    Sampling rate                            : 48.0 KHz
    Bit depth                                : 16 bits
    Compression mode                         : Lossless / Lossy
    Title                                    : The.Hobbit.The.Battle.of.the.Five.Armies.2014.DISC2.EXTENDED.1080p.3D.BluRay.Half-SBS.x264.DTS-HD.MA.7.1-RARBG
    Language                                 : French
    Default                                  : No
    Forced                                   : No

    Audio #4
    ID                                       : 5
    Format                                   : DTS
    Format/Info                              : Digital Theater Systems
    Mode                                     : 16
    Format settings, Endianness              : Big
    Codec ID                                 : A_DTS
    Duration                                 : 1h 13mn
    Bit rate mode                            : Constant
    Bit rate                                 : 1 509 Kbps
    Channel(s)                               : 6 channels
    Channel positions                        : Front: L C R, Side: L R, LFE
    Sampling rate                            : 48.0 KHz
    Bit depth                                : 16 bits
    Compression mode                         : Lossy
    Stream size                              : 790 MiB (6%)
    Title                                    : The.Hobbit.The.Battle.of.the.Five.Armies.2014.DISC2.EXTENDED.1080p.3D.BluRay.Half-SBS.x264.DTS-HD.MA.7.1-RARBG
    Language                                 : French
    Default                                  : No
    Forced                                   : No

    Audio #5
    ID                                       : 6
    Format                                   : AC-3
    Format/Info                              : Audio Coding 3
    Mode extension                           : CM (complete main)
    Format settings, Endianness              : Big
    Codec ID                                 : A_AC3
    Duration                                 : 1h 13mn
    Bit rate mode                            : Constant
    Bit rate                                 : 448 Kbps
    Channel(s)                               : 6 channels
    Channel positions                        : Front: L C R, Side: L R, LFE
    Sampling rate                            : 48.0 KHz
    Compression mode                         : Lossy
    Stream size                              : 235 MiB (2%)
    Title                                    : The.Hobbit.The.Battle.of.the.Five.Armies.2014.DISC2.EXTENDED.1080p.3D.BluRay.Half-SBS.x264.DTS-HD.MA.7.1-RARBG
    Language                                 : Italian
    Default                                  : No
    Forced                                   : No

    Text #1
    ID                                       : 7
    Format                                   : PGS
    Muxing mode                              : zlib
    Codec ID                                 : S_HDMV/PGS
    Codec ID/Info                            : Picture based subtitle format used on BDs/HD-DVDs
    Language                                 : English
    Default                                  : No
    Forced                                   : No

    Text #2
    ID                                       : 8
    Format                                   : PGS
    Muxing mode                              : zlib
    Codec ID                                 : S_HDMV/PGS
    Codec ID/Info                            : Picture based subtitle format used on BDs/HD-DVDs
    Language                                 : French
    Default                                  : No
    Forced                                   : No

    Text #3
    ID                                       : 9
    Format                                   : PGS
    Muxing mode                              : zlib
    Codec ID                                 : S_HDMV/PGS
    Codec ID/Info                            : Picture based subtitle format used on BDs/HD-DVDs
    Language                                 : Italian
    Default                                  : No
    Forced                                   : No

    Text #4
    ID                                       : 10
    Format                                   : PGS
    Muxing mode                              : zlib
    Codec ID                                 : S_HDMV/PGS
    Codec ID/Info                            : Picture based subtitle format used on BDs/HD-DVDs
    Language                                 : Dutch
    Default                                  : No
    Forced                                   : No

    Text #5
    ID                                       : 11
    Format                                   : PGS
    Muxing mode                              : zlib
    Codec ID                                 : S_HDMV/PGS
    Codec ID/Info                            : Picture based subtitle format used on BDs/HD-DVDs
    Language                                 : French
    Default                                  : No
    Forced                                   : No

    Text #6
    ID                                       : 12
    Format                                   : PGS
    Muxing mode                              : zlib
    Codec ID                                 : S_HDMV/PGS
    Codec ID/Info                            : Picture based subtitle format used on BDs/HD-DVDs
    Language                                 : Italian
    Default                                  : No
    Forced                                   : No

    09067575189197252295_thumb.jpg
    20337395910018289257_thumb.jpg

    31408595054378883459_thumb.jpg

    73639930664475206812_thumb.jpg

    89237169021473262362_thumb.jpg

    93829497870719997290_thumb.jpg

    游客,如果您要查看本帖隐藏内容请回复


    Video
    ID                                       : 1
    Format                                   : AVC
    Format/Info                              : Advanced Video Codec
    Format profile                           : High@L4.1
    Format settings, CABAC                   : Yes
    Format settings, ReFrames                : 2 frames
    Codec ID                                 : V_MPEG4/ISO/AVC
    Duration                                 : 1h 30mn
    Nominal bit rate                         : 16.0 Mbps
    Width                                    : 1 920 pixels
    Height                                   : 1 080 pixels
    Display aspect ratio                     : 16:9
    Frame rate mode                          : Constant
    Frame rate                               : 23.976 fps
    Color space                              : YUV
    Chroma subsampling                       : 4:2:0
    Bit depth                                : 8 bits
    Scan type                                : Progressive
    Bits/(Pixel*Frame)                       : 0.322
    Title                                    : The.Hobbit.The.Battle.of.the.Five.Armies.2014.DISC1.EXTENDED.1080p.3D.BluRay.Half-OU.x264.DTS-HD.MA.7.1-RARBG
    Writing library                          : x264 core 142
    Encoding settings                        : cabac=1 / ref=1 / deblock=1:-1:-1 / analyse=0x3:0 / me=hex / subme=5 / psy=0 / mixed_ref=0 / me_range=16 / chroma_me=1 / trellis=0 / 8x8dct=1 / cqm=0 / deadzone=21,11 / fast_pskip=1 / chroma_qp_offset=0 / threads=8 / lookahead_threads=2 / sliced_threads=0 / nr=0 / decimate=1 / interlaced=0 / bluray_compat=0 / constrained_intra=0 / bframes=2 / b_pyramid=0 / b_adapt=1 / b_bias=0 / direct=1 / weightb=1 / open_gop=0 / weightp=0 / keyint=24 / keyint_min=13 / scenecut=40 / intra_refresh=0 / rc=abr / mbtree=0 / bitrate=16000 / ratetol=1.0 / qcomp=0.60 / qpmin=0 / qpmax=69 / qpstep=4 / ip_ratio=1.40 / pb_ratio=1.30 / aq=1:1.00
    Default                                  : Yes
    Forced                                   : No
    Color range                              : Limited
    Color primaries                          : BT.709
    Transfer characteristics                 : BT.709
    Matrix coefficients                      : BT.709

    Audio #1
    ID                                       : 2
    Format                                   : DTS
    Format/Info                              : Digital Theater Systems
    Format profile                           : MA / Core
    Mode                                     : 16
    Format settings, Endianness              : Big
    Codec ID                                 : A_DTS
    Duration                                 : 1h 30mn
    Bit rate mode                            : Variable
    Bit rate                                 : Unknown / 1 509 Kbps
    Channel(s)                               : 8 channels / 6 channels
    Channel positions                        : Front: L C R, Side: L R, Back: L R, LFE / Front: L C R, Side: L R, LFE
    Sampling rate                            : 48.0 KHz
    Bit depth                                : 24 bits
    Compression mode                         : Lossless / Lossy
    Title                                    : The.Hobbit.The.Battle.of.the.Five.Armies.2014.DISC1.EXTENDED.1080p.3D.BluRay.Half-OU.x264.DTS-HD.MA.7.1-RARBG
    Language                                 : English
    Default                                  : Yes
    Forced                                   : No

    Audio #2
    ID                                       : 3
    Format                                   : DTS
    Format/Info                              : Digital Theater Systems
    Mode                                     : 16
    Format settings, Endianness              : Big
    Codec ID                                 : A_DTS
    Duration                                 : 1h 30mn
    Bit rate mode                            : Constant
    Bit rate                                 : 1 509 Kbps
    Channel(s)                               : 6 channels
    Channel positions                        : Front: L C R, Side: L R, LFE
    Sampling rate                            : 48.0 KHz
    Bit depth                                : 24 bits
    Compression mode                         : Lossy
    Stream size                              : 981 MiB (6%)
    Title                                    : The.Hobbit.The.Battle.of.the.Five.Armies.2014.DISC1.EXTENDED.1080p.3D.BluRay.Half-OU.x264.DTS-HD.MA.7.1-RARBG
    Language                                 : English
    Default                                  : No
    Forced                                   : No

    Audio #3
    ID                                       : 4
    Format                                   : DTS
    Format/Info                              : Digital Theater Systems
    Format profile                           : MA / Core
    Mode                                     : 16
    Format settings, Endianness              : Big
    Codec ID                                 : A_DTS
    Duration                                 : 1h 30mn
    Bit rate mode                            : Variable
    Bit rate                                 : Unknown / 1 509 Kbps
    Channel(s)                               : 8 channels / 6 channels
    Channel positions                        : Front: L C R, Side: L R, Back: L R, LFE / Front: L C R, Side: L R, LFE
    Sampling rate                            : 48.0 KHz
    Bit depth                                : 16 bits
    Compression mode                         : Lossless / Lossy
    Title                                    : The.Hobbit.The.Battle.of.the.Five.Armies.2014.DISC1.EXTENDED.1080p.3D.BluRay.Half-OU.x264.DTS-HD.MA.7.1-RARBG
    Language                                 : French
    Default                                  : No
    Forced                                   : No

    Audio #4
    ID                                       : 5
    Format                                   : DTS
    Format/Info                              : Digital Theater Systems
    Mode                                     : 16
    Format settings, Endianness              : Big
    Codec ID                                 : A_DTS
    Duration                                 : 1h 30mn
    Bit rate mode                            : Constant
    Bit rate                                 : 1 509 Kbps
    Channel(s)                               : 6 channels
    Channel positions                        : Front: L C R, Side: L R, LFE
    Sampling rate                            : 48.0 KHz
    Bit depth                                : 16 bits
    Compression mode                         : Lossy
    Stream size                              : 981 MiB (6%)
    Title                                    : The.Hobbit.The.Battle.of.the.Five.Armies.2014.DISC1.EXTENDED.1080p.3D.BluRay.Half-OU.x264.DTS-HD.MA.7.1-RARBG
    Language                                 : French
    Default                                  : No
    Forced                                   : No

    Audio #5
    ID                                       : 6
    Format                                   : AC-3
    Format/Info                              : Audio Coding 3
    Mode extension                           : CM (complete main)
    Format settings, Endianness              : Big
    Codec ID                                 : A_AC3
    Duration                                 : 1h 30mn
    Bit rate mode                            : Constant
    Bit rate                                 : 448 Kbps
    Channel(s)                               : 6 channels
    Channel positions                        : Front: L C R, Side: L R, LFE
    Sampling rate                            : 48.0 KHz
    Compression mode                         : Lossy
    Stream size                              : 291 MiB (2%)
    Title                                    : The.Hobbit.The.Battle.of.the.Five.Armies.2014.DISC1.EXTENDED.1080p.3D.BluRay.Half-OU.x264.DTS-HD.MA.7.1-RARBG
    Language                                 : Italian
    Default                                  : No
    Forced                                   : No

    Text #1
    ID                                       : 7
    Format                                   : PGS
    Muxing mode                              : zlib
    Codec ID                                 : S_HDMV/PGS
    Codec ID/Info                            : Picture based subtitle format used on BDs/HD-DVDs
    Language                                 : English
    Default                                  : No
    Forced                                   : No

    Text #2
    ID                                       : 8
    Format                                   : PGS
    Muxing mode                              : zlib
    Codec ID                                 : S_HDMV/PGS
    Codec ID/Info                            : Picture based subtitle format used on BDs/HD-DVDs
    Language                                 : French
    Default                                  : No
    Forced                                   : No

    Text #3
    ID                                       : 9
    Format                                   : PGS
    Muxing mode                              : zlib
    Codec ID                                 : S_HDMV/PGS
    Codec ID/Info                            : Picture based subtitle format used on BDs/HD-DVDs
    Language                                 : Italian
    Default                                  : No
    Forced                                   : No

    Text #4
    ID                                       : 10
    Format                                   : PGS
    Muxing mode                              : zlib
    Codec ID                                 : S_HDMV/PGS
    Codec ID/Info                            : Picture based subtitle format used on BDs/HD-DVDs
    Language                                 : Dutch
    Default                                  : No
    Forced                                   : No

    Text #5
    ID                                       : 11
    Format                                   : PGS
    Muxing mode                              : zlib
    Codec ID                                 : S_HDMV/PGS
    Codec ID/Info                            : Picture based subtitle format used on BDs/HD-DVDs
    Language                                 : French
    Default                                  : No
    Forced                                   : No

    Text #6
    ID                                       : 12
    Format                                   : PGS
    Muxing mode                              : zlib
    Codec ID                                 : S_HDMV/PGS
    Codec ID/Info                            : Picture based subtitle format used on BDs/HD-DVDs
    Language                                 : Italian
    Default                                  : No
    Forced                                   : No

    15827607142062203108_thumb.jpg


    32239316141534624741_thumb.jpg


    45462707854219156885_thumb.jpg


    85414553086749259345_thumb.jpg


    98066624712866548727_thumb.jpg


    30936372421680530231_thumb.jpg

    游客,如果您要查看本帖隐藏内容请回复


    Video
    ID                                       : 1
    Format                                   : AVC
    Format/Info                              : Advanced Video Codec
    Format profile                           : High@L4.1
    Format settings, CABAC                   : Yes
    Format settings, ReFrames                : 2 frames
    Codec ID                                 : V_MPEG4/ISO/AVC
    Duration                                 : 1h 13mn
    Nominal bit rate                         : 16.0 Mbps
    Width                                    : 1 920 pixels
    Height                                   : 1 080 pixels
    Display aspect ratio                     : 16:9
    Frame rate mode                          : Constant
    Frame rate                               : 23.976 fps
    Color space                              : YUV
    Chroma subsampling                       : 4:2:0
    Bit depth                                : 8 bits
    Scan type                                : Progressive
    Bits/(Pixel*Frame)                       : 0.322
    Title                                    : The.Hobbit.The.Battle.of.the.Five.Armies.2014.DISC2.EXTENDED.1080p.3D.BluRay.Half-OU.x264.DTS-HD.MA.7.1-RARBG
    Writing library                          : x264 core 142
    Encoding settings                        : cabac=1 / ref=1 / deblock=1:-1:-1 / analyse=0x3:0 / me=hex / subme=5 / psy=0 / mixed_ref=0 / me_range=16 / chroma_me=1 / trellis=0 / 8x8dct=1 / cqm=0 / deadzone=21,11 / fast_pskip=1 / chroma_qp_offset=0 / threads=8 / lookahead_threads=2 / sliced_threads=0 / nr=0 / decimate=1 / interlaced=0 / bluray_compat=0 / constrained_intra=0 / bframes=2 / b_pyramid=0 / b_adapt=1 / b_bias=0 / direct=1 / weightb=1 / open_gop=0 / weightp=0 / keyint=24 / keyint_min=13 / scenecut=40 / intra_refresh=0 / rc=abr / mbtree=0 / bitrate=16000 / ratetol=1.0 / qcomp=0.60 / qpmin=0 / qpmax=69 / qpstep=4 / ip_ratio=1.40 / pb_ratio=1.30 / aq=1:1.00
    Default                                  : Yes
    Forced                                   : No
    Color range                              : Limited
    Color primaries                          : BT.709
    Transfer characteristics                 : BT.709
    Matrix coefficients                      : BT.709

    Audio #1
    ID                                       : 2
    Format                                   : DTS
    Format/Info                              : Digital Theater Systems
    Format profile                           : MA / Core
    Mode                                     : 16
    Format settings, Endianness              : Big
    Codec ID                                 : A_DTS
    Duration                                 : 1h 13mn
    Bit rate mode                            : Variable
    Bit rate                                 : Unknown / 1 509 Kbps
    Channel(s)                               : 8 channels / 6 channels
    Channel positions                        : Front: L C R, Side: L R, Back: L R, LFE / Front: L C R, Side: L R, LFE
    Sampling rate                            : 48.0 KHz
    Bit depth                                : 24 bits
    Compression mode                         : Lossless / Lossy
    Title                                    : The.Hobbit.The.Battle.of.the.Five.Armies.2014.DISC2.EXTENDED.1080p.3D.BluRay.Half-OU.x264.DTS-HD.MA.7.1-RARBG
    Language                                 : English
    Default                                  : Yes
    Forced                                   : No

    Audio #2
    ID                                       : 3
    Format                                   : DTS
    Format/Info                              : Digital Theater Systems
    Mode                                     : 16
    Format settings, Endianness              : Big
    Codec ID                                 : A_DTS
    Duration                                 : 1h 13mn
    Bit rate mode                            : Constant
    Bit rate                                 : 1 509 Kbps
    Channel(s)                               : 6 channels
    Channel positions                        : Front: L C R, Side: L R, LFE
    Sampling rate                            : 48.0 KHz
    Bit depth                                : 24 bits
    Compression mode                         : Lossy
    Stream size                              : 790 MiB (6%)
    Title                                    : The.Hobbit.The.Battle.of.the.Five.Armies.2014.DISC2.EXTENDED.1080p.3D.BluRay.Half-OU.x264.DTS-HD.MA.7.1-RARBG
    Language                                 : English
    Default                                  : No
    Forced                                   : No

    Audio #3
    ID                                       : 4
    Format                                   : DTS
    Format/Info                              : Digital Theater Systems
    Format profile                           : MA / Core
    Mode                                     : 16
    Format settings, Endianness              : Big
    Codec ID                                 : A_DTS
    Duration                                 : 1h 13mn
    Bit rate mode                            : Variable
    Bit rate                                 : Unknown / 1 509 Kbps
    Channel(s)                               : 8 channels / 6 channels
    Channel positions                        : Front: L C R, Side: L R, Back: L R, LFE / Front: L C R, Side: L R, LFE
    Sampling rate                            : 48.0 KHz
    Bit depth                                : 16 bits
    Compression mode                         : Lossless / Lossy
    Title                                    : The.Hobbit.The.Battle.of.the.Five.Armies.2014.DISC2.EXTENDED.1080p.3D.BluRay.Half-OU.x264.DTS-HD.MA.7.1-RARBG
    Language                                 : French
    Default                                  : No
    Forced                                   : No

    Audio #4
    ID                                       : 5
    Format                                   : DTS
    Format/Info                              : Digital Theater Systems
    Mode                                     : 16
    Format settings, Endianness              : Big
    Codec ID                                 : A_DTS
    Duration                                 : 1h 13mn
    Bit rate mode                            : Constant
    Bit rate                                 : 1 509 Kbps
    Channel(s)                               : 6 channels
    Channel positions                        : Front: L C R, Side: L R, LFE
    Sampling rate                            : 48.0 KHz
    Bit depth                                : 16 bits
    Compression mode                         : Lossy
    Stream size                              : 790 MiB (6%)
    Title                                    : The.Hobbit.The.Battle.of.the.Five.Armies.2014.DISC2.EXTENDED.1080p.3D.BluRay.Half-OU.x264.DTS-HD.MA.7.1-RARBG
    Language                                 : French
    Default                                  : No
    Forced                                   : No

    Audio #5
    ID                                       : 6
    Format                                   : AC-3
    Format/Info                              : Audio Coding 3
    Mode extension                           : CM (complete main)
    Format settings, Endianness              : Big
    Codec ID                                 : A_AC3
    Duration                                 : 1h 13mn
    Bit rate mode                            : Constant
    Bit rate                                 : 448 Kbps
    Channel(s)                               : 6 channels
    Channel positions                        : Front: L C R, Side: L R, LFE
    Sampling rate                            : 48.0 KHz
    Compression mode                         : Lossy
    Stream size                              : 235 MiB (2%)
    Title                                    : The.Hobbit.The.Battle.of.the.Five.Armies.2014.DISC2.EXTENDED.1080p.3D.BluRay.Half-OU.x264.DTS-HD.MA.7.1-RARBG
    Language                                 : Italian
    Default                                  : No
    Forced                                   : No

    Text #1
    ID                                       : 7
    Format                                   : PGS
    Muxing mode                              : zlib
    Codec ID                                 : S_HDMV/PGS
    Codec ID/Info                            : Picture based subtitle format used on BDs/HD-DVDs
    Language                                 : English
    Default                                  : No
    Forced                                   : No

    Text #2
    ID                                       : 8
    Format                                   : PGS
    Muxing mode                              : zlib
    Codec ID                                 : S_HDMV/PGS
    Codec ID/Info                            : Picture based subtitle format used on BDs/HD-DVDs
    Language                                 : French
    Default                                  : No
    Forced                                   : No

    Text #3
    ID                                       : 9
    Format                                   : PGS
    Muxing mode                              : zlib
    Codec ID                                 : S_HDMV/PGS
    Codec ID/Info                            : Picture based subtitle format used on BDs/HD-DVDs
    Language                                 : Italian
    Default                                  : No
    Forced                                   : No

    Text #4
    ID                                       : 10
    Format                                   : PGS
    Muxing mode                              : zlib
    Codec ID                                 : S_HDMV/PGS
    Codec ID/Info                            : Picture based subtitle format used on BDs/HD-DVDs
    Language                                 : Dutch
    Default                                  : No
    Forced                                   : No

    Text #5
    ID                                       : 11
    Format                                   : PGS
    Muxing mode                              : zlib
    Codec ID                                 : S_HDMV/PGS
    Codec ID/Info                            : Picture based subtitle format used on BDs/HD-DVDs
    Language                                 : French
    Default                                  : No
    Forced                                   : No

    Text #6
    ID                                       : 12
    Format                                   : PGS
    Muxing mode                              : zlib
    Codec ID                                 : S_HDMV/PGS
    Codec ID/Info                            : Picture based subtitle format used on BDs/HD-DVDs
    Language                                 : Italian
    Default                                  : No
    Forced                                   : No

    28442740056944089666_thumb.jpg


    29831519548016524024_thumb.jpg


    48203824441110432532_thumb.jpg


    54969948909892007022_thumb.jpg


    79607945153169444910_thumb.jpg


    82114990701591081517_thumb.jpg

    游客,如果您要查看本帖隐藏内容请回复




    Format                                   : Matroska
    Format version                           : Version 2
    File size                                : 17.4 GiB
    Duration                                 : 2h 44mn
    Overall bit rate                         : 15.2 Mbps
    Movie name                               : The.Hobbit.The.Battle.of.the.Five.Armies.3D.Extended.2014.PL.H-OU.BDRip.1080p.Bluray3D Rip by Sonda [AT-Team]
    Encoded date                             : UTC 2015-11-18 13:28:32
    Writing application                      : mkvmerge v5.7.0 ('The Whirlwind') built on Jul  8 2012 20:08:51
    Writing library                          : libebml v1.2.3 + libmatroska v1.3.0

    Video
    ID                                       : 1
    Format                                   : AVC
    Format/Info                              : Advanced Video Codec
    Format profile                           : High@L4.1
    Format settings, CABAC                   : Yes
    Format settings, ReFrames                : 2 frames
    Codec ID                                 : V_MPEG4/ISO/AVC
    Duration                                 : 2h 44mn
    Bit rate                                 : 12.3 Mbps
    Width                                    : 1 920 pixels
    Height                                   : 1 080 pixels
    Display aspect ratio                     : 16:9 (2.39:1)
    Frame rate mode                          : Constant
    Frame rate                               : 23.976 fps
    Color space                              : YUV
    Chroma subsampling                       : 4:2:0
    Bit depth                                : 8 bits
    Scan type                                : Progressive
    Bits/(Pixel*Frame)                       : 0.248
    Stream size                              : 14.2 GiB (81%)
    Title                                    : Rip by Sonda
    Writing library                          : x264 core
    Default                                  : Yes
    Forced                                   : No
    Color primaries                          : BT.709
    Transfer characteristics                 : BT.709
    Matrix coefficients                      : BT.709

    Audio #1
    ID                                       : 2
    Format                                   : AC-3
    Format/Info                              : Audio Coding 3
    Mode extension                           : CM (complete main)
    Format settings, Endianness              : Big
    Codec ID                                 : A_AC3
    Duration                                 : 2h 44mn
    Bit rate mode                            : Constant
    Bit rate                                 : 384 Kbps
    Channel count                            : 6 channels
    Channel positions                        : Front: L C R, Side: L R, LFE
    Sampling rate                            : 48.0 KHz
    Bit depth                                : 16 bits
    Compression mode                         : Lossy
    Stream size                              : 451 MiB (3%)
    Title                                    : AC3 5.1 Lektor PL
    Language                                 : Polish
    Default                                  : Yes
    Forced                                   : Yes

    Audio #2
    ID                                       : 3
    Format                                   : AC-3
    Format/Info                              : Audio Coding 3
    Mode extension                           : CM (complete main)
    Format settings, Endianness              : Big
    Codec ID                                 : A_AC3
    Duration                                 : 2h 44mn
    Bit rate mode                            : Constant
    Bit rate                                 : 640 Kbps
    Channel count                            : 6 channels
    Channel positions                        : Front: L C R, Side: L R, LFE
    Sampling rate                            : 48.0 KHz
    Bit depth                                : 16 bits
    Compression mode                         : Lossy
    Stream size                              : 751 MiB (4%)
    Title                                    : AC3 5.1
    Language                                 : English
    Default                                  : No
    Forced                                   : No

    Audio #3
    ID                                       : 4
    Format                                   : DTS
    Format/Info                              : Digital Theater Systems
    Mode                                     : 16
    Format settings, Endianness              : Big
    Codec ID                                 : A_DTS
    Duration                                 : 2h 44mn
    Bit rate mode                            : Constant
    Bit rate                                 : 1 509 Kbps
    Channel count                            : 6 channels
    Channel positions                        : Front: L C R, Side: L R, LFE
    Sampling rate                            : 48.0 KHz
    Bit depth                                : 24 bits
    Compression mode                         : Lossy
    Stream size                              : 1.73 GiB (10%)
    Title                                    : DTS 5.1
    Language                                 : English
    Default                                  : No
    Forced                                   : No

    Text #1
    ID                                       : 5
    Format                                   : UTF-8
    Codec ID                                 : S_TEXT/UTF8
    Codec ID/Info                            : UTF-8 Plain Text
    Title                                    : Napisy PL 2D
    Language                                 : Polish
    Default                                  : No
    Forced                                   : No

    Text #2
    ID                                       : 6
    Format                                   : PGS
    Muxing mode                              : zlib
    Codec ID                                 : S_HDMV/PGS
    Codec ID/Info                            : The same subtitle format used on BDs/HD-DVDs
    Title                                    : Napisy PL 3D
    Language                                 : Polish
    Default                                  : No
    Forced                                   : No

    Text #3
    ID                                       : 7
    Format                                   : PGS
    Muxing mode                              : zlib
    Codec ID                                 : S_HDMV/PGS
    Codec ID/Info                            : The same subtitle format used on BDs/HD-DVDs
    Title                                    : Napisy ENG 3D
    Language                                 : English
    Default                                  : No
    Forced                                   : No

    YUP25oo.jpg

    6cN4EbQ.jpg

    8BDbuPG.jpg

    EgjLQBI.jpg

    游客,如果您要查看本帖隐藏内容请回复



    Video
    ID                                       : 1
    Format                                   : AVC
    Format/Info                              : Advanced Video Codec
    Format profile                           : High@L4.1
    MultiView_Count                          : 2
    MultiView_Layout                         : Side by Side (left eye first)
    Format settings, CABAC                   : Yes
    Format settings, ReFrames                : 5 frames
    Codec ID                                 : V_MPEG4/ISO/AVC
    Duration                                 : 2h 44mn
    Bit rate                                 : 9 930 Kbps
    Width                                    : 1 920 pixels
    Height                                   : 800 pixels
    Display aspect ratio                     : 2.40:1
    Frame rate mode                          : Constant
    Frame rate                               : 23.976 fps
    Color space                              : YUV
    Chroma subsampling                       : 4:2:0
    Bit depth                                : 8 bits
    Scan type                                : Progressive
    Bits/(Pixel*Frame)                       : 0.270
    Stream size                              : 11.1 GiB (85%)
    Writing library                          : x264 core 148 r2638 7599210
    Encoding settings                        : cabac=1 / ref=5 / deblock=1:-3:-3 / analyse=0x3:0x113 / me=umh / subme=8 / psy=1 / psy_rd=1.00:0.00 / mixed_ref=1 / me_range=32 / chroma_me=1 / trellis=1 / 8x8dct=1 / cqm=0 / deadzone=21,11 / fast_pskip=0 / chroma_qp_offset=-2 / threads=18 / lookahead_threads=3 / sliced_threads=0 / nr=0 / decimate=1 / interlaced=0 / bluray_compat=0 / constrained_intra=0 / bframes=3 / b_pyramid=2 / b_adapt=2 / b_bias=0 / direct=3 / weightb=1 / open_gop=0 / weightp=2 / keyint=240 / keyint_min=24 / scenecut=40 / intra_refresh=0 / rc_lookahead=50 / rc=2pass / mbtree=1 / bitrate=9930 / ratetol=1.0 / qcomp=0.60 / qpmin=0 / qpmax=69 / qpstep=4 / cplxblur=20.0 / qblur=0.5 / frame-packing=3 / ip_ratio=1.40 / aq=3:0.80
    Default                                  : Yes
    Forced                                   : No

    Audio
    ID                                       : 2
    Format                                   : DTS
    Format/Info                              : Digital Theater Systems
    Mode                                     : 16
    Format settings, Endianness              : Big
    Codec ID                                 : A_DTS
    Duration                                 : 2h 44mn
    Bit rate mode                            : Constant
    Bit rate                                 : 1 509 Kbps
    Channel(s)                               : 6 channels
    Channel positions                        : Front: L C R, Side: L R, LFE
    Sampling rate                            : 48.0 KHz
    Bit depth                                : 24 bits
    Compression mode                         : Lossy
    Stream size                              : 1.73 GiB (13%)
    Language                                 : English
    Default                                  : Yes
    Forced                                   : No



    50420942989667105982_thumb.jpg

    游客,如果您要查看本帖隐藏内容请回复


    Video:-

    [size=11.818181991577148px]Format
    [size=11.818181991577148px]: MP4 / x264 / High@L4.1
    [size=11.818181991577148px]Duration [size=11.818181991577148px]: 02:44:07
    [size=11.818181991577148px]Bitrate [size=11.818181991577148px]: 2000 Kbps
    [size=11.818181991577148px]Resolution = (Width/Height) [size=11.818181991577148px]: 1920x800 pixels
    [size=11.818181991577148px]Frame Rate [size=11.818181991577148px]: 23,976 fps

    Audio:-

    [size=11.818181991577148px]Format [size=11.818181991577148px]: AAC
    [size=11.818181991577148px]Bitrate [size=11.818181991577148px]: 96 Kbps
    [size=11.818181991577148px]Channels [size=11.818181991577148px]: 2 Channels
    [size=11.818181991577148px]Sample Rate [size=11.818181991577148px]: 48 KHz
    [size=11.818181991577148px]Language [size=11.818181991577148px]: English

    Release info:-

    [size=11.818181991577148px]Encoded/Released By [size=11.818181991577148px]: Ozlem / ETRG
    [size=11.818181991577148px]Title/Year [size=11.818181991577148px]: The Hobbit The Battle of the Five Armies 3D Extended Cut / 2014
    [size=11.818181991577148px]File Size [size=11.818181991577148px]: 2.40 GiB
    [size=11.818181991577148px]Genre [size=11.818181991577148px]: Adventure, Fantasy
    [size=11.818181991577148px]Source [size=11.818181991577148px]: The Hobbit The Battle of the Five Armies 2014 3D Extended Cut Half-SBS 1080p BluRay DTS x264-PSYCHD (Thank You)
    [size=11.818181991577148px]Subtitles [size=11.818181991577148px]: N/A
    [size=11.818181991577148px]IMDB [size=11.818181991577148px]: http://www.imdb.com/title/tt2310332/


    141228.th.jpg 532228.th.jpg

    665320.th.jpg 3a455b.th.jpg

    28249b.th.jpg 47774f.th.jpg

    游客,如果您要查看本帖隐藏内容请回复



    中英特效字幕(本字幕经本人精调时间轴完美匹配合集版)
    游客,如果您要查看本帖隐藏内容请回复








  • TA的每日心情
    奋斗
    2015-11-28 13:17
  • 签到天数: 45 天

    [LV.5]常住居民I

    发表于 2015-11-15 11:22:03 | 显示全部楼层
    谢谢领主分享
    回复 支持 反对

    使用道具 举报

  • TA的每日心情
    开心
    2016-9-8 00:44
  • 签到天数: 21 天

    [LV.4]偶尔看看III

    发表于 2015-11-15 11:28:50 | 显示全部楼层
    thank you very much!!
    回复 支持 反对

    使用道具 举报

  • TA的每日心情
    擦汗
    昨天 17:28
  • 签到天数: 1092 天

    [LV.10]以坛为家III

    发表于 2015-11-15 11:32:39 | 显示全部楼层
    支持一下
    回复 支持 反对

    使用道具 举报

  • TA的每日心情
    开心
    昨天 06:40
  • 签到天数: 1100 天

    [LV.10]以坛为家III

    发表于 2015-11-15 11:37:43 | 显示全部楼层
    谢谢分享.期盼国语字幕
    回复 支持 反对

    使用道具 举报

  • TA的每日心情
    开心
    2016-8-27 00:02
  • 签到天数: 28 天

    [LV.4]偶尔看看III

    发表于 2015-11-15 12:47:41 | 显示全部楼层
    dddddddddddddddddddddddddd
    回复 支持 反对

    使用道具 举报

  • TA的每日心情
    慵懒
    昨天 20:16
  • 签到天数: 534 天

    [LV.9]以坛为家II

    发表于 2015-11-15 15:10:31 | 显示全部楼层
    多谢分享,支持楼主!赞!!
    回复 支持 反对

    使用道具 举报

  • TA的每日心情
    郁闷
    2017-2-11 07:22
  • 签到天数: 431 天

    [LV.9]以坛为家II

    发表于 2015-11-15 18:03:18 | 显示全部楼层
    霍比特人3:五军之战3D
    回复 支持 反对

    使用道具 举报

    匿名  发表于 2015-11-15 18:39:31
    告诉对方公司的
  • TA的每日心情
    开心
    2017-9-1 13:41
  • 签到天数: 111 天

    [LV.6]常住居民II

    发表于 2015-11-15 18:49:20 | 显示全部楼层
    不错的片之,值得收藏观看!!
    回复 支持 反对

    使用道具 举报

    高级模式
    B Color Image Link Quote Code Smilies

    本版积分规则

    免责申明|小黑屋|手机版|Archiver|网站地图| 3D一族论坛  

    Copyright © 2001-2015 Comsenz Inc.   All Rights Reserved.

    Powered by Discuz! X3.2( 沪ICP备14045620号-1 )

    快速回复 返回顶部 返回列表