请选择 进入手机版 | 继续访问电脑版
 找回密码

3D一族论坛

查看: 8664|回复: 325

[左右] [[海底总动员3D Finding.Nemo.2003.3D][1080p][左右半宽/上下半高][MKV 17.29G/17.63G][BT][外挂中简字幕]

  [复制链接]
  • TA的每日心情
    开心
    2017-10-30 14:49
  • 签到天数: 1666 天

    [LV.Master]伴坛终老

    发表于 2016-3-28 13:41:18 | 显示全部楼层 |阅读模式
    影片截图:

    data/attachment/forum/201603/28/133410xiq9o2227igc7il2.jpg

         
      片        名: Finding.Nemo.2003.3D
      译        名: 海底总动员3D/寻找尼莫/海底奇兵
      类        别: 喜剧 冒险 动漫 
      国        家: 欧美
      语        言: 英语
      字        幕: 中文字幕
      集        数:
      文件格式: MKV
      视频尺寸: 1920*1080
      文件大小: 17.29GB/17.63GB
      上映时间: 2003-05-30(美国)/2003-07-30(中国大陆)/2012-09-14(美国3D)
      影片导演: 安德鲁·斯坦顿 Andrew Stanton / 李·昂克里奇 Lee Unkrich
      主要演员: 艾伯特·布鲁克斯 Albert Brooks
        艾伦·德杰尼勒斯 Ellen DeGeneres
        亚历山大·古尔德 Alexander Gould
      推荐等级: ★★★★★
         
    下载地址:
    [下载方式]: bt下载
    [分辨率]: 1080p
    [迅雷地址]:
    [网盘下载]:
    影片简介: fangfang
    在澳洲大堡礁的深海中,小丑鱼爸爸玛林和儿子尼莫简单幸福的生活着,可是爸爸做事常常畏首畏尾,是个胆小鬼,尼莫觉得爸爸很不勇敢,甚至有点看不起自己的爸爸。小尼莫却天不怕地不怕,跟同伴们去水面玩耍的时候,竟然被渔网捞了起来,辗转被卖到一家牙医诊所。玛林对儿子的生死未卜感到十分的担忧,就算平时不能大胆行事,为了儿子也要勇敢豁出去了。可是在路上遇到了很多艰难与恐惧,令他十分胆怯。幸好他遇到了好心的多瑞,一路与他作伴。父子俩都遇到了很多热心的帮助,最终都能重逢,玛林也从此成为儿子以及大家心中的英雄。
    本帖最后由 xdwl 于 2016-3-28 13:51 编辑

    3lWgm.jpg

    ◎译  名 海底总动员3D/寻找尼莫/海底奇兵

    ◎片  名 Finding Nemo
    ◎年  代 2003
    ◎国  家 美国
    ◎类  别 动画/冒险/喜剧
    ◎语  言 英语
    ◎IMDB评分  8.1/10 (321,588 votes) IMDb Top250 #162
    ◎IMDB链接  http://www.imdb.com/title/tt0266543
    ◎片  长 100 Mins
    ◎导  演 安德鲁·斯坦顿 Andrew Stanton
          李·安魁克 Lee Unkrich
    ◎主  演 艾伯特·布鲁克斯 Albert Brooks .... Marlin (voice)
          艾伦·德杰尼勒斯 Ellen DeGeneres .... Dory (voice)
          Alexander Gould .... Nemo (voice)
          威廉·达福 Willem Dafoe .... Gill (voice)
          布拉德·加瑞特 Brad Garrett .... Bloat (voice)
          埃里森·杰尼 Allison Janney .... Peach (voice)
          奥斯汀·彭德尔顿 Austin Pendleton .... Gurgle (voice)
          斯蒂芬·鲁特 Stephen Root .... Bubbles (voice)
          韦基·刘易斯 Vicki Lewis .... Deb/Flo (voice)
          乔·兰福特 Joe Ranft .... Jacques (voice)
          乔弗瑞·拉什 Geoffrey Rush .... Nigel (voice)
          安德鲁·斯坦顿 Andrew Stanton .... Crush (voice)
          伊丽莎白·帕金斯 Elizabeth Perkins .... Coral (voice)
          Nicholas Bird .... Squirt (voice)
          Bob Peterson .... Mr. Ray (voice)
     

    ◎简  介 

      在澳洲大堡礁的深海中,小丑鱼爸爸玛林和儿子尼莫简单幸福的生活着,可是爸爸做事常常畏首畏尾,是个胆小鬼,尼莫觉得爸爸很不勇敢,甚至有点看不起自己的爸爸。小尼莫却天不怕地不怕,跟同伴们去水面玩耍的时候,竟然被渔网捞了起来,辗转被卖到一家牙医诊所。玛林对儿子的生死未卜感到十分的担忧,就算平时不能大胆行事,为了儿子也要勇敢豁出去了。可是在路上遇到了很多艰难与恐惧,令他十分胆怯。幸好他遇到了好心的多瑞,一路与他作伴。父子俩都遇到了很多热心的帮助,最终都能重逢,玛林也从此成为儿子以及大家心中的英雄。


    ◎国语配音

    马 琳——张国立
    多 利——徐  帆
    尼 莫——李凯悦
    吉 哥——任亚明
    猪 猪——盖文革
       

    ◎幕后制作

      有关水母

      《海底总动员》中所有的动画形象对于艺术家们来说都是挑战,但制作77000条水母的动画无论对技术人员还是艺术家来说都是一项最为巨大的挑战。这种粉色半透明的水母最需要的就是耐心和技巧,可以说,水母的出现跨出了动画海洋生物的一大步。这种果冻状的海洋生物是由莉莎·佛赛尔和丹尼尔·菲恩博格制作的,这一场面的复杂系数除了做出那种半透明的凝胶效果,再有就是其数量之巨……

      莉莎说:“这一幕中出现了上千只水母,所以在做好了一只水母之后,更重要的工作是其密度问题。每只水母都在水中游动,摆动,身体形态也随之变化,不同的移动速度和漂浮方向,让我们无法使用集群工具控制其动作,因为这样会使水母的动作单一化。所以我们挑选不同位置的水母将其编为一组,这让一切动作显得不那么突兀,即使如此,这仍然是一项耗费时间和精力的事情。每帧的合成都不容易,因为要将它们的动作和形态与一个个连贯的镜头相匹配。”

      仅仅在水母的移动性上下功夫是不够的,透明度也是莉莎和丹尼尔面临的难题之一。莉莎补充道:“我们编写了一个叫做”模糊透明“的软件。举个例子,透明就是透过窗户去看东西,你可以把一切看的很清楚;而模糊透明则是透过浴室的毛玻璃去看东西,任何事物看起来都是模糊扭曲的……”

      每只水母都有三大部分:冠可以在水面上浮动;触须是带刺的部分,从冠的外部悬吊下来;手臂则是从冠中间垂下来。而冠有时是手动的,软件自动将悬挂在冠上的物体挪开。为了创建计算机控制的运动,艺术家们必须手绘出基本的形状,然后技术人员利用基本的形状创建三维模型,以用来调整运动以获得理想自然的外观。 

      在虚拟的海洋中起舞

      曾经有人认为燃烧的火焰效果是无法虚拟的,不过事实证明了高科技软件的无所不能。于是,皮克斯又将下一个目标定位于流动的水,这是一个更难超越的模拟境界。当然,这次的海洋不能再是《海的女儿》中那如空气一般清澈、透明的海水了。安德鲁·斯坦顿创造出了一种很自然的海底影像。

      如何创建真实的海水的确是一个难题,就此皮克斯特别邀请了科学家给员工们做了一个关于海洋波浪、膨胀以及其他运动的讲座,并且还于2000年派员工到夏威夷研究海水和海底生物。水中的每一种元素都需要一个新的软件来支持。比如说最为重要的海底光源问题,皮克斯的程序小组开发出了“焦散”软件来模仿海底的光,由于海水的曲面反射,如果从海底向上观看太阳光,你会看到一条条跳着舞的朦胧光柱。灯光专家需要了解一个人在海底能够看多远,也许根本没必要在100或者200英尺处摆放灯光,因为那么远根本就看不到东西。海底颜色的变幻也是艺术家们面临的难题之一,因为随着距离的变化,透明度和色差也会发生变化。甚至连探索频道都成了安德鲁的教学工具,他从中挑出了四段影像资料与合成后的动画做出对比,以研究水的流动速度是否有不同的地方。总之,每一个细节都达到了精细的程度。

      工作人员在软件中制作出绚丽的灯光,并对四个海洋场景进行测试,其中包括两个海上场景和两个海底场景。事实上,艺术家们完全可以将《海底总动员》写实的拍成杰奎斯·克斯特类型的海底记录片,不过这毕竟是一部受众为孩子的动画片,趣味性和漫画性是必不可少的,在带给观众乐趣的同时,也让观众感觉身处真实的海底世界中才是最难的,不过皮克斯成功的做到了这一点。

      动画片中出现的灯光和色彩要比实际海洋中的色彩丰富一些,海底通常是昏暗深沉的,阳光是无法通过海水达到海底的,海底的物体会随着距离的远近而呈现不同的颜色,但电影中的海水始终保持着一种饱和的颜色,虽然有些不真实,但效果的确不错。

      鱼和微芯片

      如何制造出一条活灵活现的虚拟鱼是一件很有趣的事情。拉尔夫·艾格雷斯顿说:“鱼是一种湿滑、多鳞的动物,我希望观众能够喜欢我们创造出的动画形象。什么样的形象才能让观众接受,最后我们选择了三种材质--胶性、天鹅绒状和金属效果。”小丑鱼马林和尼莫的皮肤属于胶性材质,而道瑞的皮肤明显带有天鹅绒的柔软效果,而金属质感的皮肤则赋予了成群的金枪鱼。

      制作该动画之前,动画总监布朗和七个成员到蒙特里海湾的水族馆旅游了一趟,他们在那里看见许多不同种类的鱼,在这里,他们对鱼的游动方式有了初步了解。来自伯克利的哲学教授亚当·萨莫斯来到了皮克斯,担任他们的鱼类研究顾问,对艺术家们进行系统的鱼类知识培训。比如说:鱼的行为含义。还有就是鲷科蓝倒吊的游动方式特别奇特,上下游动时尾巴几乎不动。所以原定制作出的动画,道瑞游动时尾巴是不动的。但是,拉萨特看到初步动画的时候,他问布朗:“道瑞的尾巴为什么不动?”

      每个人认为鱼游动的时候必然会摇动尾巴,所以,即使现实中蓝倒吊游动的时候并不摇动尾鳍,但应用到动画片中,实际效果看起来就会特别蹩脚,后来布朗还是添加了道瑞摇动尾鳍的动画。

      完成了有关鱼的运动细节之后,艺术家们面临着的另一大挑战就是:如何让一条鱼拥有演员一样的丰富表情?由于从未有过类似的制作经验,所以让鱼按照人类习惯的方式说话相当困难。在此之前皮克斯创造的都是与人类似的动画角色,而这次他们需要制作的却是没有手没有脚的鱼儿。虽然在动画制作和交流等方面的原理是相通的,但是艺术家们对如何让一条鱼表现出高兴或悲伤还是很头疼。为了制作出具有人的行动特征的海底生物,工作人员用了大量时间去研究《小鹿班比》中出现的多种动画形象,因为迪斯尼动画一直的风格就是自然真实。

      动画片中运用了大量的肢体语言,鱼鳍就相当于手臂,在适当的时候插入鳍的动作,这样使鱼的动作看起来很自然。如何制作鳍的动作也是一个问题:在水下举起手的话,身体就会后移,如果鱼儿在某地旋动,艺术家们就必须找到鱼儿正确游动时的平衡点,让它游动动作看起来真实可信。除此之外,鱼儿丰富的表情让其更具人性化。事实上,真正的鱼并没有那么灵活的嘴唇,它们拥有的只是坚硬的膜。


    ◎花  絮

    · 在牙医诊所的地上,有一个巴斯光年的玩偶。
    · 在牙医诊所中候诊的男孩看的漫画是《超人特攻队》,这是皮克斯公司为当时即将上映的《超人特攻队》打广告呢。
    ·《玩具总动员》中比萨星球的卡车,当时还没上映的《汽车总动员》中的一辆车都从牙医诊所门口经过。
    · Gill的脸部造型借鉴了其配音演员威廉·达福的脸部特点。
    · Gill脸上的伤疤跟《疤面人》中Tony Montana的和《狮子王》中刀疤的位置一样。
    · 鲨鱼布鲁斯喊的那句“Here‘s Brucey!”源自杰克·尼克尔森在《闪灵》中用斧子破门时那句大名鼎鼎的台词“Here‘s Johnny!”。
    · 牙医诊所候诊室的造型来自一个坐落在加州皮克斯总部附近的牙科诊所。
    · Darla这个名字来自皮克斯的制片人Darla K. Anderson。据说角色的灵感就来自于她。
    · 海鸥进攻的场面模仿了希区柯克的电影《鸟》,Darla出场时的音乐来自希区柯克的《精神病患者》。  



    Video
    ID                                       : 1
    Format                                   : AVC
    Format/Info                              : Advanced Video Codec
    Format profile                           : High@L4.1
    Format settings, CABAC                   : Yes
    Format settings, ReFrames                : 2 frames
    Codec ID                                 : V_MPEG4/ISO/AVC
    Duration                                 : 1h 40mn
    Nominal bit rate                         : 15.5 Mbps
    Width                                    : 1 920 pixels
    Height                                   : 1 080 pixels
    Display aspect ratio                     : 16:9
    Frame rate mode                          : Constant
    Frame rate                               : 23.976 (24000/1001) fps
    Color space                              : YUV
    Chroma subsampling                       : 4:2:0
    Bit depth                                : 8 bits
    Scan type                                : Progressive
    Bits/(Pixel*Frame)                       : 0.312
    Title                                    : Finding.Nemo.2003.1080p.3D.BluRay.Half-SBS.x264.TrueHD.7.1-RARBG
    Writing library                          : x264 core 142
    Encoding settings                        : cabac=1 / ref=1 / deblock=1:-1:-1 / analyse=0x3:0 / me=hex / subme=5 / psy=0 / mixed_ref=0 / me_range=16 / chroma_me=1 / trellis=0 / 8x8dct=1 / cqm=0 / deadzone=21,11 / fast_pskip=0 / chroma_qp_offset=0 / threads=8 / lookahead_threads=2 / sliced_threads=0 / nr=0 / decimate=1 / interlaced=0 / bluray_compat=0 / constrained_intra=0 / bframes=2 / b_pyramid=0 / b_adapt=1 / b_bias=0 / direct=1 / weightb=0 / open_gop=0 / weightp=0 / keyint=24 / keyint_min=13 / scenecut=40 / intra_refresh=0 / rc=abr / mbtree=0 / bitrate=15500 / ratetol=1.0 / qcomp=0.60 / qpmin=0 / qpmax=69 / qpstep=4 / ip_ratio=1.40 / pb_ratio=1.30 / aq=1:1.00
    Default                                  : Yes
    Forced                                   : No
    Color range                              : Limited
    Color primaries                          : BT.709
    Transfer characteristics                 : BT.709
    Matrix coefficients                      : BT.709

    Audio #1
    ID                                       : 2
    Format                                   : TrueHD
    Codec ID                                 : A_TRUEHD
    Duration                                 : 1h 40mn
    Bit rate mode                            : Variable
    Maximum bit rate                         : 8 757 Kbps
    Channel(s)                               : 8 channels
    Channel positions                        : Front: L C R, Side: L R, Back: L R, LFE
    Sampling rate                            : 48.0 KHz
    Frame rate                               : 1 200.000 fps (40 spf)
    Compression mode                         : Lossless
    Title                                    : Finding.Nemo.2003.1080p.3D.BluRay.Half-SBS.x264.TrueHD.7.1-RARBG
    Language                                 : English
    Default                                  : Yes
    Forced                                   : No

    Audio #2
    ID                                       : 3
    Format                                   : AC-3
    Format/Info                              : Audio Coding 3
    Mode extension                           : CM (complete main)
    Format settings, Endianness              : Big
    Codec ID                                 : A_AC3
    Duration                                 : 1h 40mn
    Bit rate mode                            : Constant
    Bit rate                                 : 640 Kbps
    Channel(s)                               : 6 channels
    Channel positions                        : Front: L C R, Side: L R, LFE
    Sampling rate                            : 48.0 KHz
    Frame rate                               : 31.250 fps (1536 spf)
    Compression mode                         : Lossy
    Stream size                              : 462 MiB (3%)
    Title                                    : Finding.Nemo.2003.1080p.3D.BluRay.Half-SBS.x264.TrueHD.7.1-RARBG
    Language                                 : English
    Default                                  : No
    Forced                                   : No

    Audio #3
    ID                                       : 4
    Format                                   : AC-3
    Format/Info                              : Audio Coding 3
    Format profile                           : Dolby Digital
    Mode extension                           : CM (complete main)
    Format settings, Endianness              : Big
    Codec ID                                 : A_AC3
    Duration                                 : 1h 40mn
    Bit rate mode                            : Constant
    Bit rate                                 : 320 Kbps
    Channel(s)                               : 2 channels
    Channel positions                        : Front: L R
    Sampling rate                            : 48.0 KHz
    Frame rate                               : 31.250 fps (1536 spf)
    Compression mode                         : Lossy
    Stream size                              : 231 MiB (1%)
    Title                                    : Finding.Nemo.2003.1080p.3D.BluRay.Half-SBS.x264.TrueHD.7.1-RARBG
    Language                                 : English
    Default                                  : No
    Forced                                   : No

    Audio #4
    ID                                       : 5
    Format                                   : AC-3
    Format/Info                              : Audio Coding 3
    Format profile                           : Dolby Digital
    Mode extension                           : CM (complete main)
    Format settings, Endianness              : Big
    Codec ID                                 : A_AC3
    Duration                                 : 1h 40mn
    Bit rate mode                            : Constant
    Bit rate                                 : 320 Kbps
    Channel(s)                               : 2 channels
    Channel positions                        : Front: L R
    Sampling rate                            : 48.0 KHz
    Frame rate                               : 31.250 fps (1536 spf)
    Compression mode                         : Lossy
    Stream size                              : 231 MiB (1%)
    Title                                    : Finding.Nemo.2003.1080p.3D.BluRay.Half-SBS.x264.TrueHD.7.1-RARBG
    Language                                 : English
    Default                                  : No
    Forced                                   : No

    Audio #5
    ID                                       : 6
    Format                                   : AC-3
    Format/Info                              : Audio Coding 3
    Mode extension                           : CM (complete main)
    Format settings, Endianness              : Big
    Codec ID                                 : A_AC3
    Duration                                 : 1h 40mn
    Bit rate mode                            : Constant
    Bit rate                                 : 640 Kbps
    Channel(s)                               : 6 channels
    Channel positions                        : Front: L C R, Side: L R, LFE
    Sampling rate                            : 48.0 KHz
    Frame rate                               : 31.250 fps (1536 spf)
    Compression mode                         : Lossy
    Stream size                              : 462 MiB (3%)
    Title                                    : Finding.Nemo.2003.1080p.3D.BluRay.Half-SBS.x264.TrueHD.7.1-RARBG
    Language                                 : French
    Default                                  : No
    Forced                                   : No

    Audio #6
    ID                                       : 7
    Format                                   : AC-3
    Format/Info                              : Audio Coding 3
    Mode extension                           : CM (complete main)
    Format settings, Endianness              : Big
    Codec ID                                 : A_AC3
    Duration                                 : 1h 40mn
    Bit rate mode                            : Constant
    Bit rate                                 : 640 Kbps
    Channel(s)                               : 6 channels
    Channel positions                        : Front: L C R, Side: L R, LFE
    Sampling rate                            : 48.0 KHz
    Frame rate                               : 31.250 fps (1536 spf)
    Compression mode                         : Lossy
    Stream size                              : 462 MiB (3%)
    Title                                    : Finding.Nemo.2003.1080p.3D.BluRay.Half-SBS.x264.TrueHD.7.1-RARBG
    Language                                 : Spanish
    Default                                  : No
    Forced                                   : No

    Text #1
    ID                                       : 8
    Format                                   : PGS
    Muxing mode                              : zlib
    Codec ID                                 : S_HDMV/PGS
    Codec ID/Info                            : Picture based subtitle format used on BDs/HD-DVDs
    Title                                    : English-PGS
    Language                                 : English
    Default                                  : No
    Forced                                   : No

    Text #2
    ID                                       : 9
    Format                                   : PGS
    Muxing mode                              : zlib
    Codec ID                                 : S_HDMV/PGS
    Codec ID/Info                            : Picture based subtitle format used on BDs/HD-DVDs
    Title                                    : English-SDH-PGS
    Language                                 : English
    Default                                  : No
    Forced                                   : No

    Text #3
    ID                                       : 10
    Format                                   : PGS
    Muxing mode                              : zlib
    Codec ID                                 : S_HDMV/PGS
    Codec ID/Info                            : Picture based subtitle format used on BDs/HD-DVDs
    Title                                    : French-PGS
    Language                                 : French
    Default                                  : No
    Forced                                   : No

    Text #4
    ID                                       : 11
    Format                                   : PGS
    Muxing mode                              : zlib
    Codec ID                                 : S_HDMV/PGS
    Codec ID/Info                            : Picture based subtitle format used on BDs/HD-DVDs
    Title                                    : Spanish-PGS
    Language                                 : Spanish
    Default                                  : No
    Forced                                   : No


    20561945531489442759_thumb.jpg

    55438279561128914901_thumb.jpg

    60112674703661067491_thumb.jpg

    63432814483947012815_thumb.jpg

    80557150404476111581_thumb.jpg

    90261480656169260527_thumb.jpg



    游客,如果您要查看本帖隐藏内容请回复




    Video
    ID                                       : 1
    Format                                   : AVC
    Format/Info                              : Advanced Video Codec
    Format profile                           : High@L4.1
    Format settings, CABAC                   : Yes
    Format settings, ReFrames                : 2 frames
    Codec ID                                 : V_MPEG4/ISO/AVC
    Duration                                 : 1h 40mn
    Nominal bit rate                         : 16.0 Mbps
    Width                                    : 1 920 pixels
    Height                                   : 1 080 pixels
    Display aspect ratio                     : 16:9
    Frame rate mode                          : Constant
    Frame rate                               : 23.976 (24000/1001) fps
    Color space                              : YUV
    Chroma subsampling                       : 4:2:0
    Bit depth                                : 8 bits
    Scan type                                : Progressive
    Bits/(Pixel*Frame)                       : 0.322
    Title                                    : Finding.Nemo.2003.1080p.3D.BluRay.Half-OU.x264.TrueHD.7.1-RARBG
    Writing library                          : x264 core 142
    Encoding settings                        : cabac=1 / ref=1 / deblock=1:-1:-1 / analyse=0x3:0 / me=hex / subme=5 / psy=0 / mixed_ref=0 / me_range=16 / chroma_me=1 / trellis=0 / 8x8dct=1 / cqm=0 / deadzone=21,11 / fast_pskip=0 / chroma_qp_offset=0 / threads=8 / lookahead_threads=2 / sliced_threads=0 / nr=0 / decimate=1 / interlaced=0 / bluray_compat=0 / constrained_intra=0 / bframes=2 / b_pyramid=0 / b_adapt=1 / b_bias=0 / direct=1 / weightb=0 / open_gop=0 / weightp=0 / keyint=24 / keyint_min=13 / scenecut=40 / intra_refresh=0 / rc=abr / mbtree=0 / bitrate=16000 / ratetol=1.0 / qcomp=0.60 / qpmin=0 / qpmax=69 / qpstep=4 / ip_ratio=1.40 / pb_ratio=1.30 / aq=1:1.00
    Default                                  : Yes
    Forced                                   : No
    Color range                              : Limited
    Color primaries                          : BT.709
    Transfer characteristics                 : BT.709
    Matrix coefficients                      : BT.709

    Audio #1
    ID                                       : 2
    Format                                   : TrueHD
    Codec ID                                 : A_TRUEHD
    Duration                                 : 1h 40mn
    Bit rate mode                            : Variable
    Maximum bit rate                         : 8 757 Kbps
    Channel(s)                               : 8 channels
    Channel positions                        : Front: L C R, Side: L R, Back: L R, LFE
    Sampling rate                            : 48.0 KHz
    Frame rate                               : 1 200.000 fps (40 spf)
    Compression mode                         : Lossless
    Title                                    : Finding.Nemo.2003.1080p.3D.BluRay.Half-OU.x264.TrueHD.7.1-RARBG
    Language                                 : English
    Default                                  : Yes
    Forced                                   : No

    Audio #2
    ID                                       : 3
    Format                                   : AC-3
    Format/Info                              : Audio Coding 3
    Mode extension                           : CM (complete main)
    Format settings, Endianness              : Big
    Codec ID                                 : A_AC3
    Duration                                 : 1h 40mn
    Bit rate mode                            : Constant
    Bit rate                                 : 640 Kbps
    Channel(s)                               : 6 channels
    Channel positions                        : Front: L C R, Side: L R, LFE
    Sampling rate                            : 48.0 KHz
    Frame rate                               : 31.250 fps (1536 spf)
    Compression mode                         : Lossy
    Stream size                              : 462 MiB (3%)
    Title                                    : Finding.Nemo.2003.1080p.3D.BluRay.Half-OU.x264.TrueHD.7.1-RARBG
    Language                                 : English
    Default                                  : No
    Forced                                   : No

    Audio #3
    ID                                       : 4
    Format                                   : AC-3
    Format/Info                              : Audio Coding 3
    Format profile                           : Dolby Digital
    Mode extension                           : CM (complete main)
    Format settings, Endianness              : Big
    Codec ID                                 : A_AC3
    Duration                                 : 1h 40mn
    Bit rate mode                            : Constant
    Bit rate                                 : 320 Kbps
    Channel(s)                               : 2 channels
    Channel positions                        : Front: L R
    Sampling rate                            : 48.0 KHz
    Frame rate                               : 31.250 fps (1536 spf)
    Compression mode                         : Lossy
    Stream size                              : 231 MiB (1%)
    Title                                    : Finding.Nemo.2003.1080p.3D.BluRay.Half-OU.x264.TrueHD.7.1-RARBG
    Language                                 : English
    Default                                  : No
    Forced                                   : No

    Audio #4
    ID                                       : 5
    Format                                   : AC-3
    Format/Info                              : Audio Coding 3
    Format profile                           : Dolby Digital
    Mode extension                           : CM (complete main)
    Format settings, Endianness              : Big
    Codec ID                                 : A_AC3
    Duration                                 : 1h 40mn
    Bit rate mode                            : Constant
    Bit rate                                 : 320 Kbps
    Channel(s)                               : 2 channels
    Channel positions                        : Front: L R
    Sampling rate                            : 48.0 KHz
    Frame rate                               : 31.250 fps (1536 spf)
    Compression mode                         : Lossy
    Stream size                              : 231 MiB (1%)
    Title                                    : Finding.Nemo.2003.1080p.3D.BluRay.Half-OU.x264.TrueHD.7.1-RARBG
    Language                                 : English
    Default                                  : No
    Forced                                   : No

    Audio #5
    ID                                       : 6
    Format                                   : AC-3
    Format/Info                              : Audio Coding 3
    Mode extension                           : CM (complete main)
    Format settings, Endianness              : Big
    Codec ID                                 : A_AC3
    Duration                                 : 1h 40mn
    Bit rate mode                            : Constant
    Bit rate                                 : 640 Kbps
    Channel(s)                               : 6 channels
    Channel positions                        : Front: L C R, Side: L R, LFE
    Sampling rate                            : 48.0 KHz
    Frame rate                               : 31.250 fps (1536 spf)
    Compression mode                         : Lossy
    Stream size                              : 462 MiB (3%)
    Title                                    : Finding.Nemo.2003.1080p.3D.BluRay.Half-OU.x264.TrueHD.7.1-RARBG
    Language                                 : French
    Default                                  : No
    Forced                                   : No

    Audio #6
    ID                                       : 7
    Format                                   : AC-3
    Format/Info                              : Audio Coding 3
    Mode extension                           : CM (complete main)
    Format settings, Endianness              : Big
    Codec ID                                 : A_AC3
    Duration                                 : 1h 40mn
    Bit rate mode                            : Constant
    Bit rate                                 : 640 Kbps
    Channel(s)                               : 6 channels
    Channel positions                        : Front: L C R, Side: L R, LFE
    Sampling rate                            : 48.0 KHz
    Frame rate                               : 31.250 fps (1536 spf)
    Compression mode                         : Lossy
    Stream size                              : 462 MiB (3%)
    Title                                    : Finding.Nemo.2003.1080p.3D.BluRay.Half-OU.x264.TrueHD.7.1-RARBG
    Language                                 : Spanish
    Default                                  : No
    Forced                                   : No

    Text #1
    ID                                       : 8
    Format                                   : PGS
    Muxing mode                              : zlib
    Codec ID                                 : S_HDMV/PGS
    Codec ID/Info                            : Picture based subtitle format used on BDs/HD-DVDs
    Title                                    : English-PGS
    Language                                 : English
    Default                                  : No
    Forced                                   : No

    Text #2
    ID                                       : 9
    Format                                   : PGS
    Muxing mode                              : zlib
    Codec ID                                 : S_HDMV/PGS
    Codec ID/Info                            : Picture based subtitle format used on BDs/HD-DVDs
    Title                                    : English-SDH-PGS
    Language                                 : English
    Default                                  : No
    Forced                                   : No

    Text #3
    ID                                       : 10
    Format                                   : PGS
    Muxing mode                              : zlib
    Codec ID                                 : S_HDMV/PGS
    Codec ID/Info                            : Picture based subtitle format used on BDs/HD-DVDs
    Title                                    : French-PGS
    Language                                 : French
    Default                                  : No
    Forced                                   : No

    Text #4
    ID                                       : 11
    Format                                   : PGS
    Muxing mode                              : zlib
    Codec ID                                 : S_HDMV/PGS
    Codec ID/Info                            : Picture based subtitle format used on BDs/HD-DVDs
    Title                                    : Spanish-PGS
    Language                                 : Spanish
    Default                                  : No
    Forced                                   : No



    01130221865233534461_thumb.jpg

    42499472918509108422_thumb.jpg

    44754764656618009900_thumb.jpg

    51981899135158374974_thumb.jpg

    53763981244365946550_thumb.jpg

    79298300760322895602_thumb.jpg

    游客,如果您要查看本帖隐藏内容请回复


    中简字幕
    游客,如果您要查看本帖隐藏内容请回复

  • TA的每日心情
    开心
    2017-2-14 12:45
  • 签到天数: 144 天

    [LV.7]常住居民III

    发表于 2016-3-28 14:51:51 | 显示全部楼层
    好片,楼主辛苦
    回复 支持 反对

    使用道具 举报

  • TA的每日心情
    开心
    2017-10-30 06:48
  • 签到天数: 363 天

    [LV.8]以坛为家III

    发表于 2016-3-28 15:08:08 | 显示全部楼层
    转载自转载自转载自转载自重中之重
    回复 支持 反对

    使用道具 举报

  • TA的每日心情
    奋斗
    2016-4-15 21:35
  • 签到天数: 63 天

    [LV.6]常住居民II

    发表于 2016-3-28 18:57:09 | 显示全部楼层
    儿子好喜欢,很棒的
    回复 支持 反对

    使用道具 举报

  • TA的每日心情
    奋斗
    2017-10-21 06:12
  • 签到天数: 832 天

    [LV.10]以坛为家III

    发表于 2016-3-28 19:15:13 | 显示全部楼层
    多謝樓主的分享。
    回复 支持 反对

    使用道具 举报

  • TA的每日心情
    慵懒
    2017-1-18 18:58
  • 签到天数: 341 天

    [LV.8]以坛为家III

    发表于 2016-3-28 19:23:54 | 显示全部楼层
    好有年紀的片
    回复 支持 反对

    使用道具 举报

  • TA的每日心情
    开心
    2017-2-7 13:31
  • 签到天数: 107 天

    [LV.6]常住居民II

    发表于 2016-3-28 21:54:16 | 显示全部楼层
    顶顶顶顶顶顶顶顶
    回复 支持 反对

    使用道具 举报

  • TA的每日心情
    开心
    2016-7-30 17:00
  • 签到天数: 403 天

    [LV.9]以坛为家II

    发表于 2016-3-28 22:14:21 | 显示全部楼层
    gggggggggggggggggggggggggggg
    回复 支持 反对

    使用道具 举报

  • TA的每日心情
    开心
    2016-7-30 17:00
  • 签到天数: 403 天

    [LV.9]以坛为家II

    发表于 2016-3-28 22:15:08 | 显示全部楼层
    ggggggggggggggggggg
    回复 支持 反对

    使用道具 举报

  • TA的每日心情

    2016-12-5 16:43
  • 签到天数: 687 天

    [LV.9]以坛为家II

    发表于 2016-3-28 23:29:30 | 显示全部楼层
    多謝樓主的分享
    回复 支持 反对

    使用道具 举报

    高级模式
    B Color Image Link Quote Code Smilies

    本版积分规则

    免责申明|小黑屋|手机版|Archiver|网站地图| 3D一族论坛  

    Copyright © 2001-2015 Comsenz Inc.   All Rights Reserved.

    Powered by Discuz! X3.2( 沪ICP备14045620号-1 )

    快速回复 返回顶部 返回列表