请选择 进入手机版 | 继续访问电脑版
 找回密码

3D一族论坛

查看: 4371|回复: 236

[720P] [死侍/死侍:不死现身/恶棍英雄:死侍 Deadpool.2016.720p/1080p.BluRay.x264-SPARKS][MKV 5.47G/7.65G][BT]

  [复制链接]
  • TA的每日心情
    开心
    2017-6-18 17:56
  • 签到天数: 1637 天

    [LV.Master]伴坛终老

    发表于 2016-4-27 09:48:35 | 显示全部楼层 |阅读模式
    136817_front.jpg


    ◎译  名 死侍/死侍:不死现身(港)/恶棍英雄:死侍(台)/X战警:死侍
    ◎片  名 Deadpool
    ◎年  代 2016
    ◎国  家 美国/加拿大
    ◎类  别 喜剧/动作/科幻/冒险
    ◎语  言 英语
    ◎上映日期 2016-02-12(美国)
    ◎IMDb评分  8.3/10 from 331,835 users
    ◎IMDb链接  http://www.imdb.com/title/tt1431045/
    ◎豆瓣评分 7.6/10 from 58,996 users
    ◎豆瓣链接 https://movie.douban.com/subject/3718279/
    ◎片  长 108分钟
    ◎导  演 蒂姆·米勒 Tim Miller
    ◎主  演 瑞恩·雷诺兹 Ryan Reynolds
          莫蕾娜·巴卡林 Morena Baccarin
          艾德·斯克林 Ed Skrein
          T·J·米勒 T.J. Miller
          吉娜·卡拉诺 Gina Carano
          布里安娜·希德布兰德 Brianna Hildebrand
          斯蒂芬·卡皮契奇 Stefan Kapicic
          莱斯利·格塞斯 Leslie Uggams
          杰德·瑞斯 Jed Rees
          卡兰·索尼 Karan Soni
          斯坦·李 Stan Lee

    ◎简  介

      该片是《X战警》系列电影的外传。讲述了前任特种兵韦德·威尔逊得了不治之症,而自愿加入“X武器计划”获得了快速自愈能力。在饱受虐待折磨后他成功逃脱并对Ajax进行追杀的故事。
      在原著漫画中,死侍本是个普通人,由于得了不治之症而自愿加入“X武器计划”,他如愿得到了金刚狼自我愈合的能力,但付出的代价是失去了容貌。史崔克将军把他作为失败品投入监狱折磨并继续研究,最终导致他的出逃。死侍是个亦正亦邪的角色,他拥有超越人类的力量、耐力、速度及自我愈合能力,精通各种武器,擅长搏击术,不过他的精神不太稳定。



    Video
    ID                                       : 1
    Format                                   : AVC
    Format/Info                              : Advanced Video Codec
    Format profile                           : High@L4.1
    Format settings, CABAC                   : Yes
    Format settings, ReFrames                : 5 frames
    Codec ID                                 : V_MPEG4/ISO/AVC
    Duration                                 : 1h 48mn
    Bit rate                                 : 5 727 Kbps
    Width                                    : 1 280 pixels
    Height                                   : 536 pixels
    Display aspect ratio                     : 2.40:1
    Frame rate mode                          : Constant
    Frame rate                               : 23.976 fps
    Color space                              : YUV
    Chroma subsampling                       : 4:2:0
    Bit depth                                : 8 bits
    Scan type                                : Progressive
    Bits/(Pixel*Frame)                       : 0.348
    Stream size                              : 4.32 GiB (79%)
    Writing library                          : x264 core 148 r2692 64f4e24
    Encoding settings                        : cabac=1 / ref=5 / deblock=1:0:0 / analyse=0x3:0x133 / me=umh / subme=7 / psy=1 / psy_rd=1.00:0.00 / mixed_ref=1 / me_range=16 / chroma_me=1 / trellis=1 / 8x8dct=1 / cqm=0 / deadzone=21,11 / fast_pskip=0 / chroma_qp_offset=-2 / threads=17 / lookahead_threads=2 / sliced_threads=0 / nr=0 / decimate=1 / interlaced=0 / bluray_compat=0 / constrained_intra=0 / bframes=3 / b_pyramid=2 / b_adapt=1 / b_bias=0 / direct=1 / weightb=1 / open_gop=0 / weightp=2 / keyint=250 / keyint_min=23 / scenecut=40 / intra_refresh=0 / rc_lookahead=40 / rc=2pass / mbtree=1 / bitrate=5727 / ratetol=1.0 / qcomp=0.60 / qpmin=0 / qpmax=69 / qpstep=4 / cplxblur=20.0 / qblur=0.5 / ip_ratio=1.40 / aq=1:1.00
    Language                                 : English
    Default                                  : Yes
    Forced                                   : No

    Audio
    ID                                       : 2
    Format                                   : DTS
    Format/Info                              : Digital Theater Systems
    Format profile                           : ES Matrix / Core
    Mode                                     : 16
    Format settings, Endianness              : Big
    Codec ID                                 : A_DTS
    Duration                                 : 1h 48mn
    Bit rate mode                            : Constant
    Bit rate                                 : 1 509 Kbps
    Channel(s)                               : 7 channels / 6 channels
    Channel positions                        : Front: L C R, Side: L R, Back: C, LFE / Front: L C R, Side: L R, LFE
    Sampling rate                            : 48.0 KHz
    Frame rate                               : 93.750 fps (512 spf)
    Bit depth                                : 24 bits
    Compression mode                         : Lossy
    Stream size                              : 1.14 GiB (21%)
    Language                                 : English
    Default                                  : Yes
    Forced                                   : No

    Text
    ID                                       : 3
    Format                                   : UTF-8
    Codec ID                                 : S_TEXT/UTF8
    Codec ID/Info                            : UTF-8 Plain Text
    Duration                                 : 1s 919ms
    Bit rate                                 : 70 bps
    Count of elements                        : 1
    Stream size                              : 17.0 Bytes (0%)
    Title                                    : English-Forced
    Language                                 : English
    Default                                  : Yes
    Forced                                   : Yes



    25119423108538578849_thumb.jpg

    游客,如果您要查看本帖隐藏内容请回复




    Video
    ID                                       : 1
    Format                                   : AVC
    Format/Info                              : Advanced Video Codec
    Format profile                           : High@L4.1
    Format settings, CABAC                   : Yes
    Format settings, ReFrames                : 5 frames
    Codec ID                                 : V_MPEG4/ISO/AVC
    Duration                                 : 1h 48mn
    Bit rate                                 : 8 624 Kbps
    Width                                    : 1 920 pixels
    Height                                   : 808 pixels
    Display aspect ratio                     : 2.40:1
    Frame rate mode                          : Constant
    Frame rate                               : 23.976 fps
    Color space                              : YUV
    Chroma subsampling                       : 4:2:0
    Bit depth                                : 8 bits
    Scan type                                : Progressive
    Bits/(Pixel*Frame)                       : 0.232
    Stream size                              : 6.51 GiB (85%)
    Writing library                          : x264 core 148 r2692 64f4e24
    Encoding settings                        : cabac=1 / ref=5 / deblock=1:0:0 / analyse=0x3:0x133 / me=umh / subme=7 / psy=1 / psy_rd=1.00:0.00 / mixed_ref=1 / me_range=16 / chroma_me=1 / trellis=1 / 8x8dct=1 / cqm=0 / deadzone=21,11 / fast_pskip=0 / chroma_qp_offset=-2 / threads=18 / lookahead_threads=3 / sliced_threads=0 / nr=0 / decimate=1 / interlaced=0 / bluray_compat=0 / constrained_intra=0 / bframes=3 / b_pyramid=2 / b_adapt=1 / b_bias=0 / direct=1 / weightb=1 / open_gop=0 / weightp=2 / keyint=250 / keyint_min=23 / scenecut=40 / intra_refresh=0 / rc_lookahead=40 / rc=2pass / mbtree=1 / bitrate=8624 / ratetol=1.0 / qcomp=0.60 / qpmin=0 / qpmax=69 / qpstep=4 / cplxblur=20.0 / qblur=0.5 / ip_ratio=1.40 / aq=1:1.00
    Language                                 : English
    Default                                  : Yes
    Forced                                   : No

    Audio
    ID                                       : 2
    Format                                   : DTS
    Format/Info                              : Digital Theater Systems
    Format profile                           : ES Matrix / Core
    Mode                                     : 16
    Format settings, Endianness              : Big
    Codec ID                                 : A_DTS
    Duration                                 : 1h 48mn
    Bit rate mode                            : Constant
    Bit rate                                 : 1 509 Kbps
    Channel(s)                               : 7 channels / 6 channels
    Channel positions                        : Front: L C R, Side: L R, Back: C, LFE / Front: L C R, Side: L R, LFE
    Sampling rate                            : 48.0 KHz
    Frame rate                               : 93.750 fps (512 spf)
    Bit depth                                : 24 bits
    Compression mode                         : Lossy
    Stream size                              : 1.14 GiB (15%)
    Language                                 : English
    Default                                  : Yes
    Forced                                   : No

    Text
    ID                                       : 3
    Format                                   : UTF-8
    Codec ID                                 : S_TEXT/UTF8
    Codec ID/Info                            : UTF-8 Plain Text
    Duration                                 : 1s 919ms
    Bit rate                                 : 70 bps
    Count of elements                        : 1
    Stream size                              : 17.0 Bytes (0%)
    Title                                    : English-Forced
    Language                                 : English
    Default                                  : Yes
    Forced                                   : Yes




    游客,如果您要查看本帖隐藏内容请回复

  • TA的每日心情
    开心
    2017-3-2 17:24
  • 签到天数: 122 天

    [LV.7]常住居民III

    发表于 2016-4-27 09:58:59 | 显示全部楼层
    感谢分享
    回复 支持 反对

    使用道具 举报

  • TA的每日心情

    2016-6-5 13:17
  • 签到天数: 21 天

    [LV.4]偶尔看看III

    发表于 2016-4-27 10:08:04 | 显示全部楼层
    好东西!!!绝对支持!!!!
    回复 支持 反对

    使用道具 举报

  • TA的每日心情
    开心
    2016-11-18 14:40
  • 签到天数: 94 天

    [LV.6]常住居民II

    发表于 2016-4-27 11:22:54 | 显示全部楼层
    好片子 期待很久
    回复 支持 反对

    使用道具 举报

  • TA的每日心情
    开心
    2017-1-6 11:27
  • 签到天数: 243 天

    [LV.8]以坛为家III

    发表于 2016-4-27 11:32:30 | 显示全部楼层
    感谢分享,谢谢楼主
    回复 支持 反对

    使用道具 举报

  • TA的每日心情
    开心
    2016-4-29 10:05
  • 签到天数: 53 天

    [LV.5]常住居民I

    发表于 2016-4-27 11:48:30 | 显示全部楼层
    期待已久了
    回复 支持 反对

    使用道具 举报

  • TA的每日心情
    开心
    2016-4-29 10:05
  • 签到天数: 53 天

    [LV.5]常住居民I

    发表于 2016-4-27 11:49:00 | 显示全部楼层
    期待已久了,楼主多谢!
    回复 支持 反对

    使用道具 举报

  • TA的每日心情
    开心
    前天 16:46
  • 签到天数: 223 天

    [LV.7]常住居民III

    发表于 2016-4-27 12:13:49 | 显示全部楼层
    是1080P的吗?
    回复 支持 反对

    使用道具 举报

  • TA的每日心情

    2016-6-14 16:40
  • 签到天数: 169 天

    [LV.7]常住居民III

    发表于 2016-4-27 12:54:38 | 显示全部楼层
    :不死现身/恶棍英雄:死侍 Deadpool.20:不死现身/恶棍英雄:死侍 Deadpool.20:不死现身/恶棍英雄:死侍 Deadpool.20
    回复 支持 反对

    使用道具 举报

  • TA的每日心情

    2016-8-22 11:15
  • 签到天数: 18 天

    [LV.4]偶尔看看III

    发表于 2016-4-27 13:15:41 | 显示全部楼层
    小沈阳透露,对于猪八戒这个经典形象
    回复 支持 反对

    使用道具 举报

    高级模式
    B Color Image Link Quote Code Smilies

    本版积分规则

    免责申明|小黑屋|手机版|Archiver|网站地图| 3D一族论坛  

    Copyright © 2001-2015 Comsenz Inc.   All Rights Reserved.

    Powered by Discuz! X3.2( 沪ICP备14045620号-1 )

    快速回复 返回顶部 返回列表