请选择 进入手机版 | 继续访问电脑版
 找回密码

3D一族论坛

查看: 4526|回复: 124

[左右半宽] [怒海救援3D 2016][合成3D字幕][The.Finest.Hours][1080p][AC3][MKV][11.97G]

  [复制链接]
  • TA的每日心情
    擦汗
    2017-8-12 09:35
  • 签到天数: 319 天

    [LV.8]以坛为家III

    发表于 2016-6-6 18:32:25 | 显示全部楼层 |阅读模式
    本帖最后由 lsjsyp 于 2016-6-6 18:43 编辑





    ◎译  名 怒海救援/绝命救援(台)/危情救援/最美的时光
    ◎片  名 The Finest Hours
    ◎年  代 2016
    ◎国  家 美国
    ◎类  别 剧情/动作/惊悚
    ◎语  言 英语
    ◎上映日期 2016-01-29(美国)
    ◎IMDb评分  6.8/10 from 15,546 users
    ◎IMDb链接  http://www.imdb.com/title/tt2025690/
    ◎豆瓣评分 7.1/10 from 2,693 users
    ◎豆瓣链接 https://movie.douban.com/subject/7065211/
    ◎BT之家整理 http://www.btbbt.cc
    ◎片  长 117分钟
    ◎导  演 克雷格·吉勒斯佩 Craig Gillespie
    ◎主  演 克里斯·派恩 Chris Pine
          卡西·阿弗莱克 Casey Affleck
          本·福斯特 Ben Foster
          艾瑞克·巴纳 Eric Bana
          荷丽黛·格兰杰 Holliday Grainger
          约翰·奥提兹 John Ortiz
          乔什·斯图沃特 Josh Stewart
          格拉汉姆·麦克泰维什 Graham McTavish
          凯尔·加尔纳 Kyle Gallner
          凯南·朗斯代尔 Keiynan Lonsdale
          雷切尔·布罗斯纳安 Rachel Brosnahan
          迈克尔·雷蒙德-詹姆斯 Michael Raymond-James
          约翰·马加罗 John Magaro
          马修·马希尔 Matthew Maher
          亚布拉哈姆·本鲁比 Abraham Benrubi
          博·纳普 Beau Knapp

    ◎简  介

      影片根据真实事件改编,讲述海岸警卫队在暴风雪后,营救被困油轮船员的故事。

    一艘名为SS Pendleton油轮在开往波士顿的航程中因风暴抛锚,船只开始渗水并有沉没的风险,而船上30位水手的命运危在旦夕。雷·希伯特(卡西·阿弗莱克饰)作为当时船上职位最高的工作人员开始组织众人自救,与此同时,马萨诸塞州海岸警卫队派出了救援队开始海上搜救。在队长伯尼·韦伯(克里斯·派恩饰)的带领下,四名警卫队成员开着一艘发动机都坏掉的木质救生船出发,等待他们的将是一场面对海浪的殊死搏斗……


    编码信息
    General
    Unique ID                      : 203211762629560017789224373788726318994 (0x98E129704FEBE9D4872178430DC4D792)
    Complete name                  : G:\[LYP]The.Finest.Hours.2016.1080p.3D.BluRay.Half-SBS.x264.DTS-HD.MA.HR.7.1-RARBG (1).mkv
    Format                         : Matroska
    Format version                 : Version 2
    File size                      : 12.0 GiB
    Duration                       : 1h 57mn
    Overall bit rate               : 14.6 Mbps
    Encoded date                   : UTC 2016-06-05 00:47:00
    Writing application            : mkvmerge v4.3.0 ('Escape from the Island') 编译于 Sep  5 2010 10:30:51
    Writing library                : libebml v1.0.0 + libmatroska v1.0.0 / ShanaEncoder


    Video
    ID                             : 1
    Format                         : AVC
    Format/Info                    : Advanced Video Codec
    Format profile                 : Baseline@L4
    Format settings, CABAC         : No
    Format settings, ReFrames      : 3 frames
    Format settings, GOP           : N=1
    Muxing mode                    : Header stripping
    Codec ID                       : V_MPEG4/ISO/AVC
    Duration                       : 1h 57mn
    Bit rate                       : 13.7 Mbps
    Width                          : 1 920 pixels
    Height                         : 1 080 pixels
    Display aspect ratio           : 16:9
    Frame rate mode                : Constant
    Frame rate                     : 23.976 (24000/1001) fps
    Color space                    : YUV
    Chroma subsampling             : 4:2:0
    Bit depth                      : 8 bits
    Scan type                      : Progressive
    Bits/(Pixel*Frame)             : 0.275
    Stream size                    : 11.2 GiB (94%)
    Writing library                : x264 core 148
    Encoding settings              : opencl=1 / cabac=0 / ref=3 / deblock=1:0:0 / analyse=0x1:0x111 / me=hex / subme=7 / psy=1 / psy_rd=1.00:0.00 / mixed_ref=1 / me_range=16 / chroma_me=1 / trellis=1 / 8x8dct=0 / cqm=0 / deadzone=21,11 / fast_pskip=1 / chroma_qp_offset=-2 / threads=12 / lookahead_threads=2 / sliced_threads=0 / nr=0 / decimate=1 / interlaced=0 / bluray_compat=0 / constrained_intra=0 / bframes=0 / weightp=0 / keyint=250 / keyint_min=23 / scenecut=40 / intra_refresh=0 / rc=cqp / mbtree=0 / qp=14 / ip_ratio=1.40 / aq=0
    Default                        : Yes
    Forced                         : No
    DURATION                       : 01:57:18.198000000


    Audio
    ID                             : 2
    Format                         : AC-3
    Format/Info                    : Audio Coding 3
    Mode extension                 : CM (complete main)
    Format settings, Endianness    : Big
    Muxing mode                    : Header stripping
    Codec ID                       : A_AC3
    Duration                       : 1h 57mn
    Bit rate mode                  : Constant
    Bit rate                       : 640 Kbps
    Channel(s)                     : 6 channels
    Channel positions              : Front: L C R, Side: L R, LFE
    Sampling rate                  : 48.0 KHz
    Frame rate                     : 31.250 fps (1536 spf)
    Compression mode               : Lossy
    Stream size                    : 537 MiB (4%)
    Title                          : AC3 7.1
    Language                       : English
    Default                        : Yes
    Forced                         : No



    QQ拼音截图未命名.png

    QQ拼音截图未命名1.png

    QQ拼音截图未命名2.png

    QQ拼音截图未命名3.png

    QQ拼音截图未命名4.png

    QQ拼音截图未命名5.png
    说明:
    字幕为R3台版字幕
    字幕非精校字幕
    特色版块权限,无法下载的请努力升级

    游客,如果您要查看本帖隐藏内容请回复







    评分

    参与人数 1威望 +5 e币 +50 贡献 +5 收起 理由
    xdwl + 5 + 50 + 5 很给力,楼主辛苦了!够快!

    查看全部评分

  • TA的每日心情

    2017-7-13 16:58
  • 签到天数: 570 天

    [LV.9]以坛为家II

    发表于 2016-6-6 21:25:43 | 显示全部楼层
    感谢楼主分享
    回复 支持 反对

    使用道具 举报

  • TA的每日心情
    开心
    2017-7-4 12:20
  • 签到天数: 382 天

    [LV.9]以坛为家II

    发表于 2016-6-6 21:26:19 | 显示全部楼层
    发放符合尽快;‘试试
    回复 支持 反对

    使用道具 举报

  • TA的每日心情
    开心
    2017-7-4 12:20
  • 签到天数: 382 天

    [LV.9]以坛为家II

    发表于 2016-6-6 21:27:26 | 显示全部楼层
    法规和返回该方法方法

    评分

    参与人数 1威望 -2 e币 -20 收起 理由
    lsjsyp -2 -20 请朋友们珍惜e币,切勿恶意回复!.

    查看全部评分

    回复 支持 反对

    使用道具 举报

  • TA的每日心情
    奋斗
    2017-8-4 22:06
  • 签到天数: 625 天

    [LV.9]以坛为家II

    发表于 2016-6-6 21:54:38 | 显示全部楼层
    谢谢分享,这个好看吗?
    回复 支持 反对

    使用道具 举报

  • TA的每日心情
    开心
    2016-8-12 16:46
  • 签到天数: 38 天

    [LV.5]常住居民I

    发表于 2016-6-7 09:15:51 | 显示全部楼层
    刑法规定翻跟斗翻跟斗
    回复 支持 反对

    使用道具 举报

  • TA的每日心情
    开心
    2017-2-14 12:45
  • 签到天数: 144 天

    [LV.7]常住居民III

    发表于 2016-6-7 10:59:01 | 显示全部楼层
    谢谢楼主,3D效果很好。
    回复 支持 反对

    使用道具 举报

  • TA的每日心情
    开心
    2016-12-17 10:54
  • 签到天数: 1017 天

    [LV.10]以坛为家III

    发表于 2016-6-7 16:17:03 | 显示全部楼层
    感谢楼主分享
    回复 支持 反对

    使用道具 举报

  • TA的每日心情
    奋斗
    2017-10-21 06:12
  • 签到天数: 832 天

    [LV.10]以坛为家III

    发表于 2016-6-8 06:21:36 | 显示全部楼层
    多謝樓主的分享。
    回复 支持 反对

    使用道具 举报

    您需要登录后才可以回帖 登录 | 立即注册

    本版积分规则

    免责申明|小黑屋|手机版|Archiver|网站地图| 3D一族论坛  

    Copyright © 2001-2015 Comsenz Inc.   All Rights Reserved.

    Powered by Discuz! X3.2( 沪ICP备14045620号-1 )

    快速回复 返回顶部 返回列表