请选择 进入手机版 | 继续访问电脑版
 找回密码

3D一族论坛

查看: 4606|回复: 72

[左右半宽] [美人鱼3D 2016][合成3D字幕][The.Mermaid.2016][1080p][AC3/国粤][MKV][8.04G][底权限]

  [复制链接]
  • TA的每日心情
    擦汗
    2017-8-12 09:35
  • 签到天数: 319 天

    [LV.8]以坛为家III

    发表于 2016-6-7 09:13:34 | 显示全部楼层 |阅读模式
    本帖最后由 lsjsyp 于 2016-6-8 09:34 编辑




    ◎译  名 Mermaid
    ◎片  名 美人鱼
    ◎年  代 2016
    ◎国  家 中国大陆/香港
    ◎类  别 喜剧/爱情/奇幻
    ◎语  言 汉语普通话
    ◎上映日期 2016-02-08(中国大陆/香港)
    ◎IMDb评分  6.6/10 from 2,099 users
    ◎IMDb链接  http://www.imdb.com/title/tt4701660/
    ◎豆瓣评分 7.1/10 from 296,341 users
    ◎豆瓣链接 https://movie.douban.com/subject/19944106/
    ◎片  长 93分钟
    ◎导  演 周星驰 Stephen Chow
    ◎主  演 邓超 Chao Deng
          罗志祥 Show Luo
          张雨绮 Kitty Zhang
          林允 Yun Lin
          徐克 Hark Tsui
          吴亦凡 Kris
          李尚正 Shangzheng Li
          卢正雨 Zhengyu Lu
          白客 White. K. d
          孔连顺 Lianshun Kong
          田启文 Kai Man Tin
          文章 Zhang Wen
          杨能 Neng Yang
          张美娥 Mei'e Zhang
          李叶青 Yeqing Li
          林子聪 Chi Chung Lam

    ◎简  介)
      白手起家的富豪刘轩(邓超 饰)新拍下了一块地皮,并联合了女强人李若兰(张雨绮 饰)使用恐怖的声纳技术驱赶鱼类,用于填海造地。人鱼一族长期居住在附近区域的海里,为了继续生存,带头大哥章鱼八哥(罗志祥 饰)派出了美人鱼珊珊(林允 饰)“色诱”刘轩,准备刺杀。没想到珊珊在卧底过程中与刘轩暗生情愫,一次次破坏暗杀计划,而李若兰却在准备一个更丧心病狂的邪恶计划……

    ◎花  絮
           ·周星驰评价影片的两位星女郎:“张雨绮让人的感觉是好惊艳,一见到会觉得好漂亮,林允就是好有气质的女生,她们是两个很不同的女性,各有各特色。”

           ·邓超声称自己的身体里有星爷的基因,入行当演员,就想一辈子一定要跟星爷合作一次,终于完成梦想。邓超大赞星爷是喜剧大师,周星驰立刻谦虚的回敬“邓超才是新一代的喜剧之王。”

           ·被问及《美人鱼》为何准备了整整三年,周星驰表示:“拍电影对我来说,现在越来越难。要花很多时间做剧本,还有很多特效。三年已经很快了。

           ·罗志祥二度与星爷合作,上一部作品《西游降魔篇》中饰演空虚公子,罗志祥表示:“空虚公子只拍了6天,但《美人鱼》里的压力较大,我特别想得到偶像星爷的认可。



    General
    Unique ID                      : 192930279196724170948094987079962938830 (0x9125052B1114F3AB8E747C3960014DCE)
    Complete name                  : G:\3D电影\[LYP]The.Mermaid.2016.1080p.Half-SBS.3D.BluRay.x264-WiKi.mkv
    Format                         : Matroska
    Format version                 : Version 2
    File size                      : 8.04 GiB
    Duration                       : 1h 33mn
    Overall bit rate               : 12.3 Mbps
    Encoded date                   : UTC 2016-06-05 22:48:53
    Writing application            : mkvmerge v4.3.0 ('Escape from the Island') 编译于 Sep  5 2010 10:30:51
    Writing library                : libebml v1.0.0 + libmatroska v1.0.0 / ShanaEncoder

    Video
    ID                             : 1
    Format                         : AVC
    Format/Info                    : Advanced Video Codec
    Format profile                 : Baseline@L4
    Format settings, CABAC         : No
    Format settings, ReFrames      : 3 frames
    Muxing mode                    : Header stripping
    Codec ID                       : V_MPEG4/ISO/AVC
    Duration                       : 1h 33mn
    Bit rate                       : 10.8 Mbps
    Width                          : 1 920 pixels
    Height                         : 1 080 pixels
    Display aspect ratio           : 16:9
    Frame rate mode                : Constant
    Frame rate                     : 23.976 (24000/1001) fps
    Color space                    : YUV
    Chroma subsampling             : 4:2:0
    Bit depth                      : 8 bits
    Scan type                      : Progressive
    Bits/(Pixel*Frame)             : 0.216
    Stream size                    : 7.04 GiB (88%)
    Writing library                : x264 core 148
    Encoding settings              : opencl=1 / cabac=0 / ref=3 / deblock=1:0:0 / analyse=0x1:0x111 / me=hex / subme=7 / psy=1 / psy_rd=1.00:0.00 / mixed_ref=1 / me_range=16 / chroma_me=1 / trellis=1 / 8x8dct=0 / cqm=0 / deadzone=21,11 / fast_pskip=1 / chroma_qp_offset=-2 / threads=12 / lookahead_threads=2 / sliced_threads=0 / nr=0 / decimate=1 / interlaced=0 / bluray_compat=0 / constrained_intra=0 / bframes=0 / weightp=0 / keyint=250 / keyint_min=23 / scenecut=40 / intra_refresh=0 / rc_lookahead=40 / rc=crf / mbtree=1 / crf=21.0 / qcomp=0.60 / qpmin=0 / qpmax=69 / qpstep=4 / ip_ratio=1.40 / aq=1:1.00
    Default                        : Yes
    Forced                         : No
    DURATION                       : 01:33:45.787000000

    Audio #1
    ID                             : 2
    Format                         : AC-3
    Format/Info                    : Audio Coding 3
    Mode extension                 : CM (complete main)
    Format settings, Endianness    : Big
    Muxing mode                    : Header stripping
    Codec ID                       : A_AC3
    Duration                       : 1h 33mn
    Bit rate mode                  : Constant
    Bit rate                       : 640 Kbps
    Channel(s)                     : 6 channels
    Channel positions              : Front: L C R, Side: L R, LFE
    Sampling rate                  : 48.0 KHz
    Frame rate                     : 31.250 fps (1536 spf)
    Compression mode               : Lossy
    Stream size                    : 429 MiB (5%)
    Title                          : 国语 AC3
    Language                       : Chinese
    Default                        : Yes
    Forced                         : No

    Audio #2
    ID                             : 3
    Format                         : AC-3
    Format/Info                    : Audio Coding 3
    Mode extension                 : CM (complete main)
    Format settings, Endianness    : Big
    Muxing mode                    : Header stripping
    Codec ID                       : A_AC3
    Duration                       : 1h 33mn
    Bit rate mode                  : Constant
    Bit rate                       : 640 Kbps
    Channel(s)                     : 6 channels
    Channel positions              : Front: L C R, Side: L R, LFE
    Sampling rate                  : 48.0 KHz
    Frame rate                     : 31.250 fps (1536 spf)
    Compression mode               : Lossy
    Stream size                    : 429 MiB (5%)
    Title                          : 粤语 AC3
    Language                       : Chinese
    Default                        : No
    Forced                         : No



    QQ拼音截图未命名1.png

    QQ拼音截图未命名2.png

    QQ拼音截图未命名3.png

    QQ拼音截图未命名6.png

    考虑到过节,权限下调为“无名的过客”以上下载。--2016/6/8
    请点击此处下载

    请先注册会员后在进行下载

    已注册会员,请先登录后下载

    文件名称: 下载地址.txt 
    下载次数:753 文件大小:48 Bytes  售价 : 10 e币 [免费赚e币]
    下载权限: 20以上或 [VIP会员]   [购买VIP]   [会员等级]  [e币兑钻石]



    评分

    参与人数 1威望 +5 e币 +50 贡献 +5 收起 理由
    xdwl + 5 + 50 + 5 很给力,楼主辛苦了!够快!

    查看全部评分

  • TA的每日心情
    开心
    2017-2-14 12:45
  • 签到天数: 144 天

    [LV.7]常住居民III

    发表于 2016-6-7 10:53:37 | 显示全部楼层
    我爱美人鱼,我爱3D一族。
    回复 支持 反对

    使用道具 举报

  • TA的每日心情
    奋斗
    2017-8-4 22:06
  • 签到天数: 625 天

    [LV.9]以坛为家II

    发表于 2016-6-7 11:51:58 | 显示全部楼层
    太好了,谢谢
    回复 支持 反对

    使用道具 举报

  • TA的每日心情
    开心
    2016-6-27 22:23
  • 签到天数: 2 天

    [LV.1]初来乍到

    发表于 2016-6-7 14:18:29 | 显示全部楼层
    谢谢啦!
    回复 支持 反对

    使用道具 举报

  • TA的每日心情
    开心
    2017-9-16 13:04
  • 签到天数: 599 天

    [LV.9]以坛为家II

    发表于 2016-6-8 00:28:28 | 显示全部楼层
    我去 不能下载的
    回复 支持 反对

    使用道具 举报

  • TA的每日心情
    开心
    2017-9-16 13:04
  • 签到天数: 599 天

    [LV.9]以坛为家II

    发表于 2016-6-8 01:17:04 | 显示全部楼层
    麻烦楼主 修改为 免权限 现在下载不了
    回复 支持 反对

    使用道具 举报

  • TA的每日心情
    开心
    2017-2-17 14:39
  • 签到天数: 211 天

    [LV.7]常住居民III

    发表于 2016-6-8 01:22:51 来自手机 | 显示全部楼层
    支持吧!!!
    回复 支持 反对

    使用道具 举报

  • TA的每日心情
    奋斗
    2017-10-21 06:12
  • 签到天数: 832 天

    [LV.10]以坛为家III

    发表于 2016-6-8 06:23:29 | 显示全部楼层
    多謝樓主的分享。
    回复 支持 反对

    使用道具 举报

  • TA的每日心情
    开心
    2017-3-8 13:45
  • 签到天数: 369 天

    [LV.9]以坛为家II

    发表于 2016-6-8 09:00:14 | 显示全部楼层
    我爱3D一族。
    回复 支持 反对

    使用道具 举报

  • TA的每日心情
    无聊
    2017-6-5 16:15
  • 签到天数: 135 天

    [LV.7]常住居民III

    发表于 2016-6-8 09:37:26 | 显示全部楼层
    顶一个谢谢分享
    回复 支持 反对

    使用道具 举报

    您需要登录后才可以回帖 登录 | 立即注册

    本版积分规则

    免责申明|小黑屋|手机版|Archiver|网站地图| 3D一族论坛  

    Copyright © 2001-2015 Comsenz Inc.   All Rights Reserved.

    Powered by Discuz! X3.2( 沪ICP备14045620号-1 )

    快速回复 返回顶部 返回列表