请选择 进入手机版 | 继续访问电脑版
 找回密码

3D一族论坛

查看: 4135|回复: 131

[左右半宽] [大白鲨 3D 1983][合成3D字幕][Jaws.3D.1983][1080p][AC3/国英][MKV][10.94G][底权限]

  [复制链接]
  • TA的每日心情
    擦汗
    2017-8-12 09:35
  • 签到天数: 319 天

    [LV.8]以坛为家III

    发表于 2016-6-28 11:41:39 | 显示全部楼层 |阅读模式
    本帖最后由 lsjsyp 于 2016-6-28 11:55 编辑







    ◎译  名 大白鲨3/大白鲨3D
    ◎片  名 Jaws 3-D
    ◎年  代 1983
    ◎国  家 美国
    ◎类  别 惊悚
    ◎语  言 英语
    ◎上映日期 1983-07-22
    ◎IMDb评分  3.5/10 from 26,578 users
    ◎豆瓣评分 5.9/10 from 780 users
    ◎片  长 99 分钟
    ◎导  演 乔·阿尔夫斯 Joe Alves
    ◎主  演 丹尼斯·奎德 Dennis Quaid
          贝丝·阿姆斯特朗 Bess Armstrong
          西蒙·麦克金代尔 Simon MacCorkindale
          小路易斯·格赛特 Louis Gossett Jr.
          约翰·普奇 John Putch
          莉·汤普森 Lea Thompson
    ◎简  介
      在一个开幕典礼中,席中包括许多重要人物,和一只未受邀请的小白鲨,它由一个错误的海口进入了公园的湖里,然后死了,它那35尺大的母鲨为了它的小孩,制造了前所未有的大恐惧……


    影片信息
    General
    Unique ID                      : 195656265517797610909674887747763465617 (0x933206ABA811A77EBEDB315591086D91)
    Complete name                  : D:\[LYP]Jaws.3D.1983.1080p.BluRay.x264-PSYCHD (1).mkv
    Format                         : Matroska
    Format version                 : Version 4 / Version 2
    File size                      : 10.9 GiB
    Duration                       : 1h 38mn
    Overall bit rate               : 15.9 Mbps
    Encoded date                   : UTC 2016-06-27 11:59:29
    Writing application            : mkvmerge v7.5.0 ('Glass Culture') 32bit built on Jan  4 2015 16:37:25
    Writing library                : libebml v1.3.1 + libmatroska v1.4.2 / ShanaEncoder


    Video
    ID                             : 1
    Format                         : AVC
    Format/Info                    : Advanced Video Codec
    Format profile                 : Baseline@L4
    Format settings, CABAC         : No
    Format settings, ReFrames      : 1 frame
    Codec ID                       : V_MPEG4/ISO/AVC
    Duration                       : 1h 38mn
    Bit rate                       : 14.0 Mbps
    Width                          : 1 920 pixels
    Height                         : 808 pixels
    Display aspect ratio           : 2.40:1
    Frame rate mode                : Constant
    Frame rate                     : 23.976 (24000/1001) fps
    Color space                    : YUV
    Chroma subsampling             : 4:2:0
    Bit depth                      : 8 bits
    Scan type                      : Progressive
    Bits/(Pixel*Frame)             : 0.376
    Stream size                    : 9.60 GiB (88%)
    Writing library                : x264 core 148
    Encoding settings              : opencl=1 / cabac=0 / ref=1 / deblock=1:0:0 / analyse=0x1:0x111 / me=hex / subme=2 / psy=1 / psy_rd=1.00:0.00 / mixed_ref=0 / me_range=16 / chroma_me=1 / trellis=0 / 8x8dct=0 / cqm=0 / deadzone=21,11 / fast_pskip=1 / chroma_qp_offset=0 / threads=6 / lookahead_threads=2 / sliced_threads=0 / nr=0 / decimate=1 / interlaced=0 / bluray_compat=0 / constrained_intra=0 / bframes=0 / weightp=0 / keyint=250 / keyint_min=23 / scenecut=40 / intra_refresh=0 / rc_lookahead=10 / rc=crf / mbtree=1 / crf=21.5 / qcomp=0.60 / qpmin=0 / qpmax=69 / qpstep=4 / ip_ratio=1.40 / aq=1:1.00
    Default                        : Yes
    Forced                         : No


    Audio #1
    ID                             : 2
    Format                         : AC-3
    Format/Info                    : Audio Coding 3
    Mode extension                 : CM (complete main)
    Format settings, Endianness    : Big
    Codec ID                       : A_AC3
    Duration                       : 1h 38mn
    Bit rate mode                  : Constant
    Bit rate                       : 128 Kbps
    Channel(s)                     : 2 channels
    Channel positions              : Front: L R
    Sampling rate                  : 48.0 KHz
    Frame rate                     : 31.250 fps (1536 spf)
    Compression mode               : Lossy
    Stream size                    : 90.0 MiB (1%)
    Title                          : cmct 国配
    Language                       : Chinese
    Default                        : Yes
    Forced                         : No


    Audio #2
    ID                             : 3
    Format                         : AC-3
    Format/Info                    : Audio Coding 3
    Mode extension                 : CM (complete main)
    Format settings, Endianness    : Big
    Codec ID                       : A_AC3
    Duration                       : 1h 38mn
    Bit rate mode                  : Constant
    Bit rate                       : 320 Kbps
    Channel(s)                     : 2 channels
    Channel positions              : Front: L R
    Sampling rate                  : 48.0 KHz
    Frame rate                     : 31.250 fps (1536 spf)
    Compression mode               : Lossy
    Stream size                    : 225 MiB (2%)
    Title                          : 英语 AC3
    Language                       : English
    Default                        : No
    Forced                         : No


    Audio #3
    ID                             : 4
    Format                         : DTS
    Format/Info                    : Digital Theater Systems
    Mode                           : 16
    Format settings, Endianness    : Big
    Codec ID                       : A_DTS
    Duration                       : 1h 38mn
    Bit rate mode                  : Constant
    Bit rate                       : 1 509 Kbps
    Channel(s)                     : 2 channels
    Channel positions              : Front: L R
    Sampling rate                  : 48.0 KHz
    Frame rate                     : 93.750 fps (512 spf)
    Bit depth                      : 24 bits
    Compression mode               : Lossy
    Stream size                    : 1.04 GiB (9%)
    Title                          : 英语 DTS
    Language                       : English
    Default                        : No
    Forced                         : No




    1.png

    2.png

    3.png

    4.png

    5.png

    6.png





    说明:
    1.加入国语配音,DD2.0音效
      音轨来源CMCT - olaa  感谢~
    2.保留英语音轨
    3.字幕匹配完美国语
    4.流浪的疾风 以上用户可以下载
    游客,如果您要查看本帖隐藏内容请回复





  • TA的每日心情
    无聊
    2017-3-9 11:15
  • 签到天数: 287 天

    [LV.8]以坛为家III

    发表于 2016-6-28 12:24:42 | 显示全部楼层
    顶楼主啦..希望楼主多发精品好帖啦.....
    回复 支持 反对

    使用道具 举报

  • TA的每日心情
    开心
    前天 06:49
  • 签到天数: 1142 天

    [LV.10]以坛为家III

    发表于 2016-6-28 13:03:38 | 显示全部楼层
    这部3D片.3D效果特棒.感谢楼主精彩奉献.
    回复 支持 反对

    使用道具 举报

  • TA的每日心情
    开心
    2017-1-23 00:22
  • 签到天数: 1335 天

    [LV.10]以坛为家III

    发表于 2016-6-28 13:42:21 | 显示全部楼层
    kkkkkkkkkk
    回复 支持 反对

    使用道具 举报

  • TA的每日心情
    开心
    2017-2-28 10:27
  • 签到天数: 509 天

    [LV.9]以坛为家II

    发表于 2016-6-28 15:03:14 | 显示全部楼层
    谢谢分享3D大白鲨,版主辛苦!
    回复 支持 反对

    使用道具 举报

  • TA的每日心情
    无聊
    2017-5-1 10:58
  • 签到天数: 1137 天

    [LV.10]以坛为家III

    发表于 2016-6-28 15:09:51 | 显示全部楼层
    看看能不能下载,
    回复 支持 反对

    使用道具 举报

  • TA的每日心情
    奋斗
    2017-11-2 18:42
  • 签到天数: 1343 天

    [LV.10]以坛为家III

    发表于 2016-6-28 15:10:17 | 显示全部楼层
    感谢楼主精彩奉献.
    回复 支持 反对

    使用道具 举报

  • TA的每日心情
    无聊
    2017-5-1 10:58
  • 签到天数: 1137 天

    [LV.10]以坛为家III

    发表于 2016-6-28 15:10:57 | 显示全部楼层
    看看能不能下载,
    回复 支持 反对

    使用道具 举报

  • TA的每日心情

    2017-4-28 06:29
  • 签到天数: 716 天

    [LV.9]以坛为家II

    发表于 2016-6-28 16:23:09 | 显示全部楼层
    这部片子比较经典,谢谢版主制作,辛苦~
    回复 支持 反对

    使用道具 举报

  • TA的每日心情
    开心
    昨天 07:50
  • 签到天数: 600 天

    [LV.9]以坛为家II

    发表于 2016-6-28 16:36:48 | 显示全部楼层
    谢谢 永远支持
    回复 支持 反对

    使用道具 举报

    您需要登录后才可以回帖 登录 | 立即注册

    本版积分规则

    免责申明|小黑屋|手机版|Archiver|网站地图| 3D一族论坛  

    Copyright © 2001-2015 Comsenz Inc.   All Rights Reserved.

    Powered by Discuz! X3.2( 沪ICP备14045620号-1 )

    快速回复 返回顶部 返回列表