请选择 进入手机版 | 继续访问电脑版
 找回密码

3D一族论坛

查看: 5393|回复: 232

[左右半宽] [功夫熊猫3 3D 2016][合成3D字幕][Kung.Fu.Panda.3.2016 3D][1080p][AC3/国英 DTS/英][MKV][9.4G][首发]

  [复制链接]
  • TA的每日心情
    擦汗
    2017-8-12 09:35
  • 签到天数: 319 天

    [LV.8]以坛为家III

    发表于 2016-7-5 08:14:01 | 显示全部楼层 |阅读模式
    本帖最后由 lsjsyp 于 2016-7-14 08:32 编辑


    p2306653420.jpg

    译  名 功夫熊猫3/熊猫阿宝3/阿宝正传3
    片  名 Kung Fu Panda 3
    年  代 2016
    国  家 中国大陆/美国
    类  别 喜剧/动作/动画/冒险
    语  言 英语
    上映日期 2016-01-29(美国/中国大陆)
    IMDb评分  7.3/10 from 48,931 users
    IMDb链接  http://www.imdb.com/title/tt2267968/
    豆瓣评分 7.8/10 from 128,479 users
    豆瓣链接 https://movie.douban.com/subject/11589036/
    片  长 95分钟
    导  演 余仁英 Jennifer Yuh / 亚历山德罗·卡罗尼 Alessandro Carloni
    主  演 杰克·布莱克 Jack Black
         安吉丽娜·朱莉 Angelina Jolie
         达斯汀·霍夫曼 Dustin Hoffman
         成龙 Jackie Chan
         塞斯·罗根 Seth Rogen
         刘玉玲 Lucy Liu
         大卫·克罗斯 David Cross
         詹姆斯·洪 James Hong
         布莱恩·科兰斯顿 Bryan Cranston
         凯特·哈德森 Kate Hudson
         J·K·西蒙斯 J.K. Simmons
         兰德尔·杜克·金 Randall Duk Kim
    影视简介:
      当熊猫阿宝(杰克·布莱克 Jack Black 配音)为成为真正的神龙大侠做准备的时候,他的生父——熊猫李山(布莱恩·科兰斯顿 Bryan Cranston 配音)突然到访。与此同时,拥有神秘力量的反派天煞(J·K·西蒙斯 J.K. Simmons 配音)登场,妄图制服所有高手,统治武林。相传在与世隔绝的熊猫村有着对抗天煞的力量,为了拯救苍生,阿宝与父亲踏上了归途,而阿宝的好伙伴悍娇虎(安吉丽娜·朱莉 Angelina Jolie 配音)、金猴(成龙 配音)、灵蛇(刘玉玲 配音)、螳螂(塞斯.罗根 配音)则一同拖延天煞,阿宝不仅肩负着成为真正的熊猫大侠的使命,还要让村民美美(凯特.哈德森 配音)等新伙伴练就新功夫,继承乌龟大师(兰德尔·杜克·金 Randall Duk Kim 配音)的遗志,共同抵挡天煞。
    ◎获奖情况
      第6届豆瓣电影鑫像奖  (2016)
      鑫豆单元 最佳动画长片(提名)



    编码信息:
    General
    Unique ID                      : 174910662431228390866281250485897076259 (0x83969177F90F58608A9D5B5C8CD51E23)
    Complete name                  : G:\[LYP]Kung.Fu.Panda.3.2016.1080p.3D.BluRay.Half-SBS.x264.DTS-国配AC3.mkv
    Format                         : Matroska
    Format version                 : Version 4 / Version 2
    File size                      : 9.36 GiB
    Duration                       : 1h 34mn
    Overall bit rate               : 14.1 Mbps
    Encoded date                   : UTC 2016-07-04 08:56:01
    Writing application            : mkvmerge v7.5.0 ('Glass Culture') 32bit built on Jan  4 2015 16:37:25
    Writing library                : libebml v1.3.1 + libmatroska v1.4.2 / ShanaEncoder


    Video
    ID                             : 1
    Format                         : AVC
    Format/Info                    : Advanced Video Codec
    Format profile                 : Baseline@L4
    Format settings, CABAC         : No
    Format settings, ReFrames      : 1 frame
    Codec ID                       : V_MPEG4/ISO/AVC
    Duration                       : 1h 34mn
    Bit rate                       : 8 943 Kbps
    Width                          : 1 920 pixels
    Height                         : 1 080 pixels
    Display aspect ratio           : 16:9
    Frame rate mode                : Constant
    Frame rate                     : 23.976 (24000/1001) fps
    Color space                    : YUV
    Chroma subsampling             : 4:2:0
    Bit depth                      : 8 bits
    Scan type                      : Progressive
    Bits/(Pixel*Frame)             : 0.180
    Stream size                    : 5.93 GiB (63%)
    Writing library                : x264 core 148
    Encoding settings              : opencl=1 / cabac=0 / ref=1 / deblock=1:0:0 / analyse=0x1:0x111 / me=hex / subme=2 / psy=1 / psy_rd=1.00:0.00 / mixed_ref=0 / me_range=16 / chroma_me=1 / trellis=0 / 8x8dct=0 / cqm=0 / deadzone=21,11 / fast_pskip=1 / chroma_qp_offset=0 / threads=6 / lookahead_threads=2 / sliced_threads=0 / nr=0 / decimate=1 / interlaced=0 / bluray_compat=0 / constrained_intra=0 / bframes=0 / weightp=0 / keyint=250 / keyint_min=23 / scenecut=40 / intra_refresh=0 / rc_lookahead=10 / rc=crf / mbtree=1 / crf=18.5 / qcomp=0.60 / qpmin=0 / qpmax=69 / qpstep=4 / ip_ratio=1.40 / aq=1:1.00
    Default                        : Yes
    Forced                         : No


    Audio #1
    ID                             : 2
    Format                         : AC-3
    Format/Info                    : Audio Coding 3
    Mode extension                 : CM (complete main)
    Format settings, Endianness    : Big
    Codec ID                       : A_AC3
    Duration                       : 1h 34mn
    Bit rate mode                  : Constant
    Bit rate                       : 224 Kbps
    Channel(s)                     : 2 channels
    Channel positions              : Front: L R
    Sampling rate                  : 48.0 KHz
    Frame rate                     : 31.250 fps (1536 spf)
    Compression mode               : Lossy
    Stream size                    : 152 MiB (2%)
    Title                          : CMCT 国配 2.0
    Language                       : Chinese
    Default                        : No
    Forced                         : No


    Audio #2
    ID                             : 3
    Format                         : DTS
    Format/Info                    : Digital Theater Systems
    Format profile                 : MA / ES Matrix / Core
    Mode                           : 16
    Format settings, Endianness    : Big
    Codec ID                       : A_DTS
    Duration                       : 1h 34mn
    Bit rate mode                  : Variable / Constant / Constant
    Bit rate                       : 4 784 Kbps / 1 509 Kbps / 1 509 Kbps
    Channel(s)                     : 8 channels / 7 channels / 6 channels
    Channel positions              : Front: L C R, Side: L R, Back: L R, LFE / Front: L C R, Side: L R, Back: C, LFE / Front: L C R, Side: L R, LFE
    Sampling rate                  : 48.0 KHz
    Frame rate                     : 93.750 fps (512 spf)
    Bit depth                      : 24 bits
    Compression mode               : Lossless / Lossy / Lossy
    Stream size                    : 3.17 GiB (34%)
    Title                          : 英语 DTS7.1
    Language                       : English
    Default                        : No
    Forced                         : No


    Audio #3
    ID                             : 4
    Format                         : AC-3
    Format/Info                    : Audio Coding 3
    Mode extension                 : CM (complete main)
    Format settings, Endianness    : Big
    Codec ID                       : A_AC3
    Duration                       : 42mn 14s
    Bit rate mode                  : Constant
    Bit rate                       : 384 Kbps
    Channel(s)                     : 6 channels
    Channel positions              : Front: L C R, Side: L R, LFE
    Sampling rate                  : 48.0 KHz
    Frame rate                     : 31.250 fps (1536 spf)
    Compression mode               : Lossy
    Stream size                    : 116 MiB (1%)
    Title                          : 英语 5.1
    Language                       : English
    Default                        : No
    Forced                         : No


    1.png

    2.png

    3.png

    4.png

    5.png

    6.png


    说明:
    1.字幕及国配音轨均来至“CMCT”,在此感谢。
    2.音轨及字幕大致校对,没有发现问题。
    3.此次网盘改为“360云盘”,速度还不知道...
    4.特殊版块权限,3天后下调“流浪的疾风”以上可下载,期限2天。
    5.下载权限已更新,2016-7-9  10:23更新

    游客,如果您要查看本帖隐藏内容请回复












  • TA的每日心情
    开心
    2017-1-6 08:34
  • 签到天数: 1229 天

    [LV.10]以坛为家III

    发表于 2016-7-5 08:45:03 | 显示全部楼层

    感谢楼主分享
    感谢楼主分享
    回复 支持 反对

    使用道具 举报

  • TA的每日心情

    2017-1-19 10:09
  • 签到天数: 363 天

    [LV.8]以坛为家III

    发表于 2016-7-5 08:56:30 | 显示全部楼层
    楼主加油 下载库看
    回复 支持 反对

    使用道具 举报

  • TA的每日心情
    开心
    10 小时前
  • 签到天数: 1141 天

    [LV.10]以坛为家III

    发表于 2016-7-5 09:01:33 | 显示全部楼层
    又来新的3D字幕出屏.谢谢

    评分

    参与人数 1威望 -2 e币 -20 贡献 -2 收起 理由
    lsjsyp -2 -20 -2 水的也太狠了.......

    查看全部评分

    回复 支持 反对

    使用道具 举报

  • TA的每日心情
    开心
    10 小时前
  • 签到天数: 1141 天

    [LV.10]以坛为家III

    发表于 2016-7-5 09:02:08 | 显示全部楼层
    又来新的3D字幕出屏.谢谢
    回复 支持 反对

    使用道具 举报

  • TA的每日心情
    开心
    10 小时前
  • 签到天数: 1141 天

    [LV.10]以坛为家III

    发表于 2016-7-5 09:02:44 | 显示全部楼层
    又来新的3D字幕出屏.谢谢
    回复 支持 反对

    使用道具 举报

  • TA的每日心情
    开心
    10 小时前
  • 签到天数: 1141 天

    [LV.10]以坛为家III

    发表于 2016-7-5 09:03:32 | 显示全部楼层
    又来新的3D字幕出屏.谢谢
    回复 支持 反对

    使用道具 举报

  • TA的每日心情
    开心
    10 小时前
  • 签到天数: 1141 天

    [LV.10]以坛为家III

    发表于 2016-7-5 09:05:18 | 显示全部楼层
    又来新的3D字幕出屏.谢谢
    回复 支持 反对

    使用道具 举报

  • TA的每日心情
    开心
    2016-9-1 21:38
  • 签到天数: 402 天

    [LV.9]以坛为家II

    发表于 2016-7-5 09:19:17 | 显示全部楼层
    谢谢分享
    回复 支持 反对

    使用道具 举报

  • TA的每日心情
    开心
    10 小时前
  • 签到天数: 1141 天

    [LV.10]以坛为家III

    发表于 2016-7-5 09:35:03 | 显示全部楼层
    又来新的3D字幕出屏.谢谢
    回复 支持 反对

    使用道具 举报

    您需要登录后才可以回帖 登录 | 立即注册

    本版积分规则

    免责申明|小黑屋|手机版|Archiver|网站地图| 3D一族论坛  

    Copyright © 2001-2015 Comsenz Inc.   All Rights Reserved.

    Powered by Discuz! X3.2( 沪ICP备14045620号-1 )

    快速回复 返回顶部 返回列表