请选择 进入手机版 | 继续访问电脑版
 找回密码

3D一族论坛

查看: 5034|回复: 180

[左右半宽] [猎神:冬日之战3D][合成3D字幕][The.Huntsman.Winters.War.2016.2016][1080p][英语 DTS/AC3][MKV][10.02G][百度]

  [复制链接]
  • TA的每日心情
    擦汗
    2017-8-12 09:35
  • 签到天数: 319 天

    [LV.8]以坛为家III

    发表于 2016-8-6 08:38:37 | 显示全部楼层 |阅读模式
    本帖最后由 lsjsyp 于 2016-8-6 08:42 编辑




    ◎译  名 猎神:冬日之战/猎神:魔雪叛变(香港)/狩猎者:凛冬之战/猎人:冬之战/猎人:冬日之战/白雪公主与猎人2
    ◎片  名 The Huntsman: Winter s War
    ◎年  代 2016
    ◎国  家 美国
    ◎类  别 剧情/动作/奇幻/冒险
    ◎语  言 英语
    ◎字  幕 合成3D中文字幕
    ◎IMDb评分  6.1/10 from 32478 users
    ◎IMDB链接 http://www.imdb.com/title/tt2381991
    ◎片  长 1h 53mn
    ◎导  演 塞德里克·萨科 Cedric Nicolas-Troyan
    ◎主  演 克里斯·海姆斯沃斯 Chris Hemsworth
          查理兹·塞隆 Charlize Theron
          艾米莉·布朗特 Emily Blunt
          杰西卡·查斯坦 Jessica Chastain
          尼克·弗罗斯特 Nick Frost
          山姆·克拉弗林 Sam Claflin
          罗伯·布莱顿 Rob Brydon
          科林·摩根 Colin Morgan
          索菲·库克森 Sophie Cookson
          谢里丹·史密斯 Sheridan Smith
          亚历山德拉·罗奇 Alexandra Roach


    ◎简  介

      冰雪女王弗雷亚(艾米莉·布朗特 Emily Blunt 饰)本性温柔善良,却因为痛失爱女的绝望而变得残暴和疯狂,她和邪恶的姐姐瑞文娜(查理兹·塞隆 Charlize Theron 饰)一起建立了寒冷彻骨的冰雪王国,利用冷酷和无情的规则维持她们的统治,更立下了不许相爱的规矩,违者将要受到可怕的惩罚。

      猎神埃里克(克里斯·海姆斯沃斯 Chris Hemsworth 饰)遇见了勇士莎拉(杰西卡·查斯坦 Jessica Chastain 饰),两人不可自持的坠入了爱河,触犯了大忌。为了能够和所爱之人双宿双飞,埃里克和莎拉决定联手推翻两位女王的暴政。这小小的反叛逐渐壮大变为了两个阵营的对抗,当得知女儿死亡的真相之后,冰雪女王弗雷迪会做出怎样的选择呢?

    ◎简  介

      ·本片是《白雪公主与猎人》前传。据称球最初准备拍摄续集,但由于“白雪公主”克里斯汀·斯图尔特与导演鲁伯特·山德斯出轨丑闻爆出,续集被改为前传,去掉了白雪公主这个角色。环球否认这一说法。

      ·本片是Cedric Nicolas-Troyan正式执导的首部作品,他此前曾经担任《白雪公主与猎人》的助理导演。

      ·杰西卡·查斯坦饰演的“萨拉”在2012年《白雪公主与猎人》被提到过,当时她被称为“猎人的亡妻”。

      ·索尼邮件泄密事件公开了本片一个插曲,由于片酬远远低于同时担任主角的海姆斯沃斯,查理兹·塞隆拒绝回归前传,之后索尼同意支付二人相同金额的工资(1000万美元以上),争议才告一段落。

      ·艾米莉·布朗特饰演芙蕾雅(Freya),这个名字来自于北欧神话,是美与爱之神,也是奥丁的宠妾。而克里斯·海姆斯沃斯曾饰演漫威宇宙中的雷神索尔,众所周知索尔是奥丁的儿子。

      ·杰西卡·查斯坦之所以出演本片是应合同要求。她此前在另一部由环球发行的影片《猩红山峰》中担任主角,作为附加条件,她必须出演本片。

    编码信息:
    General
    Unique ID                      : 192218663108850746384117094969287424018 (0x909BF7C94967392C9733F439179CB812)
    Complete name                  : G:\[LYP]The.Huntsman.Winters.War.2016.1080p.3D.BluRay.DTS\The.Huntsman.Winters.War.2016.1080p.3D.BluRay.Half-SBS.x264.DTS 7.1.AC3-LYP.mkv
    Format                         : Matroska
    Format version                 : Version 4 / Version 2
    File size                      : 10.0 GiB
    Duration                       : 1h 53mn
    Overall bit rate               : 12.6 Mbps
    Encoded date                   : UTC 2016-08-05 11:26:25
    Writing application            : mkvmerge v7.5.0 ('Glass Culture') 32bit built on Jan  4 2015 16:37:25
    Writing library                : libebml v1.3.1 + libmatroska v1.4.2

    Video
    ID                             : 1
    Format                         : AVC
    Format/Info                    : Advanced Video Codec
    Format profile                 : Baseline@L4
    Format settings, CABAC         : No
    Format settings, ReFrames      : 1 frame
    Codec ID                       : V_MPEG4/ISO/AVC
    Duration                       : 1h 53mn
    Bit rate                       : 8 456 Kbps
    Width                          : 1 920 pixels
    Height                         : 1 080 pixels
    Display aspect ratio           : 16:9
    Frame rate mode                : Constant
    Frame rate                     : 23.976 (24000/1001) fps
    Color space                    : YUV
    Chroma subsampling             : 4:2:0
    Bit depth                      : 8 bits
    Scan type                      : Progressive
    Bits/(Pixel*Frame)             : 0.170
    Stream size                    : 6.73 GiB (67%)
    Writing library                : x264 core 148 r2705 3f5ed56
    Encoding settings              : opencl=1 / cabac=0 / ref=1 / deblock=1:0:0 / analyse=0x1:0x111 / me=hex / subme=2 / psy=1 / psy_rd=1.00:0.00 / mixed_ref=0 / me_range=16 / chroma_me=1 / trellis=0 / 8x8dct=0 / cqm=0 / deadzone=21,11 / fast_pskip=1 / chroma_qp_offset=0 / threads=6 / lookahead_threads=2 / sliced_threads=0 / nr=0 / decimate=1 / interlaced=0 / bluray_compat=0 / constrained_intra=0 / bframes=0 / weightp=0 / keyint=250 / keyint_min=23 / scenecut=40 / intra_refresh=0 / rc_lookahead=10 / rc=crf / mbtree=1 / crf=18.5 / qcomp=0.60 / qpmin=0 / qpmax=69 / qpstep=4 / ip_ratio=1.40 / aq=1:1.00
    Default                        : Yes
    Forced                         : No

    Audio #1
    ID                             : 2
    Format                         : DTS
    Format/Info                    : Digital Theater Systems
    Format profile                 : X / MA / Core
    Mode                           : 16
    Format settings, Endianness    : Big
    Codec ID                       : A_DTS
    Duration                       : 1h 53mn
    Bit rate mode                  : Variable / Variable / Constant
    Bit rate                       : 3 840 Kbps / 3 840 Kbps / 1 509 Kbps
    Channel(s)                     : Object Based / 8 channels / 6 channels
    Channel positions              : Object Based / Front: L C R, Side: L R, Back: L R, LFE / Front: L C R, Side: L R, LFE
    Sampling rate                  :  / 48.0 KHz / 48.0 KHz
    Frame rate                     : 93.750 fps (512 spf)
    Bit depth                      :  / 24 bits / 24 bits
    Compression mode               :  / Lossless / Lossy
    Stream size                    : 3.08 GiB (31%)
    Title                          : English DTS-7.1
    Language                       : English
    Default                        : Yes
    Forced                         : No

    Audio #2
    ID                             : 3
    Format                         : AC-3
    Format/Info                    : Audio Coding 3
    Mode extension                 : CM (complete main)
    Format settings, Endianness    : Big
    Codec ID                       : A_AC3
    Duration                       : 1h 53mn
    Bit rate mode                  : Constant
    Bit rate                       : 256 Kbps
    Channel(s)                     : 6 channels
    Channel positions              : Front: L C R, Side: L R, LFE
    Sampling rate                  : 48.0 KHz
    Frame rate                     : 31.250 fps (1536 spf)
    Compression mode               : Lossy
    Stream size                    : 209 MiB (2%)
    Title                          : English AC3
    Language                       : English
    Default                        : No
    Forced                         : No


    特效图.gif
    1.png

    2.png
    开启3D模式,字幕完美出屏........

    3.png


    4.png

    5.png


    说明:
    1.字幕来至“Sub”,在此感谢。
    2.字幕大致校对,没有发现问题。
    3.字幕做很少特效。
    4.默认DTS音轨,无法识别请更改AC3
    5.算是尝鲜版吧,没有做过多的字幕调整
    6.请大家期待“愤怒的小鸟”吧!
       国配,字幕特效均会体现,希望能做出收藏版的。
    有意加入压制“3D字幕”或者加入管理组的
    请加QQ群:490621552

    游客,如果您要查看本帖隐藏内容请回复



    评分

    参与人数 2威望 +5 e币 +60 贡献 +5 收起 理由
    小毛拧 + 10 辛苦辛苦!PS:百度下载不如360.
    xdwl + 5 + 50 + 5 谢谢您对3d一族的支持,3d一族有您更精彩!.

    查看全部评分

  • TA的每日心情
    开心
    2017-3-17 09:32
  • 签到天数: 1472 天

    [LV.10]以坛为家III

    发表于 2016-8-6 08:55:55 | 显示全部楼层
    謝謝樓主的分享

    评分

    参与人数 1e币 +20 收起 理由
    lsjsyp + 20 够快,感谢对论坛的支持

    查看全部评分

    回复 支持 反对

    使用道具 举报

  • TA的每日心情
    开心
    2016-8-6 09:21
  • 签到天数: 2 天

    [LV.1]初来乍到

    发表于 2016-8-6 09:22:15 | 显示全部楼层
    大家好,我来了
    回复 支持 反对

    使用道具 举报

  • TA的每日心情
    开心
    昨天 20:01
  • 签到天数: 1694 天

    [LV.Master]伴坛终老

    发表于 2016-8-6 09:27:49 | 显示全部楼层
    出来的好快呀!赞一个
    回复 支持 反对

    使用道具 举报

  • TA的每日心情
    难过
    2017-3-16 11:44
  • 签到天数: 173 天

    [LV.7]常住居民III

    发表于 2016-8-6 09:51:36 | 显示全部楼层
    xxfxxxx xxxx

    评分

    参与人数 1e币 -20 收起 理由
    lsjsyp -20 严查灌水,珍惜ID!

    查看全部评分

    回复 支持 反对

    使用道具 举报

  • TA的每日心情
    无聊
    2017-5-1 10:58
  • 签到天数: 1137 天

    [LV.10]以坛为家III

    发表于 2016-8-6 10:26:23 | 显示全部楼层
    多谢楼主,下来看看,,,,,
    回复 支持 反对

    使用道具 举报

  • TA的每日心情
    开心
    2017-3-9 17:01
  • 签到天数: 595 天

    [LV.9]以坛为家II

    发表于 2016-8-6 11:00:20 | 显示全部楼层
    哈哈 终于等到了
    回复 支持 反对

    使用道具 举报

  • TA的每日心情
    奋斗
    2017-10-21 06:12
  • 签到天数: 832 天

    [LV.10]以坛为家III

    发表于 2016-8-6 11:12:46 | 显示全部楼层
    多謝樓主的分享。
    回复 支持 反对

    使用道具 举报

  • TA的每日心情
    奋斗
    2017-8-4 22:06
  • 签到天数: 625 天

    [LV.9]以坛为家II

    发表于 2016-8-6 11:17:06 | 显示全部楼层
    谢谢分享,看看效果如何
    回复 支持 反对

    使用道具 举报

  • TA的每日心情
    开心
    4 小时前
  • 签到天数: 1400 天

    [LV.10]以坛为家III

    发表于 2016-8-6 12:32:49 | 显示全部楼层
    现在看看现在看看
    回复 支持 反对

    使用道具 举报

    您需要登录后才可以回帖 登录 | 立即注册

    本版积分规则

    免责申明|小黑屋|手机版|Archiver|网站地图| 3D一族论坛  

    Copyright © 2001-2015 Comsenz Inc.   All Rights Reserved.

    Powered by Discuz! X3.2( 沪ICP备14045620号-1 )

    快速回复 返回顶部 返回列表