请选择 进入手机版 | 继续访问电脑版
 找回密码

3D一族论坛

查看: 2919|回复: 157

[左右半宽] [更新权限][美国队长3:内战 2016 ][合成特效3D字幕][Captain.America.Civil.War.2016.2016.3D][1080p][英语/国语 DTS/AC3][H264 MKV][11.5G][百Du盘]

  [复制链接]
  • TA的每日心情
    擦汗
    2016-12-9 09:49
  • 签到天数: 318 天

    [LV.8]以坛为家III

    发表于 2016-9-8 12:02:10 | 显示全部楼层 |阅读模式
    本帖最后由 lsjsyp 于 2016-10-17 10:00 编辑



    ◎译  名 美国队长3/美国队长3:内战/美国队长3:英雄内战(港/台)/美队3
    ◎片  名 Captain America: Civil War
    ◎年  代 2016
    ◎国  家 美国
    ◎类  别 动作/科幻/冒险
    ◎语  言 科萨语/英语/德语/俄语/罗马尼亚语
    ◎上映日期 2016-05-06(中国大陆/美国)/2016-04-12(加州首映)
    ◎IMDb评分  8.2/10 from 281,695 users
    ◎IMDb链接  http://www.imdb.com/title/tt3498820/
    ◎豆瓣评分 7.8/10 from 159,662 users
    ◎豆瓣链接 https://movie.douban.com/subject/25820460/
    ◎片  长 148分钟(中国大陆)/147分钟
    ◎导  演 安东尼·卢素 Anthony Russo / 乔·卢素 Joe Russo
    ◎主  演 克里斯·埃文斯 Chris Evans
          小罗伯特·唐尼 Robert Downey Jr.
          斯嘉丽·约翰逊 Scarlett Johansson
          塞巴斯蒂安·斯坦 Sebastian Stan
          安东尼·麦凯 Anthony Mackie
          唐·钱德尔 Don Cheadle
          杰瑞米·雷纳 Jeremy Renner
          查德维克·博斯曼 Chadwick Boseman
          保罗·贝坦尼 Paul Bettany
          伊丽莎白·奥尔森 Elizabeth Olsen
          保罗·路德 Paul Rudd
          艾米丽·万凯普 Emily VanCamp
          汤姆·霍兰德 Tom Holland
          丹尼尔·布鲁赫 Daniel Brühl
          弗兰克·格里罗 Frank Grillo
          威廉·赫特 William Hurt
          马丁·弗瑞曼 Martin Freeman
          霍普·戴维斯 Hope Davis
          玛丽莎·托梅 Marisa Tomei
          吉姆·拉什 Jim Rash
          金世佳 Shijia Jin

    ◎简  介

      美国队长史蒂夫·罗杰斯(克里斯·埃文斯 Chris Evans 饰)带领着全新组建的复仇者联盟,继续维护世界和平。然而,一次执行任务时联盟成员不小心造成大量平民伤亡,从而激发政治压力,政府决定通过一套监管系统来管理和领导复仇者联盟。联盟内部因此分裂为两派:一方由史蒂夫· 罗杰斯领导,他主张维护成员自由,在免受政府干扰的情况下保护世界;另一方则追随托尼·斯塔克(小罗伯特·唐尼 Robert Downey Jr. 饰),他令人意外地决定支持政府的监管和责任制体系。神秘莫测的巴基(塞巴斯蒂安·斯坦 Sebastian Stan 饰)似乎成为内战的关键人物……
    General
    Unique ID                      : 230500435814237244752867315244076480983 (0xAD68C4E734409A3DA40E198CEAB5B9D7)
    Complete name                  : G:\3D电影\[LYP]Captain.America.Civil.War.2016.3D.1080p.BluRay.DTS.2Audio.x264.mkv
    Format                         : Matroska
    Format version                 : Version 2
    File size                      : 11.5 GiB
    Duration                       : 2h 27mn
    Overall bit rate               : 11.2 Mbps
    Encoded date                   : UTC 2016-09-07 14:56:55
    Writing application            : mkvmerge v4.3.0 ('Escape from the Island') 编译于 Sep  5 2010 10:30:51
    Writing library                : ShanaEncoder

    Video
    ID                             : 1
    Format                         : AVC
    Format/Info                    : Advanced Video Codec
    Format profile                 : Baseline@L4.0
    Format settings, CABAC         : No
    Format settings, ReFrames      : 3 frames
    Muxing mode                    : Header stripping
    Codec ID                       : V_MPEG4/ISO/AVC
    Duration                       : 2h 27mn
    Bit rate                       : 9 262 Kbps
    Width                          : 1 920 pixels
    Height                         : 1 080 pixels
    Display aspect ratio           : 16:9
    Frame rate mode                : Constant
    Frame rate                     : 23.976 fps
    Color space                    : YUV
    Chroma subsampling             : 4:2:0
    Bit depth                      : 8 bits
    Scan type                      : Progressive
    Bits/(Pixel*Frame)             : 0.186
    Stream size                    : 9.56 GiB (83%)
    Writing library                : x264 core 148
    Encoding settings              : opencl=1 / cabac=0 / ref=3 / deblock=1:0:0 / analyse=0x1:0x111 / me=hex / subme=7 / psy=1 / psy_rd=1.00:0.00 / mixed_ref=1 / me_range=16 / chroma_me=1 / trellis=1 / 8x8dct=0 / cqm=0 / deadzone=21,11 / fast_pskip=1 / chroma_qp_offset=-2 / threads=12 / lookahead_threads=2 / sliced_threads=0 / nr=0 / decimate=1 / interlaced=0 / bluray_compat=0 / constrained_intra=0 / bframes=0 / weightp=0 / keyint=250 / keyint_min=23 / scenecut=40 / intra_refresh=0 / rc_lookahead=40 / rc=crf / mbtree=1 / crf=16.0 / qcomp=0.60 / qpmin=0 / qpmax=69 / qpstep=4 / ip_ratio=1.40 / aq=1:1.00
    Default                        : Yes
    Forced                         : No
    DURATION                       : 02:27:41.978000000

    Audio #1
    ID                             : 2
    Format                         : AC-3
    Format/Info                    : Audio Coding 3
    Mode extension                 : CM (complete main)
    Format settings, Endianness    : Big
    Muxing mode                    : Header stripping
    Codec ID                       : A_AC3
    Duration                       : 2h 27mn
    Bit rate mode                  : Constant
    Bit rate                       : 192 Kbps
    Channel(s)                     : 2 channels
    Channel positions              : Front: L R
    Sampling rate                  : 48.0 KHz
    Bit depth                      : 16 bits
    Compression mode               : Lossy
    Stream size                    : 203 MiB (2%)
    Title                          : 国语 AC3
    Language                       : Chinese
    Default                        : Yes
    Forced                         : No
    DURATION                       : 02:27:41.940000000

    Audio #2
    ID                             : 3
    Format                         : DTS
    Format/Info                    : Digital Theater Systems
    Mode                           : 16
    Format settings, Endianness    : Big
    Muxing mode                    : Header stripping
    Codec ID                       : A_DTS
    Duration                       : 2h 27mn
    Bit rate mode                  : Constant
    Bit rate                       : 1 509 Kbps
    Channel(s)                     : 6 channels
    Channel positions              : Front: L C R, Side: L R, LFE
    Sampling rate                  : 48.0 KHz
    Bit depth                      : 24 bits
    Compression mode               : Lossy
    Delay relative to video        : 10ms
    Stream size                    : 1.56 GiB (13%)
    Title                          : 英语 DTS
    Language                       : English
    Default                        : No
    Forced                         : No







    开启3D模式,字幕完美出屏
    1.png

    2.png

    3.png




    说 明:
    1.精校字幕,并制作3D特效字幕
    2.字幕完美匹配国语音轨
       字幕来源“第三楼”在此感谢
    3.第一次把字幕做黑边内,不知道效果咋样
    4.下载权限“VIP”以上,二天后下调权限为“敬畏的寂寞”
        即2016-9-6  15:00时截至.
     PS:截至那天刚好是教师节,说不定免权限到18:00时哦
    5.关于权限,算是特色字幕,故而调高,优先“VIP”下载
       
    6.权限调整,至于什么权限能下载,请自己确认。随时可能提高权限
       附上MD5值(MD5: E1B5AAD64E6586DEED24E9F624965FDB)
       上传中死机两次,以防万一。

    请点击此处下载

    请先注册会员后在进行下载

    已注册会员,请先登录后下载

    文件名称: 下载地址-16.10.17更新.rar 
    下载次数:1221 文件大小:222 Bytes  售价 : 18 e币 [免费赚e币]
    下载权限: 90以上或 [VIP会员]   [购买VIP]   [会员等级]  [e币兑钻石]


    密码你懂得
    游客,如果您要查看本帖隐藏内容请回复









    评分

    参与人数 1威望 +5 e币 +20 贡献 +5 收起 理由
    天然竹牙签 + 5 + 20 + 5 谢谢您对3d一族的支持,3d一族有您更精彩!.

    查看全部评分

  • TA的每日心情

    2017-1-29 19:28
  • 签到天数: 433 天

    [LV.9]以坛为家II

    发表于 2016-9-8 20:08:01 | 显示全部楼层
    谢谢楼主分享!~~~~~
    回复 支持 1 反对 0

    使用道具 举报

  • TA的每日心情
    开心
    3 小时前
  • 签到天数: 279 天

    [LV.8]以坛为家III

    发表于 2016-9-8 15:30:07 | 显示全部楼层
    能不能不要发百度盘,其他什么都可以,百度太坑。

    点评

    那你说发什么呢?360?不能超过10G,迅雷死了,115不能分享  发表于 2016-9-8 15:57
    回复 支持 反对

    使用道具 举报

  • TA的每日心情
    无聊
    昨天 20:53
  • 签到天数: 1232 天

    [LV.10]以坛为家III

    发表于 2016-9-8 16:23:27 | 显示全部楼层
    多谢分享!!!!!
    回复 支持 反对

    使用道具 举报

  • TA的每日心情
    擦汗
    4 小时前
  • 签到天数: 729 天

    [LV.9]以坛为家II

    发表于 2016-9-8 17:30:02 | 显示全部楼层
    多谢楼主的分享。
    回复 支持 反对

    使用道具 举报

  • TA的每日心情
    擦汗
    3 小时前
  • 签到天数: 982 天

    [LV.10]以坛为家III

    发表于 2016-9-8 17:37:30 | 显示全部楼层
    支持楼主一下
    回复 支持 反对

    使用道具 举报

  • TA的每日心情
    开心
    前天 18:38
  • 签到天数: 1009 天

    [LV.10]以坛为家III

    发表于 2016-9-8 18:29:03 | 显示全部楼层
    谢谢楼主分享
    回复 支持 反对

    使用道具 举报

  • TA的每日心情
    郁闷
    前天 15:56
  • 签到天数: 850 天

    [LV.10]以坛为家III

    发表于 2016-9-8 18:31:53 | 显示全部楼层
    thanks a lot !!!
    回复 支持 反对

    使用道具 举报

  • TA的每日心情
    奋斗
    2017-4-30 16:14
  • 签到天数: 491 天

    [LV.9]以坛为家II

    发表于 2016-9-8 19:14:04 | 显示全部楼层
    多谢楼主的分享!
    回复 支持 反对

    使用道具 举报

  • TA的每日心情
    奋斗
    昨天 17:45
  • 签到天数: 1314 天

    [LV.10]以坛为家III

    发表于 2016-9-8 19:21:30 | 显示全部楼层
    非常感谢楼主分享
    回复 支持 反对

    使用道具 举报

    您需要登录后才可以回帖 登录 | 立即注册

    本版积分规则

    免责申明|小黑屋|手机版|Archiver|网站地图| 3D一族论坛  

    Copyright © 2001-2015 Comsenz Inc.   All Rights Reserved.

    Powered by Discuz! X3.2( 沪ICP备14045620号-1 )

    快速回复 返回顶部 返回列表