请选择 进入手机版 | 继续访问电脑版
 找回密码

3D一族论坛

查看: 2117|回复: 138

[1080P] [泰山归来:险战丛林 The.Legend.of.Tarzan.2016.720p/1080p.BluRay.x264-SPARKS][MKV 4.37G/7.64G][BT]

  [复制链接]
  • TA的每日心情
    开心
    2017-7-20 15:33
  • 签到天数: 1638 天

    [LV.Master]伴坛终老

    发表于 2016-9-22 19:31:55 | 显示全部楼层 |阅读模式
    160148_front.jpg


    ◎译  名 泰山归来:险战丛林/新人猿泰山/泰山归来:人猿大战/泰山传奇:森林争霸/泰山传奇

    ◎片  名 The Legend of Tarzan
    ◎年  代 2016
    ◎国  家 美国/英国/加拿大
    ◎类  别 动作/冒险
    ◎语  言 英语
    ◎上映日期 2016-07-01(美国)/2016-07-19(中国大陆)
    ◎IMDb评分  6.5/10 from 58,041 users
    ◎IMDb链接  http://www.imdb.com/title/tt0918940/
    ◎豆瓣评分 6.1/10 from 20,220 users
    ◎豆瓣链接 https://movie.douban.com/subject/2131669/
    ◎片  长 110分钟
    ◎导  演 大卫·叶茨 David Yates
    ◎主  演 亚历山大·斯卡斯加德 Alexander Skarsg?rd
          玛格特·罗比 Margot Robbie
          塞缪尔·杰克逊 Samuel L. Jackson
          克里斯托弗·沃尔兹 Christoph Waltz
          杰曼·翰苏 Djimon Hounsou
          约翰·赫特 John Hurt
          艾拉·珀内尔 Ella Purnell
          西蒙·拉塞尔·比尔 Simon Russell Beale
          宾利·卡鲁 Bentley Kalu
          特蕾莎·邱吉尔 Teresa Churcher
          卡利·内勒 Cali Nelle

    ◎简  介

      故事发生在十九世纪八十年代,自小生长在丛林之中的泰山(亚历山大·斯卡斯加德 Alexander Skarsg?rd 饰)早已经离开了刚果,回归了人类社会。他同心爱的珍(玛歌特·罗比 Margot Robbie 饰)结婚成家,在英国伦敦过着幸福美满的生活。
      某日,被委任为商务密使的泰山回到了他的老家——刚果丛林,然而,此时的他并不知道,自己在一开始,就落入了邪恶而又狡猾的比利时军官罗姆(克里斯托弗·瓦尔兹 Christoph Waltz 饰)一手策划的阴谋之中。如此一来,不仅仅是泰山,就连珍和他的朋友们亦身处危险之中,泰山能否找回曾经矫健的身手和肆意的野性,将企图伤害他至爱之人的敌人们消灭殆尽呢?


    Video
    ID                                       : 1
    Format                                   : AVC
    Format/Info                              : Advanced Video Codec
    Format profile                           : High@L4.1
    Format settings, CABAC                   : Yes
    Format settings, ReFrames                : 5 frames
    Codec ID                                 : V_MPEG4/ISO/AVC
    Duration                                 : 1h 49mn
    Bit rate                                 : 5 048 Kbps
    Width                                    : 1 280 pixels
    Height                                   : 536 pixels
    Display aspect ratio                     : 2.40:1
    Frame rate mode                          : Constant
    Frame rate                               : 23.976 fps
    Color space                              : YUV
    Chroma subsampling                       : 4:2:0
    Bit depth                                : 8 bits
    Scan type                                : Progressive
    Bits/(Pixel*Frame)                       : 0.307
    Stream size                              : 3.88 GiB (89%)
    Writing library                          : x264 core 148 r2692 64f4e24
    Encoding settings                        : cabac=1 / ref=5 / deblock=1:0:0 / analyse=0x3:0x133 / me=umh / subme=7 / psy=1 / psy_rd=1.00:0.00 / mixed_ref=1 / me_range=16 / chroma_me=1 / trellis=1 / 8x8dct=1 / cqm=0 / deadzone=21,11 / fast_pskip=0 / chroma_qp_offset=-2 / threads=12 / lookahead_threads=2 / sliced_threads=0 / nr=0 / decimate=1 / interlaced=0 / bluray_compat=0 / constrained_intra=0 / bframes=3 / b_pyramid=2 / b_adapt=1 / b_bias=0 / direct=1 / weightb=1 / open_gop=0 / weightp=2 / keyint=250 / keyint_min=23 / scenecut=40 / intra_refresh=0 / rc_lookahead=40 / rc=2pass / mbtree=1 / bitrate=5048 / ratetol=1.0 / qcomp=0.60 / qpmin=0 / qpmax=69 / qpstep=4 / cplxblur=20.0 / qblur=0.5 / ip_ratio=1.40 / aq=1:1.00
    Language                                 : English
    Default                                  : Yes
    Forced                                   : No

    Audio
    ID                                       : 2
    Format                                   : AC-3
    Format/Info                              : Audio Coding 3
    Mode extension                           : CM (complete main)
    Format settings, Endianness              : Big
    Codec ID                                 : A_AC3
    Duration                                 : 1h 49mn
    Bit rate mode                            : Constant
    Bit rate                                 : 640 Kbps
    Channel(s)                               : 6 channels
    Channel positions                        : Front: L C R, Side: L R, LFE
    Sampling rate                            : 48.0 KHz
    Frame rate                               : 31.250 fps (1536 spf)
    Compression mode                         : Lossy
    Stream size                              : 503 MiB (11%)
    Language                                 : English
    Default                                  : Yes
    Forced                                   : No



    05298391931260601669_thumb.jpg


    游客,如果您要查看本帖隐藏内容请回复




    Video
    ID                                       : 1
    Format                                   : AVC
    Format/Info                              : Advanced Video Codec
    Format profile                           : High@L4.1
    Format settings, CABAC                   : Yes
    Format settings, ReFrames                : 5 frames
    Codec ID                                 : V_MPEG4/ISO/AVC
    Duration                                 : 1h 49mn
    Bit rate                                 : 9 320 Kbps
    Width                                    : 1 920 pixels
    Height                                   : 800 pixels
    Display aspect ratio                     : 2.40:1
    Frame rate mode                          : Constant
    Frame rate                               : 23.976 fps
    Color space                              : YUV
    Chroma subsampling                       : 4:2:0
    Bit depth                                : 8 bits
    Scan type                                : Progressive
    Bits/(Pixel*Frame)                       : 0.253
    Stream size                              : 7.15 GiB (94%)
    Writing library                          : x264 core 148 r2692 64f4e24
    Encoding settings                        : cabac=1 / ref=5 / deblock=1:0:0 / analyse=0x3:0x133 / me=umh / subme=7 / psy=1 / psy_rd=1.00:0.00 / mixed_ref=1 / me_range=16 / chroma_me=1 / trellis=1 / 8x8dct=1 / cqm=0 / deadzone=21,11 / fast_pskip=0 / chroma_qp_offset=-2 / threads=12 / lookahead_threads=2 / sliced_threads=0 / nr=0 / decimate=1 / interlaced=0 / bluray_compat=0 / constrained_intra=0 / bframes=3 / b_pyramid=2 / b_adapt=1 / b_bias=0 / direct=1 / weightb=1 / open_gop=0 / weightp=2 / keyint=250 / keyint_min=23 / scenecut=40 / intra_refresh=0 / rc_lookahead=40 / rc=2pass / mbtree=1 / bitrate=9320 / ratetol=1.0 / qcomp=0.60 / qpmin=0 / qpmax=69 / qpstep=4 / cplxblur=20.0 / qblur=0.5 / ip_ratio=1.40 / aq=1:1.00
    Language                                 : English
    Default                                  : Yes
    Forced                                   : No

    Audio
    ID                                       : 2
    Format                                   : AC-3
    Format/Info                              : Audio Coding 3
    Mode extension                           : CM (complete main)
    Format settings, Endianness              : Big
    Codec ID                                 : A_AC3
    Duration                                 : 1h 49mn
    Bit rate mode                            : Constant
    Bit rate                                 : 640 Kbps
    Channel(s)                               : 6 channels
    Channel positions                        : Front: L C R, Side: L R, LFE
    Sampling rate                            : 48.0 KHz
    Frame rate                               : 31.250 fps (1536 spf)
    Compression mode                         : Lossy
    Stream size                              : 503 MiB (6%)
    Language                                 : English
    Default                                  : Yes
    Forced                                   : No





    05298391931260601669_thumb.jpg

    游客,如果您要查看本帖隐藏内容请回复

  • TA的每日心情
    开心
    2017-3-6 21:24
  • 签到天数: 405 天

    [LV.9]以坛为家II

    发表于 2016-9-22 19:41:37 | 显示全部楼层
    哥们!没分享字幕啊
    回复 支持 反对

    使用道具 举报

  • TA的每日心情
    奋斗
    2017-5-17 20:08
  • 签到天数: 102 天

    [LV.6]常住居民II

    发表于 2016-9-22 19:47:55 | 显示全部楼层
    感谢分享
    回复 支持 反对

    使用道具 举报

  • TA的每日心情
    开心
    2017-3-17 20:12
  • 签到天数: 808 天

    [LV.10]以坛为家III

    发表于 2016-9-22 20:05:34 | 显示全部楼层
    下来看看,谢谢楼主分享。
    回复 支持 反对

    使用道具 举报

  • TA的每日心情
    开心
    2017-3-17 12:50
  • 签到天数: 115 天

    [LV.6]常住居民II

    发表于 2016-9-22 20:13:29 | 显示全部楼层
    感谢分享
    回复 支持 反对

    使用道具 举报

  • TA的每日心情
    开心
    2017-3-17 12:50
  • 签到天数: 115 天

    [LV.6]常住居民II

    发表于 2016-9-22 20:14:11 | 显示全部楼层
    感谢分享
    回复 支持 反对

    使用道具 举报

  • TA的每日心情
    郁闷
    2017-5-23 11:07
  • 签到天数: 696 天

    [LV.9]以坛为家II

    发表于 2016-9-22 20:42:33 | 显示全部楼层
    这东西找了好久勒,谢谢!!
    回复 支持 反对

    使用道具 举报

  • TA的每日心情
    开心
    2017-2-17 17:44
  • 签到天数: 70 天

    [LV.6]常住居民II

    发表于 2016-9-22 20:55:28 | 显示全部楼层
    感谢分享……
    回复 支持 反对

    使用道具 举报

  • TA的每日心情
    奋斗
    昨天 20:04
  • 签到天数: 452 天

    [LV.9]以坛为家II

    发表于 2016-9-22 21:10:55 | 显示全部楼层
    感谢楼主无私分享~
    回复 支持 反对

    使用道具 举报

  • TA的每日心情
    开心
    2017-3-9 17:01
  • 签到天数: 595 天

    [LV.9]以坛为家II

    发表于 2016-9-22 21:37:00 | 显示全部楼层
    等到了 哈哈下载看看
    回复 支持 反对

    使用道具 举报

    高级模式
    B Color Image Link Quote Code Smilies

    本版积分规则

    免责申明|小黑屋|手机版|Archiver|网站地图| 3D一族论坛  

    Copyright © 2001-2015 Comsenz Inc.   All Rights Reserved.

    Powered by Discuz! X3.2( 沪ICP备14045620号-1 )

    快速回复 返回顶部 返回列表