请选择 进入手机版 | 继续访问电脑版
 找回密码

3D一族论坛

查看: 1205|回复: 66

[1080P] [爱丽丝梦游仙境2:镜中奇遇记 Alice.Through.the.Looking.Glass.2016.720p/1080p.BluRay.x264-VETO][MKV 4.37G/7.65G][BT]

[复制链接]
  • TA的每日心情
    开心
    2017-5-18 15:17
  • 签到天数: 1636 天

    [LV.Master]伴坛终老

    发表于 2016-9-28 16:02:50 | 显示全部楼层 |阅读模式
    p2356532357.jpg


    ◎译  名 爱丽丝梦游仙境2:镜中奇遇记/爱丽丝镜中奇遇记/魔镜梦游:时光怪客
    ◎片  名 Alice Through the Looking Glass
    ◎年  代 2016
    ◎国  家 美国
    ◎类  别 冒险/家庭/奇幻
    ◎语  言 英语
    ◎字  幕 N/A
    ◎IMDb评分  6.4/10 from 22840 users
    ◎IMDB链接 http://www.imdb.com/title/tt2567026/
    ◎片  长 1h53m33sec
    ◎导  演 詹姆斯·波宾 James Bobin
    ◎主  演 米娅·华希科沃斯卡 Mia Wasikowska ...爱丽丝 Alice Kingsleigh
          约翰尼·德普 Johnny Depp ...疯帽子 Hatter Tarrant Hightopp
          海伦娜·伯翰·卡特 Helena Bonham Carter ...红皇后 Iracebeth
          安妮·海瑟薇 Anne Hathaway ...白皇后 Mirana
          萨莎·拜伦·科恩 Sacha Baron Cohen ...时间 Time
          琳赛·邓肯 Lindsay Duncan ...爱丽丝之母 Helen Kingsleigh
          瑞斯·伊凡斯 Rhys Ifans ...疯帽子之父 Zanik Hightopp
          爱德华·斯派勒斯 Edward Speleers ...詹姆斯·哈德考特 James Harcourt




    ◎简  介


      爱丽丝(米娅·华希科沃斯卡 饰)在过去的几年里跟随父亲去海上航行,返回伦敦后她遇到了一面神奇的镜子,穿过镜子她再一次回到了奇幻仙境,并且遇到了昔日的朋友白兔、毛毛虫、疯帽匠(约翰尼·德普 饰)等,但此时疯帽匠已不是原来的他了,白皇后(安妮·海瑟薇 饰)帮助爱丽丝通过大时钟内部的时空传送仪回到过去,在不同的点她遇到了之前的朋友和敌人,在那里她必须与时间对抗,在时间耗尽之前拯救疯帽匠。而此前海报中每位主演手中都有的闪闪发光的神秘球体便是帮助爱丽丝回到过去的关键所在。

    花絮

    .本片是英国男星,“哈波”系列中敬爱的斯内普教授艾伦·里克曼(1946-2016)遗作之一(另一部是早于本片上映的《天眼行动》)。

    .艾伦·里克曼在2010年首部曲《爱丽丝漫游奇境》中配音的角色的是一只“毛虫”,到在这部续集中已经破茧成了“蝴蝶”。

    .《爱丽丝漫游奇境》(2010)首部的主演阵容回归,然而导演从蒂姆·伯顿变成了詹姆斯·波宾(《布偶大电影》),波顿担任了续集的制片人。

    .萨莎·拜伦·科恩饰演的“时间”是续集中全新加入的角色,他此前曾经出演过蒂姆·伯顿执导的《理发师陶德》。瑞斯·伊凡斯饰演的“疯帽子之父”Zanik Hightopp,这也是续集中新加入的角色。

    .2014年8月影片在Gloucester Docks(格洛斯特船坞,曾是英国最大的内陆港口)拍摄,动用了Kathleen and May、Irene、Excelsior以及the Earl of Pembroke四艘有着悠久历史的古老帆船。

    .本片中6位主要演员都曾出演过《哈利波特》系列影片,分别是海伦娜·伯翰·卡特、艾伦·里克曼、蒂莫西·斯波、弗朗西斯·德·拉·图瓦、瑞斯·伊凡斯以及托比·琼斯。





    Video
    ID                                       : 1
    Format                                   : AVC
    Format/Info                              : Advanced Video Codec
    Format profile                           : High@L4.1
    Format settings, CABAC                   : Yes
    Format settings, ReFrames                : 5 frames
    Codec ID                                 : V_MPEG4/ISO/AVC
    Duration                                 : 1h 52mn
    Bit rate                                 : 4 022 Kbps
    Width                                    : 1 280 pixels
    Height                                   : 688 pixels
    Display aspect ratio                     : 1.85:1
    Frame rate mode                          : Constant
    Frame rate                               : 23.976 (24000/1001) fps
    Color space                              : YUV
    Chroma subsampling                       : 4:2:0
    Bit depth                                : 8 bits
    Scan type                                : Progressive
    Bits/(Pixel*Frame)                       : 0.190
    Stream size                              : 3.17 GiB (73%)
    Writing library                          : x264 core 148 r2705 3f5ed56
    Encoding settings                        : cabac=1 / ref=5 / deblock=1:-1:-1 / analyse=0x3:0x133 / me=umh / subme=8 / psy=1 / psy_rd=1.00:0.15 / mixed_ref=1 / me_range=16 / chroma_me=1 / trellis=1 / 8x8dct=1 / cqm=0 / deadzone=21,11 / fast_pskip=0 / chroma_qp_offset=-4 / threads=18 / lookahead_threads=3 / sliced_threads=0 / nr=0 / decimate=1 / interlaced=0 / bluray_compat=0 / constrained_intra=0 / bframes=3 / b_pyramid=2 / b_adapt=2 / b_bias=0 / direct=3 / weightb=1 / open_gop=0 / weightp=2 / keyint=240 / keyint_min=23 / scenecut=40 / intra_refresh=0 / rc_lookahead=50 / rc=2pass / mbtree=1 / bitrate=4022 / ratetol=1.0 / qcomp=0.60 / qpmin=10 / qpmax=69 / qpstep=4 / cplxblur=20.0 / qblur=0.5 / ip_ratio=1.40 / aq=1:1.00
    Language                                 : English
    Default                                  : Yes
    Forced                                   : No

    Audio
    ID                                       : 2
    Format                                   : DTS
    Format/Info                              : Digital Theater Systems
    Mode                                     : 16
    Format settings, Endianness              : Big
    Codec ID                                 : A_DTS
    Duration                                 : 1h 52mn
    Bit rate mode                            : Constant
    Bit rate                                 : 1 509 Kbps
    Channel(s)                               : 6 channels
    Channel positions                        : Front: L C R, Side: L R, LFE
    Sampling rate                            : 48.0 KHz
    Frame rate                               : 93.750 fps (512 spf)
    Bit depth                                : 24 bits
    Compression mode                         : Lossy
    Stream size                              : 1.19 GiB (27%)
    Language                                 : English
    Default                                  : Yes
    Forced                                   : No

    Text
    ID                                       : 3
    Format                                   : UTF-8
    Codec ID                                 : S_TEXT/UTF8
    Codec ID/Info                            : UTF-8 Plain Text
    Duration                                 : 3s 3ms
    Bit rate                                 : 98 bps
    Count of elements                        : 2
    Stream size                              : 37.0 Bytes (0%)
    Title                                    : English Forcedyes
    Language                                 : English
    Default                                  : Yes
    Forced                                   : Yes


    50867779097398588581_thumb.jpg


    游客,如果您要查看本帖隐藏内容请回复






    Video
    ID                                       : 1
    Format                                   : AVC
    Format/Info                              : Advanced Video Codec
    Format profile                           : High@L4.1
    Format settings, CABAC                   : Yes
    Format settings, ReFrames                : 4 frames
    Codec ID                                 : V_MPEG4/ISO/AVC
    Duration                                 : 1h 52mn
    Bit rate                                 : 8 183 Kbps
    Width                                    : 1 920 pixels
    Height                                   : 1 040 pixels
    Display aspect ratio                     : 1.85:1
    Frame rate mode                          : Constant
    Frame rate                               : 23.976 (24000/1001) fps
    Color space                              : YUV
    Chroma subsampling                       : 4:2:0
    Bit depth                                : 8 bits
    Scan type                                : Progressive
    Bits/(Pixel*Frame)                       : 0.171
    Stream size                              : 6.46 GiB (84%)
    Writing library                          : x264 core 148 r2705 3f5ed56
    Encoding settings                        : cabac=1 / ref=4 / deblock=1:-1:-1 / analyse=0x3:0x133 / me=umh / subme=8 / psy=1 / psy_rd=1.00:0.15 / mixed_ref=1 / me_range=16 / chroma_me=1 / trellis=1 / 8x8dct=1 / cqm=0 / deadzone=21,11 / fast_pskip=0 / chroma_qp_offset=-4 / threads=24 / lookahead_threads=4 / sliced_threads=0 / nr=0 / decimate=1 / interlaced=0 / bluray_compat=0 / constrained_intra=0 / bframes=3 / b_pyramid=2 / b_adapt=2 / b_bias=0 / direct=3 / weightb=1 / open_gop=0 / weightp=2 / keyint=240 / keyint_min=23 / scenecut=40 / intra_refresh=0 / rc_lookahead=50 / rc=2pass / mbtree=1 / bitrate=8183 / ratetol=1.0 / qcomp=0.60 / qpmin=10 / qpmax=69 / qpstep=4 / cplxblur=20.0 / qblur=0.5 / ip_ratio=1.40 / aq=1:1.00
    Language                                 : English
    Default                                  : Yes
    Forced                                   : No

    Audio
    ID                                       : 2
    Format                                   : DTS
    Format/Info                              : Digital Theater Systems
    Mode                                     : 16
    Format settings, Endianness              : Big
    Codec ID                                 : A_DTS
    Duration                                 : 1h 52mn
    Bit rate mode                            : Constant
    Bit rate                                 : 1 509 Kbps
    Channel(s)                               : 6 channels
    Channel positions                        : Front: L C R, Side: L R, LFE
    Sampling rate                            : 48.0 KHz
    Frame rate                               : 93.750 fps (512 spf)
    Bit depth                                : 24 bits
    Compression mode                         : Lossy
    Stream size                              : 1.19 GiB (16%)
    Language                                 : English
    Default                                  : Yes
    Forced                                   : No

    Text
    ID                                       : 3
    Format                                   : UTF-8
    Codec ID                                 : S_TEXT/UTF8
    Codec ID/Info                            : UTF-8 Plain Text
    Duration                                 : 3s 3ms
    Bit rate                                 : 98 bps
    Count of elements                        : 2
    Stream size                              : 37.0 Bytes (0%)
    Title                                    : English Forcedyes
    Language                                 : English
    Default                                  : Yes
    Forced                                   : Yes







    50867779097398588581_thumb.jpg




    游客,如果您要查看本帖隐藏内容请回复

  • TA的每日心情
    开心
    2017-1-16 16:50
  • 签到天数: 493 天

    [LV.9]以坛为家II

    发表于 2016-9-28 16:41:35 | 显示全部楼层
    是高清吗?
    回复 支持 反对

    使用道具 举报

  • TA的每日心情
    开心
    2016-12-10 17:05
  • 签到天数: 529 天

    [LV.9]以坛为家II

    发表于 2016-9-28 18:21:34 | 显示全部楼层
    这么久,终于等到了,哈哈哈
    回复 支持 反对

    使用道具 举报

  • TA的每日心情
    慵懒
    2017-3-6 20:29
  • 签到天数: 339 天

    [LV.8]以坛为家III

    发表于 2016-9-28 18:46:55 | 显示全部楼层
    感谢分享!!
    回复 支持 反对

    使用道具 举报

  • TA的每日心情
    擦汗
    昨天 09:09
  • 签到天数: 378 天

    [LV.9]以坛为家II

    发表于 2016-9-28 19:05:08 | 显示全部楼层
    这个不大不小正好不合适
    回复 支持 反对

    使用道具 举报

  • TA的每日心情
    擦汗
    昨天 09:09
  • 签到天数: 378 天

    [LV.9]以坛为家II

    发表于 2016-9-28 19:06:08 | 显示全部楼层
    3个币,谢谢了
    回复 支持 反对

    使用道具 举报

  • TA的每日心情

    昨天 18:49
  • 签到天数: 396 天

    [LV.9]以坛为家II

    发表于 2016-9-28 20:10:42 | 显示全部楼层
    感谢楼主放出电影共享
    回复 支持 反对

    使用道具 举报

  • TA的每日心情
    郁闷
    2016-11-10 22:19
  • 签到天数: 153 天

    [LV.7]常住居民III

    发表于 2016-9-28 21:49:03 | 显示全部楼层
    终于出来啦
    回复 支持 反对

    使用道具 举报

  • TA的每日心情
    开心
    2017-3-17 20:12
  • 签到天数: 808 天

    [LV.10]以坛为家III

    发表于 2016-9-28 22:07:25 | 显示全部楼层
    下来看看,谢谢分享。
    回复 支持 反对

    使用道具 举报

  • TA的每日心情
    慵懒
    昨天 23:20
  • 签到天数: 955 天

    [LV.10]以坛为家III

    发表于 2016-9-28 23:35:52 | 显示全部楼层
    感谢分享
    回复 支持 反对

    使用道具 举报

    高级模式
    B Color Image Link Quote Code Smilies

    本版积分规则

    免责申明|小黑屋|手机版|Archiver|网站地图| 3D一族论坛  

    Copyright © 2001-2015 Comsenz Inc.   All Rights Reserved.

    Powered by Discuz! X3.2( 沪ICP备14045620号-1 )

    快速回复 返回顶部 返回列表