请选择 进入手机版 | 继续访问电脑版
 找回密码

3D一族论坛

查看: 8660|回复: 884

[左右] [爱丽丝梦游仙境2:镜中奇遇记3D Alice.Through.the.Looking.Glass.2016.3D][1080p][MKV 17.85G/18.22G/7.95G][BT][国语中字]

  [复制链接]
  • TA的每日心情
    开心
    2017-10-30 14:49
  • 签到天数: 1666 天

    [LV.Master]伴坛终老

    发表于 2016-9-29 10:45:08 | 显示全部楼层 |阅读模式
    影片截图:

    data/attachment/forum/201609/29/103530at3hotjcr3yjhjll.jpg

         
      片        名: Alice.Through.the.Looking.Glass.2016.3D
      译        名: 爱丽丝梦游仙境2:镜中奇遇记3D/爱丽丝镜中奇遇记/魔镜梦游:时光怪客
      类        别: 动作 科幻 冒险 
      国        家: 欧美
      语        言: 国语
      字        幕: 中文字幕
      集        数:
      文件格式: MKV
      视频尺寸: 1920*1080
      文件大小: 17.85GB/18.22GB/7.95GB
      上映时间: 2016-04-22(中国大陆/美国)
      影片导演: 詹姆斯·波宾 James Bobin
      主要演员: 米娅·华希科沃斯卡 Mia Wasikowska ...爱丽丝 Alice Kingsleigh
        约翰尼·德普 Johnny Depp ...疯帽子 Hatter Tarrant Hightopp
        海伦娜·伯翰·卡特 Helena Bonham Carter ...红皇后 Iracebeth
      推荐等级: ★★★★★
         
    下载地址:
    [下载方式]: bt下载
    [分辨率]: 1080p
    [迅雷地址]:
    [网盘下载]:
    影片简介: fangfang
    爱丽丝(米娅·华希科沃斯卡 饰)在过去的几年里跟随父亲去海上航行,返回伦敦后她遇到了一面神奇的镜子,穿过镜子她再一次回到了奇幻仙境,并且遇到了昔日的朋友白兔、毛毛虫、疯帽匠(约翰尼·德普 饰)等,但此时疯帽匠已不是原来的他了,白皇后(安妮·海瑟薇 饰)帮助爱丽丝通过大时钟内部的时空传送仪回到过去,在不同的点她遇到了之前的朋友和敌人,在那里她必须与时间对抗,在时间耗尽之前拯救疯帽匠。而此前海报中每位主演手中都有的闪闪发光的神秘球体便是帮助爱丽丝回到过去的关键所在。
    本帖最后由 xdwl 于 2016-9-30 09:28 编辑

    p2356532357.jpg


    ◎译  名 爱丽丝梦游仙境2:镜中奇遇记/爱丽丝镜中奇遇记/魔镜梦游:时光怪客
    ◎片  名 Alice Through the Looking Glass
    ◎年  代 2016
    ◎国  家 美国
    ◎类  别 冒险/家庭/奇幻
    ◎语  言 国语/英语
    ◎字  幕 简繁字幕
    ◎IMDb评分  6.4/10 from 22840 users
    ◎IMDB链接 http://www.imdb.com/title/tt2567026/
    ◎片  长 1h53m33sec
    ◎导  演 詹姆斯·波宾 James Bobin
    ◎主  演 米娅·华希科沃斯卡 Mia Wasikowska ...爱丽丝 Alice Kingsleigh
          约翰尼·德普 Johnny Depp ...疯帽子 Hatter Tarrant Hightopp
          海伦娜·伯翰·卡特 Helena Bonham Carter ...红皇后 Iracebeth
          安妮·海瑟薇 Anne Hathaway ...白皇后 Mirana
          萨莎·拜伦·科恩 Sacha Baron Cohen ...时间 Time
          琳赛·邓肯 Lindsay Duncan ...爱丽丝之母 Helen Kingsleigh
          瑞斯·伊凡斯 Rhys Ifans ...疯帽子之父 Zanik Hightopp
          爱德华·斯派勒斯 Edward Speleers ...詹姆斯·哈德考特 James Harcourt




    ◎简  介


      爱丽丝(米娅·华希科沃斯卡 饰)在过去的几年里跟随父亲去海上航行,返回伦敦后她遇到了一面神奇的镜子,穿过镜子她再一次回到了奇幻仙境,并且遇到了昔日的朋友白兔、毛毛虫、疯帽匠(约翰尼·德普 饰)等,但此时疯帽匠已不是原来的他了,白皇后(安妮·海瑟薇 饰)帮助爱丽丝通过大时钟内部的时空传送仪回到过去,在不同的点她遇到了之前的朋友和敌人,在那里她必须与时间对抗,在时间耗尽之前拯救疯帽匠。而此前海报中每位主演手中都有的闪闪发光的神秘球体便是帮助爱丽丝回到过去的关键所在。

    花絮

    .本片是英国男星,“哈波”系列中敬爱的斯内普教授艾伦·里克曼(1946-2016)遗作之一(另一部是早于本片上映的《天眼行动》)。

    .艾伦·里克曼在2010年首部曲《爱丽丝漫游奇境》中配音的角色的是一只“毛虫”,到在这部续集中已经破茧成了“蝴蝶”。

    .《爱丽丝漫游奇境》(2010)首部的主演阵容回归,然而导演从蒂姆·伯顿变成了詹姆斯·波宾(《布偶大电影》),波顿担任了续集的制片人。

    .萨莎·拜伦·科恩饰演的“时间”是续集中全新加入的角色,他此前曾经出演过蒂姆·伯顿执导的《理发师陶德》。瑞斯·伊凡斯饰演的“疯帽子之父”Zanik Hightopp,这也是续集中新加入的角色。

    .2014年8月影片在Gloucester Docks(格洛斯特船坞,曾是英国最大的内陆港口)拍摄,动用了Kathleen and May、Irene、Excelsior以及the Earl of Pembroke四艘有着悠久历史的古老帆船。

    .本片中6位主要演员都曾出演过《哈利波特》系列影片,分别是海伦娜·伯翰·卡特、艾伦·里克曼、蒂莫西·斯波、弗朗西斯·德·拉·图瓦、瑞斯·伊凡斯以及托比·琼斯。

    Video
    ID                                       : 1
    Format                                   : AVC
    Format/Info                              : Advanced Video Codec
    Format profile                           : High@L4.1
    Format settings, CABAC                   : Yes
    Format settings, ReFrames                : 2 frames
    Codec ID                                 : V_MPEG4/ISO/AVC
    Duration                                 : 1h 52mn
    Nominal bit rate                         : 15.5 Mbps
    Width                                    : 1 920 pixels
    Height                                   : 1 080 pixels
    Display aspect ratio                     : 16:9
    Frame rate mode                          : Constant
    Frame rate                               : 23.976 (24000/1001) fps
    Color space                              : YUV
    Chroma subsampling                       : 4:2:0
    Bit depth                                : 8 bits
    Scan type                                : Progressive
    Bits/(Pixel*Frame)                       : 0.312
    Title                                    : Alice.Through.the.Looking.Glass.2016.1080p.3D.BluRay.Half-SBS.x264.DTS-HD.MA.7.1-FGT
    Writing library                          : x264 core 142
    Encoding settings                        : cabac=1 / ref=1 / deblock=1:-1:-1 / analyse=0x3:0 / me=hex / subme=5 / psy=0 / mixed_ref=0 / me_range=16 / chroma_me=1 / trellis=0 / 8x8dct=1 / cqm=0 / deadzone=21,11 / fast_pskip=0 / chroma_qp_offset=0 / threads=8 / lookahead_threads=2 / sliced_threads=0 / nr=0 / decimate=1 / interlaced=0 / bluray_compat=0 / constrained_intra=0 / bframes=2 / b_pyramid=0 / b_adapt=1 / b_bias=0 / direct=1 / weightb=0 / open_gop=0 / weightp=0 / keyint=24 / keyint_min=13 / scenecut=40 / intra_refresh=0 / rc=abr / mbtree=0 / bitrate=15500 / ratetol=1.0 / qcomp=0.60 / qpmin=0 / qpmax=69 / qpstep=4 / ip_ratio=1.40 / pb_ratio=1.30 / aq=1:1.00
    Default                                  : Yes
    Forced                                   : No
    Color range                              : Limited
    Color primaries                          : BT.709
    Transfer characteristics                 : BT.709
    Matrix coefficients                      : BT.709

    Audio #1
    ID                                       : 2
    Format                                   : DTS
    Format/Info                              : Digital Theater Systems
    Format profile                           : MA / Core
    Mode                                     : 16
    Format settings, Endianness              : Big
    Codec ID                                 : A_DTS
    Duration                                 : 1h 52mn
    Bit rate mode                            : Variable / Constant
    Bit rate                                 : Unknown / 1 509 Kbps
    Channel(s)                               : 8 channels / 6 channels
    Channel positions                        : Front: L C R, Side: L R, Back: L R, LFE / Front: L C R, Side: L R, LFE
    Sampling rate                            : 48.0 KHz
    Frame rate                               : 93.750 fps (512 spf)
    Bit depth                                : 24 bits
    Compression mode                         : Lossless / Lossy
    Title                                    : Alice.Through.the.Looking.Glass.2016.1080p.3D.BluRay.Half-SBS.x264.DTS-HD.MA.7.1-FGT
    Language                                 : English
    Default                                  : Yes
    Forced                                   : No

    Audio #2
    ID                                       : 3
    Format                                   : DTS
    Format/Info                              : Digital Theater Systems
    Mode                                     : 16
    Format settings, Endianness              : Big
    Codec ID                                 : A_DTS
    Duration                                 : 1h 52mn
    Bit rate mode                            : Constant
    Bit rate                                 : 1 509 Kbps
    Channel(s)                               : 6 channels
    Channel positions                        : Front: L C R, Side: L R, LFE
    Sampling rate                            : 48.0 KHz
    Frame rate                               : 93.750 fps (512 spf)
    Bit depth                                : 24 bits
    Compression mode                         : Lossy
    Stream size                              : 1.19 GiB (7%)
    Title                                    : Alice.Through.the.Looking.Glass.2016.1080p.3D.BluRay.Half-SBS.x264.DTS-HD.MA.7.1-FGT
    Language                                 : English
    Default                                  : No
    Forced                                   : No

    Audio #3
    ID                                       : 4
    Format                                   : AC-3
    Format/Info                              : Audio Coding 3
    Mode extension                           : CM (complete main)
    Format settings, Endianness              : Big
    Codec ID                                 : A_AC3
    Duration                                 : 1h 52mn
    Bit rate mode                            : Constant
    Bit rate                                 : 640 Kbps
    Channel(s)                               : 6 channels
    Channel positions                        : Front: L C R, Side: L R, LFE
    Sampling rate                            : 48.0 KHz
    Frame rate                               : 31.250 fps (1536 spf)
    Compression mode                         : Lossy
    Stream size                              : 517 MiB (3%)
    Title                                    : Alice.Through.the.Looking.Glass.2016.1080p.3D.BluRay.Half-SBS.x264.DTS-HD.MA.7.1-FGT
    Language                                 : Chinese
    Default                                  : No
    Forced                                   : No

    Text #1
    ID                                       : 5
    Format                                   : PGS
    Muxing mode                              : zlib
    Codec ID                                 : S_HDMV/PGS
    Codec ID/Info                            : Picture based subtitle format used on BDs/HD-DVDs
    Title                                    : English-PGS
    Language                                 : English
    Default                                  : No
    Forced                                   : No

    Text #2
    ID                                       : 6
    Format                                   : PGS
    Muxing mode                              : zlib
    Codec ID                                 : S_HDMV/PGS
    Codec ID/Info                            : Picture based subtitle format used on BDs/HD-DVDs
    Title                                    : Chinese-PGS
    Language                                 : Chinese
    Default                                  : No
    Forced                                   : No

    Text #3
    ID                                       : 7
    Format                                   : PGS
    Muxing mode                              : zlib
    Codec ID                                 : S_HDMV/PGS
    Codec ID/Info                            : Picture based subtitle format used on BDs/HD-DVDs
    Title                                    : Korean-PGS
    Language                                 : Korean
    Default                                  : No
    Forced                                   : No

    Text #4
    ID                                       : 8
    Format                                   : PGS
    Muxing mode                              : zlib
    Codec ID                                 : S_HDMV/PGS
    Codec ID/Info                            : Picture based subtitle format used on BDs/HD-DVDs
    Title                                    : Chinese-PGS
    Language                                 : Chinese
    Default                                  : No
    Forced                                   : No

    Text #5
    ID                                       : 9
    Format                                   : PGS
    Muxing mode                              : zlib
    Codec ID                                 : S_HDMV/PGS
    Codec ID/Info                            : Picture based subtitle format used on BDs/HD-DVDs
    Title                                    : Chinese-PGS
    Language                                 : Chinese
    Default                                  : No
    Forced                                   : No

    Text #6
    ID                                       : 10
    Format                                   : PGS
    Muxing mode                              : zlib
    Codec ID                                 : S_HDMV/PGS
    Codec ID/Info                            : Picture based subtitle format used on BDs/HD-DVDs
    Title                                    : English-FORCED-PGS
    Language                                 : English
    Default                                  : No
    Forced                                   : No

    Text #7
    ID                                       : 11
    Format                                   : PGS
    Muxing mode                              : zlib
    Codec ID                                 : S_HDMV/PGS
    Codec ID/Info                            : Picture based subtitle format used on BDs/HD-DVDs
    Title                                    : Chinese-FORCED-PGS
    Language                                 : Chinese
    Default                                  : No
    Forced                                   : No

    Text #8
    ID                                       : 12
    Format                                   : PGS
    Muxing mode                              : zlib
    Codec ID                                 : S_HDMV/PGS
    Codec ID/Info                            : Picture based subtitle format used on BDs/HD-DVDs
    Title                                    : Chinese-FORCED-PGS
    Language                                 : Chinese
    Default                                  : No
    Forced                                   : No

    55502575517913312575_thumb.jpg

    58144427142249027055_thumb.jpg

    79007467928109885912_thumb.jpg

    98388577849484695512_thumb.jpg

    17324753786333756134_thumb.jpg

    45960578377608257156_thumb.jpg
    游客,如果您要查看本帖隐藏内容请回复




    Video
    ID                                       : 1
    Format                                   : AVC
    Format/Info                              : Advanced Video Codec
    Format profile                           : High@L4.1
    Format settings, CABAC                   : Yes
    Format settings, ReFrames                : 2 frames
    Codec ID                                 : V_MPEG4/ISO/AVC
    Duration                                 : 1h 52mn
    Nominal bit rate                         : 16.0 Mbps
    Width                                    : 1 920 pixels
    Height                                   : 1 080 pixels
    Display aspect ratio                     : 16:9
    Frame rate mode                          : Constant
    Frame rate                               : 23.976 (24000/1001) fps
    Color space                              : YUV
    Chroma subsampling                       : 4:2:0
    Bit depth                                : 8 bits
    Scan type                                : Progressive
    Bits/(Pixel*Frame)                       : 0.322
    Title                                    : Alice.Through.the.Looking.Glass.2016.1080p.3D.BluRay.Half-OU.x264.DTS-HD.MA.7.1-FGT
    Writing library                          : x264 core 142
    Encoding settings                        : cabac=1 / ref=1 / deblock=1:-1:-1 / analyse=0x3:0 / me=hex / subme=5 / psy=0 / mixed_ref=0 / me_range=16 / chroma_me=1 / trellis=0 / 8x8dct=1 / cqm=0 / deadzone=21,11 / fast_pskip=0 / chroma_qp_offset=0 / threads=8 / lookahead_threads=2 / sliced_threads=0 / nr=0 / decimate=1 / interlaced=0 / bluray_compat=0 / constrained_intra=0 / bframes=2 / b_pyramid=0 / b_adapt=1 / b_bias=0 / direct=1 / weightb=0 / open_gop=0 / weightp=0 / keyint=24 / keyint_min=13 / scenecut=40 / intra_refresh=0 / rc=abr / mbtree=0 / bitrate=16000 / ratetol=1.0 / qcomp=0.60 / qpmin=0 / qpmax=69 / qpstep=4 / ip_ratio=1.40 / pb_ratio=1.30 / aq=1:1.00
    Default                                  : Yes
    Forced                                   : No
    Color range                              : Limited
    Color primaries                          : BT.709
    Transfer characteristics                 : BT.709
    Matrix coefficients                      : BT.709

    Audio #1
    ID                                       : 3
    Format                                   : DTS
    Format/Info                              : Digital Theater Systems
    Format profile                           : MA / Core
    Mode                                     : 16
    Format settings, Endianness              : Big
    Codec ID                                 : A_DTS
    Duration                                 : 1h 52mn
    Bit rate mode                            : Variable / Constant
    Bit rate                                 : Unknown / 1 509 Kbps
    Channel(s)                               : 8 channels / 6 channels
    Channel positions                        : Front: L C R, Side: L R, Back: L R, LFE / Front: L C R, Side: L R, LFE
    Sampling rate                            : 48.0 KHz
    Frame rate                               : 93.750 fps (512 spf)
    Bit depth                                : 24 bits
    Compression mode                         : Lossless / Lossy
    Title                                    : Alice.Through.the.Looking.Glass.2016.1080p.3D.BluRay.Half-OU.x264.DTS-HD.MA.7.1-FGT
    Language                                 : English
    Default                                  : Yes
    Forced                                   : No

    Audio #2
    ID                                       : 2
    Format                                   : DTS
    Format/Info                              : Digital Theater Systems
    Mode                                     : 16
    Format settings, Endianness              : Big
    Codec ID                                 : A_DTS
    Duration                                 : 1h 52mn
    Bit rate mode                            : Constant
    Bit rate                                 : 1 509 Kbps
    Channel(s)                               : 6 channels
    Channel positions                        : Front: L C R, Side: L R, LFE
    Sampling rate                            : 48.0 KHz
    Frame rate                               : 93.750 fps (512 spf)
    Bit depth                                : 24 bits
    Compression mode                         : Lossy
    Stream size                              : 1.19 GiB (7%)
    Title                                    : Alice.Through.the.Looking.Glass.2016.1080p.3D.BluRay.Half-OU.x264.DTS-HD.MA.7.1-FGT
    Language                                 : English
    Default                                  : No
    Forced                                   : No


    Audio #3
    ID                                       : 4
    Format                                   : AC-3
    Format/Info                              : Audio Coding 3
    Mode extension                           : CM (complete main)
    Format settings, Endianness              : Big
    Codec ID                                 : A_AC3
    Duration                                 : 1h 52mn
    Bit rate mode                            : Constant
    Bit rate                                 : 640 Kbps
    Channel(s)                               : 6 channels
    Channel positions                        : Front: L C R, Side: L R, LFE
    Sampling rate                            : 48.0 KHz
    Frame rate                               : 31.250 fps (1536 spf)
    Compression mode                         : Lossy
    Stream size                              : 517 MiB (3%)
    Title                                    : Alice.Through.the.Looking.Glass.2016.1080p.3D.BluRay.Half-OU.x264.DTS-HD.MA.7.1-FGT
    Language                                 : Chinese
    Default                                  : No
    Forced                                   : No

    Text #1
    ID                                       : 5
    Format                                   : PGS
    Muxing mode                              : zlib
    Codec ID                                 : S_HDMV/PGS
    Codec ID/Info                            : Picture based subtitle format used on BDs/HD-DVDs
    Title                                    : English-PGS
    Language                                 : English
    Default                                  : No
    Forced                                   : No

    Text #2
    ID                                       : 6
    Format                                   : PGS
    Muxing mode                              : zlib
    Codec ID                                 : S_HDMV/PGS
    Codec ID/Info                            : Picture based subtitle format used on BDs/HD-DVDs
    Title                                    : Chinese-PGS
    Language                                 : Chinese
    Default                                  : No
    Forced                                   : No

    Text #3
    ID                                       : 7
    Format                                   : PGS
    Muxing mode                              : zlib
    Codec ID                                 : S_HDMV/PGS
    Codec ID/Info                            : Picture based subtitle format used on BDs/HD-DVDs
    Title                                    : Korean-PGS
    Language                                 : Korean
    Default                                  : No
    Forced                                   : No

    Text #4
    ID                                       : 8
    Format                                   : PGS
    Muxing mode                              : zlib
    Codec ID                                 : S_HDMV/PGS
    Codec ID/Info                            : Picture based subtitle format used on BDs/HD-DVDs
    Title                                    : Chinese-PGS
    Language                                 : Chinese
    Default                                  : No
    Forced                                   : No

    Text #5
    ID                                       : 9
    Format                                   : PGS
    Muxing mode                              : zlib
    Codec ID                                 : S_HDMV/PGS
    Codec ID/Info                            : Picture based subtitle format used on BDs/HD-DVDs
    Title                                    : Chinese-PGS
    Language                                 : Chinese
    Default                                  : No
    Forced                                   : No

    Text #6
    ID                                       : 10
    Format                                   : PGS
    Muxing mode                              : zlib
    Codec ID                                 : S_HDMV/PGS
    Codec ID/Info                            : Picture based subtitle format used on BDs/HD-DVDs
    Title                                    : English-FORCED-PGS
    Language                                 : English
    Default                                  : No
    Forced                                   : No

    Text #7
    ID                                       : 11
    Format                                   : PGS
    Muxing mode                              : zlib
    Codec ID                                 : S_HDMV/PGS
    Codec ID/Info                            : Picture based subtitle format used on BDs/HD-DVDs
    Title                                    : Chinese-FORCED-PGS
    Language                                 : Chinese
    Default                                  : No
    Forced                                   : No

    Text #8
    ID                                       : 12
    Format                                   : PGS
    Muxing mode                              : zlib
    Codec ID                                 : S_HDMV/PGS
    Codec ID/Info                            : Picture based subtitle format used on BDs/HD-DVDs
    Title                                    : Chinese-FORCED-PGS
    Language                                 : Chinese
    Default                                  : No
    Forced                                   : No


    12018930860165630560_thumb.jpg

    47191545549048488812_thumb.jpg

    64436340199927515140_thumb.jpg

    21175366910160179056_thumb.jpg

    98160182694749518400_thumb.jpg

    45739075660137842980_thumb.jpg

    游客,如果您要查看本帖隐藏内容请回复





    Video
    ID                                       : 1
    Format                                   : AVC
    Format/Info                              : Advanced Video Codec
    Format profile                           : High@L4.1
    Format settings, CABAC                   : Yes
    Format settings, ReFrames                : 4 frames
    Codec ID                                 : V_MPEG4/ISO/AVC
    Duration                                 : 1h 52mn
    Bit rate                                 : 8 564 Kbps
    Width                                    : 1 920 pixels
    Height                                   : 1 040 pixels
    Display aspect ratio                     : 1.85:1
    Frame rate mode                          : Constant
    Frame rate                               : 23.976 fps
    Color space                              : YUV
    Chroma subsampling                       : 4:2:0
    Bit depth                                : 8 bits
    Scan type                                : Progressive
    Bits/(Pixel*Frame)                       : 0.179
    Stream size                              : 6.75 GiB (85%)
    Writing library                          : x264 core 148 r2692 64f4e24
    Encoding settings                        : cabac=1 / ref=4 / deblock=1:0:0 / analyse=0x3:0x133 / me=umh / subme=7 / psy=1 / psy_rd=1.00:0.00 / mixed_ref=1 / me_range=16 / chroma_me=1 / trellis=1 / 8x8dct=1 / cqm=0 / deadzone=21,11 / fast_pskip=0 / chroma_qp_offset=-2 / threads=24 / lookahead_threads=4 / sliced_threads=0 / nr=0 / decimate=1 / interlaced=0 / bluray_compat=0 / constrained_intra=0 / bframes=3 / b_pyramid=2 / b_adapt=1 / b_bias=0 / direct=1 / weightb=1 / open_gop=0 / weightp=2 / keyint=250 / keyint_min=23 / scenecut=40 / intra_refresh=0 / rc_lookahead=40 / rc=2pass / mbtree=1 / bitrate=8564 / ratetol=1.0 / qcomp=0.60 / qpmin=0 / qpmax=69 / qpstep=4 / cplxblur=20.0 / qblur=0.5 / ip_ratio=1.40 / aq=1:1.00
    Language                                 : English
    Default                                  : Yes
    Forced                                   : No

    Audio
    ID                                       : 2
    Format                                   : DTS
    Format/Info                              : Digital Theater Systems
    Mode                                     : 16
    Format settings, Endianness              : Big
    Codec ID                                 : A_DTS
    Duration                                 : 1h 52mn
    Bit rate mode                            : Constant
    Bit rate                                 : 1 509 Kbps
    Channel(s)                               : 6 channels
    Channel positions                        : Front: L C R, Side: L R, LFE
    Sampling rate                            : 48.0 KHz
    Frame rate                               : 93.750 fps (512 spf)
    Bit depth                                : 24 bits
    Compression mode                         : Lossy
    Stream size                              : 1.19 GiB (15%)
    Language                                 : English
    Default                                  : Yes
    Forced                                   : No

    Text
    ID                                       : 3
    Format                                   : UTF-8
    Codec ID                                 : S_TEXT/UTF8
    Codec ID/Info                            : UTF-8 Plain Text
    Duration                                 : 3s 3ms
    Bit rate                                 : 98 bps
    Count of elements                        : 2
    Stream size                              : 37.0 Bytes (0%)
    Title                                    : English-Forced
    Language                                 : English
    Default                                  : Yes
    Forced                                   : Yes


    55648077328401373149_thumb.jpg


    游客,如果您要查看本帖隐藏内容请回复





    点评

    为什么我下载的老是没有字的啊。哪位大神请教下好吗?QQ468632095  发表于 2016-10-26 19:54
    ▇▇▇▇看【黄】片网^址 www.golden-care.cn 复制到浏览器打开▇▇▇▇▇▇▇▇看【黄】片网^址 www.golden-care.cn 复制到浏览器打开▇▇▇▇   发表于 2016-10-13 08:20
  • TA的每日心情
    开心
    2017-3-17 09:32
  • 签到天数: 1472 天

    [LV.10]以坛为家III

    发表于 2016-9-29 10:59:43 | 显示全部楼层
    希望有中文字幕
    回复 支持 反对

    使用道具 举报

  • TA的每日心情
    开心
    2017-3-17 09:32
  • 签到天数: 1472 天

    [LV.10]以坛为家III

    发表于 2016-9-29 11:03:12 | 显示全部楼层
    種子有問題,不能下載.
    回复 支持 反对

    使用道具 举报

    匿名  发表于 2016-9-29 11:21:14
    V5啦啦啦啦啦
    匿名  发表于 2016-9-29 11:21:41
    考虑考虑来了
    匿名  发表于 2016-9-29 11:31:38
    能下载吗?????????????、
    匿名  发表于 2016-9-29 11:31:40
    能下载吗?????????????、
    匿名  发表于 2016-9-29 11:31:47
    能下载吗?????????????、
    匿名  发表于 2016-9-29 11:31:49
    能下载吗?????????????、
    匿名  发表于 2016-9-29 11:31:59
    能下载吗?????????????、
    高级模式
    B Color Image Link Quote Code Smilies

    本版积分规则

    免责申明|小黑屋|手机版|Archiver|网站地图| 3D一族论坛  

    Copyright © 2001-2015 Comsenz Inc.   All Rights Reserved.

    Powered by Discuz! X3.2( 沪ICP备14045620号-1 )

    快速回复 返回顶部 返回列表