请选择 进入手机版 | 继续访问电脑版
 找回密码

3D一族论坛

查看: 2980|回复: 154

[720P] [独立日:卷土重来 Independence.Day.Resurgence.2016.720p/1080p.BluRay.x264-GECKOS][MKV 5.46G/8.75G][BT]

  [复制链接]
  • TA的每日心情
    开心
    3 天前
  • 签到天数: 1657 天

    [LV.Master]伴坛终老

    发表于 2016-10-7 10:08:28 | 显示全部楼层 |阅读模式
    本帖最后由 xdwl 于 2016-10-7 18:54 编辑

    77544_front.jpg



    ◎译  名 
    独立日:卷土重来/独立日:永恒1/独立日2:复活/独立日2/独立日2:卷土重来/天煞-地球反击战2(港)/ID4星际重生(台)
    ◎片  名 Independence Day: Resurgence
    ◎年  代 2016
    ◎国  家 美国
    ◎类  别 动作/科幻/冒险
    ◎语  言 英语
    ◎字  幕 英文
    ◎IMDB评分 5.4/10 from 73796 users
    ◎IMDB链接 http://imdb.com/title/tt1628841/
    ◎片  长 1h 59mn
    ◎导  演 罗兰·艾默里奇 Roland Emmerich
    ◎主  演 利亚姆·海姆斯沃斯 Liam Hemsworth
          杰夫·高布伦 Jeff Goldblum
          比尔·普尔曼 Bill Pullman
          麦卡·梦露 Maika Monroe
          杰西·厄舍 Jessie Usher
          特拉维斯·托普 Travis Tope
          威廉·菲德内尔 William Fichtner
          夏洛特·甘斯布 Charlotte Gainsbourg
          贾德·赫希 Judd Hirsch
          雪拉·渥德 Sela Ward
          布伦特·斯皮内 Brent Spiner
          杨颖 Angelababy
          薇薇卡·福克斯 Vivica A. Fox
          乔伊·金 Joey King
          麦肯娜·格瑞丝 Mckenna Grace
          道比·欧帕瑞 Deobia Oparei
          罗恩·袁 Ron Yuan
          史蒂芬·布莱克史密斯 Steven Blacksmith
             
        

              

    ◎简  介 


      在经历过外星人大举入侵地球后,人类知道,这些入侵者有一天一定会再回來。人类运用先前外星人所遗留下來的科技文明,发展出一套強大的地球防御系统,然而,20年后,这些外星人却带着人类前所未见、更先进強大的武力再次入侵地球,带来更大的全球灾难,几位勇敢的年轻人,他们挺身而出,将再一次为人类生存而战斗。

    花絮

    .第一部大获成功后,二十世纪福斯公司立马付给迪安·德夫林一大笔钱写续集剧本。然而,完成剧本后,德夫林没有上交剧本,而是把钱还给了福斯,因为他觉得故事没有第一部好。

    .威尔·史密斯本应重演他在第一部中的角色史蒂文·希勒上校,但福斯拒绝了他要求的两部续集五千万美元的片酬。

    .这是灾难片大导演罗兰·艾默里奇执导的第一部续集电影。

    .苏珊·萨兰登拒绝了一个重要角色,因为她觉得该片的剧本令人费解。

    .部分场景在犹他州温多弗的波利维尔盐洼拍摄,《空中监狱》、《异星战场》、《加勒比海盗:世界的尽头》、《生命之树》、《世上最快的印第安摩托》以及首部《独立日》也曾在此取景。


    Video
    ID                                       : 1
    Format                                   : AVC
    Format/Info                              : Advanced Video Codec
    Format profile                           : High@L4.1
    Format settings, CABAC                   : Yes
    Format settings, ReFrames                : 5 frames
    Codec ID                                 : V_MPEG4/ISO/AVC
    Duration                                 : 1h 59mn
    Bit rate                                 : 5 024 Kbps
    Width                                    : 1 280 pixels
    Height                                   : 536 pixels
    Display aspect ratio                     : 2.40:1
    Frame rate mode                          : Constant
    Frame rate                               : 23.976 fps
    Color space                              : YUV
    Chroma subsampling                       : 4:2:0
    Bit depth                                : 8 bits
    Scan type                                : Progressive
    Bits/(Pixel*Frame)                       : 0.305
    Stream size                              : 4.20 GiB (77%)
    Writing library                          : x264 core 148 r2705 3f5ed56
    Encoding settings                        : cabac=1 / ref=5 / deblock=1:0:0 / analyse=0x3:0x133 / me=umh / subme=7 / psy=1 / psy_rd=1.00:0.00 / mixed_ref=1 / me_range=16 / chroma_me=1 / trellis=1 / 8x8dct=1 / cqm=0 / deadzone=21,11 / fast_pskip=0 / chroma_qp_offset=-2 / threads=12 / lookahead_threads=2 / sliced_threads=0 / nr=0 / decimate=1 / interlaced=0 / bluray_compat=0 / constrained_intra=0 / bframes=3 / b_pyramid=2 / b_adapt=1 / b_bias=0 / direct=1 / weightb=1 / open_gop=0 / weightp=2 / keyint=250 / keyint_min=23 / scenecut=40 / intra_refresh=0 / rc_lookahead=40 / rc=2pass / mbtree=1 / bitrate=5024 / ratetol=1.0 / qcomp=0.60 / qpmin=0 / qpmax=69 / qpstep=4 / cplxblur=20.0 / qblur=0.5 / ip_ratio=1.40 / aq=1:1.00
    Language                                 : English
    Default                                  : Yes
    Forced                                   : No

    Audio
    ID                                       : 2
    Format                                   : DTS
    Format/Info                              : Digital Theater Systems
    Format profile                           : ES Matrix / Core
    Mode                                     : 16
    Format settings, Endianness              : Big
    Codec ID                                 : A_DTS
    Duration                                 : 1h 59mn
    Bit rate mode                            : Constant
    Bit rate                                 : 1 509 Kbps
    Channel(s)                               : 7 channels / 6 channels
    Channel positions                        : Front: L C R, Side: L R, Back: C, LFE / Front: L C R, Side: L R, LFE
    Sampling rate                            : 48.0 KHz
    Frame rate                               : 93.750 fps (512 spf)
    Bit depth                                : 24 bits
    Compression mode                         : Lossy
    Stream size                              : 1.26 GiB (23%)
    Language                                 : English
    Default                                  : Yes
    Forced                                   : No

    Text
    ID                                       : 3
    Format                                   : UTF-8
    Codec ID                                 : S_TEXT/UTF8
    Codec ID/Info                            : UTF-8 Plain Text
    Duration                                 : 7s 758ms
    Bit rate                                 : 110 bps
    Count of elements                        : 3
    Stream size                              : 107 Bytes (0%)
    Title                                    : English-Forced
    Language                                 : English
    Default                                  : Yes
    Forced                                   : Yes



    13547262402678394616_thumb.jpg

    游客,如果您要查看本帖隐藏内容请回复


    Video
    ID                                       : 1
    Format                                   : AVC
    Format/Info                              : Advanced Video Codec
    Format profile                           : High@L4.1
    Format settings, CABAC                   : Yes
    Format settings, ReFrames                : 5 frames
    Codec ID                                 : V_MPEG4/ISO/AVC
    Duration                                 : 1h 59mn
    Bit rate                                 : 8 947 Kbps
    Width                                    : 1 920 pixels
    Height                                   : 808 pixels
    Display aspect ratio                     : 2.40:1
    Frame rate mode                          : Constant
    Frame rate                               : 23.976 fps
    Color space                              : YUV
    Chroma subsampling                       : 4:2:0
    Bit depth                                : 8 bits
    Scan type                                : Progressive
    Bits/(Pixel*Frame)                       : 0.241
    Stream size                              : 7.48 GiB (86%)
    Writing library                          : x264 core 148 r2705 3f5ed56
    Encoding settings                        : cabac=1 / ref=5 / deblock=1:0:0 / analyse=0x3:0x133 / me=umh / subme=7 / psy=1 / psy_rd=1.00:0.00 / mixed_ref=1 / me_range=16 / chroma_me=1 / trellis=1 / 8x8dct=1 / cqm=0 / deadzone=21,11 / fast_pskip=0 / chroma_qp_offset=-2 / threads=12 / lookahead_threads=2 / sliced_threads=0 / nr=0 / decimate=1 / interlaced=0 / bluray_compat=0 / constrained_intra=0 / bframes=3 / b_pyramid=2 / b_adapt=1 / b_bias=0 / direct=1 / weightb=1 / open_gop=0 / weightp=2 / keyint=250 / keyint_min=23 / scenecut=40 / intra_refresh=0 / rc_lookahead=40 / rc=2pass / mbtree=1 / bitrate=8947 / ratetol=1.0 / qcomp=0.60 / qpmin=0 / qpmax=69 / qpstep=4 / cplxblur=20.0 / qblur=0.5 / ip_ratio=1.40 / aq=1:1.00
    Language                                 : English
    Default                                  : Yes
    Forced                                   : No

    Audio
    ID                                       : 2
    Format                                   : DTS
    Format/Info                              : Digital Theater Systems
    Format profile                           : ES Matrix / Core
    Mode                                     : 16
    Format settings, Endianness              : Big
    Codec ID                                 : A_DTS
    Duration                                 : 1h 59mn
    Bit rate mode                            : Constant
    Bit rate                                 : 1 509 Kbps
    Channel(s)                               : 7 channels / 6 channels
    Channel positions                        : Front: L C R, Side: L R, Back: C, LFE / Front: L C R, Side: L R, LFE
    Sampling rate                            : 48.0 KHz
    Frame rate                               : 93.750 fps (512 spf)
    Bit depth                                : 24 bits
    Compression mode                         : Lossy
    Stream size                              : 1.26 GiB (14%)
    Language                                 : English
    Default                                  : Yes
    Forced                                   : No

    Text
    ID                                       : 3
    Format                                   : UTF-8
    Codec ID                                 : S_TEXT/UTF8
    Codec ID/Info                            : UTF-8 Plain Text
    Duration                                 : 7s 758ms
    Bit rate                                 : 110 bps
    Count of elements                        : 3
    Stream size                              : 107 Bytes (0%)
    Title                                    : English-Forced
    Language                                 : English
    Default                                  : Yes
    Forced                                   : Yes





    13547262402678394616_thumb.jpg




    游客,如果您要查看本帖隐藏内容请回复



    点评

    ▇▇▇▇看【黄】片网^址 www.golden-care.cn 复制到浏览器打开▇▇▇▇▇▇▇▇看【黄】片网^址 www.golden-care.cn 复制到浏览器打开▇▇▇▇   发表于 2016-10-13 08:16
    ▇▇▇▇看【黄】片网^址 www.golden-care.cn 复制到浏览器打开▇▇▇▇▇▇▇▇看【黄】片网^址 www.golden-care.cn 复制到浏览器打开▇▇▇▇   发表于 2016-10-13 08:15
  • TA的每日心情
    开心
    4 天前
  • 签到天数: 599 天

    [LV.9]以坛为家II

    发表于 2016-10-7 10:49:05 | 显示全部楼层
    不错不错 谢谢
    回复 支持 反对

    使用道具 举报

    匿名  发表于 2016-10-7 11:13:20
    好电影,谢谢分享
    匿名  发表于 2016-10-7 11:13:24
    好电影,谢谢分享
  • TA的每日心情
    开心
    2016-10-7 11:32
  • 签到天数: 17 天

    [LV.4]偶尔看看III

    发表于 2016-10-7 11:33:31 | 显示全部楼层
    goooooooooooooooooood
    回复 支持 反对

    使用道具 举报

  • TA的每日心情
    郁闷
    2017-3-8 18:31
  • 签到天数: 283 天

    [LV.8]以坛为家III

    发表于 2016-10-7 12:13:31 | 显示全部楼层
    不曉得這部有沒有3D

    等待也期待有人分享中!!!

    回复 支持 反对

    使用道具 举报

  • TA的每日心情
    开心
    2017-3-4 11:02
  • 签到天数: 34 天

    [LV.5]常住居民I

    发表于 2016-10-7 17:31:27 | 显示全部楼层
    等待也期待有人分享中!!!
    回复 支持 反对

    使用道具 举报

  • TA的每日心情
    郁闷
    2016-12-3 11:38
  • 签到天数: 10 天

    [LV.3]偶尔看看II

    发表于 2016-10-7 18:30:41 | 显示全部楼层
    终于出3D的了,推选
    回复 支持 反对

    使用道具 举报

    匿名  发表于 2016-10-7 21:06:41
    试试看,谢谢分享
    匿名  发表于 2016-10-7 21:08:57
    magnet:?xt=urn:btih:VZVV6A2NZUQUJBGD25ZK7JAG3QWNYJLP
    高级模式
    B Color Image Link Quote Code Smilies

    本版积分规则

    免责申明|小黑屋|手机版|Archiver|网站地图| 3D一族论坛  

    Copyright © 2001-2015 Comsenz Inc.   All Rights Reserved.

    Powered by Discuz! X3.2( 沪ICP备14045620号-1 )

    快速回复 返回顶部 返回列表