请选择 进入手机版 | 继续访问电脑版
 找回密码

3D一族论坛

查看: 10144|回复: 942

[左右] [独立日:卷土重来3D Independence.Day.Resurgence.2016.3D][1080p][MKV 21.12G/21.52G/8.75G][BT]

  [复制链接]
  • TA的每日心情
    开心
    昨天 15:00
  • 签到天数: 1643 天

    [LV.Master]伴坛终老

    发表于 2016-10-11 11:54:44 | 显示全部楼层 |阅读模式
    影片截图:

    data/attachment/forum/201610/11/115238gb57lhh5hv0grful.jpg

         
      片        名: Independence.Day.Resurgence.2016.3D
      译        名: 独立日:卷土重来3D/独立日:永恒1/独立日2:复活/独立日2/独立日2:卷土重来/天煞-地球反击战2(港)/ID4星际重生(台)
      类        别: 动作 科幻 冒险 
      国        家: 欧美
      语        言: 英语
      字        幕: 英文字幕
      集        数:
      文件格式: MKV
      视频尺寸: 1920*1080
      文件大小: 21.12GB/21.52GB/8.75GB
      上映时间: 2016-06-24(中国大陆/美国)
      影片导演: 罗兰·艾默里奇 Roland Emmerich
      主要演员: 利亚姆·海姆斯沃斯 Liam Hemsworth
        杰夫·高布伦 Jeff Goldblum
        比尔·普尔曼 Bill Pullman
      推荐等级: ★★★★★
         
    下载地址:
    [下载方式]: bt下载
    [分辨率]: 1080p
    [迅雷地址]:
    [网盘下载]:
    影片简介: fangfang
    在经历过外星人大举入侵地球后,人类知道,这些入侵者有一天一定会再回來。人类运用先前外星人所遗留下來的科技文明,发展出一套強大的地球防御系统,然而,20年后,这些外星人却带着人类前所未见、更先进強大的武力再次入侵地球,带来更大的全球灾难,几位勇敢的年轻人,他们挺身而出,将再一次为人类生存而战斗。
    本帖最后由 xdwl 于 2016-10-12 09:40 编辑

    Independence Day Resurgence 3D Blu-ray_front.jpg


    ◎译  名 
    独立日:卷土重来/独立日:永恒1/独立日2:复活/独立日2/独立日2:卷土重来/天煞-地球反击战2(港)/ID4星际重生(台)
    ◎片  名 Independence Day: Resurgence
    ◎年  代 2016
    ◎国  家 美国
    ◎类  别 动作/科幻/冒险
    ◎语  言 英语
    ◎字  幕 英文
    ◎IMDB评分 5.4/10 from 73796 users
    ◎IMDB链接 http://imdb.com/title/tt1628841/
    ◎片  长 1h 59mn
    ◎导  演 罗兰·艾默里奇 Roland Emmerich
    ◎主  演 利亚姆·海姆斯沃斯 Liam Hemsworth
          杰夫·高布伦 Jeff Goldblum
          比尔·普尔曼 Bill Pullman
          麦卡·梦露 Maika Monroe
          杰西·厄舍 Jessie Usher
          特拉维斯·托普 Travis Tope
          威廉·菲德内尔 William Fichtner
          夏洛特·甘斯布 Charlotte Gainsbourg
          贾德·赫希 Judd Hirsch
          雪拉·渥德 Sela Ward
          布伦特·斯皮内 Brent Spiner
          杨颖 Angelababy
          薇薇卡·福克斯 Vivica A. Fox
          乔伊·金 Joey King
          麦肯娜·格瑞丝 Mckenna Grace
          道比·欧帕瑞 Deobia Oparei
          罗恩·袁 Ron Yuan
          史蒂芬·布莱克史密斯 Steven Blacksmith
             
        

              

    ◎简  介 


      在经历过外星人大举入侵地球后,人类知道,这些入侵者有一天一定会再回來。人类运用先前外星人所遗留下來的科技文明,发展出一套強大的地球防御系统,然而,20年后,这些外星人却带着人类前所未见、更先进強大的武力再次入侵地球,带来更大的全球灾难,几位勇敢的年轻人,他们挺身而出,将再一次为人类生存而战斗。

    花絮

    .第一部大获成功后,二十世纪福斯公司立马付给迪安·德夫林一大笔钱写续集剧本。然而,完成剧本后,德夫林没有上交剧本,而是把钱还给了福斯,因为他觉得故事没有第一部好。

    .威尔·史密斯本应重演他在第一部中的角色史蒂文·希勒上校,但福斯拒绝了他要求的两部续集五千万美元的片酬。

    .这是灾难片大导演罗兰·艾默里奇执导的第一部续集电影。

    .苏珊·萨兰登拒绝了一个重要角色,因为她觉得该片的剧本令人费解。

    .部分场景在犹他州温多弗的波利维尔盐洼拍摄,《空中监狱》、《异星战场》、《加勒比海盗:世界的尽头》、《生命之树》、《世上最快的印第安摩托》以及首部《独立日》也曾在此取景。


    Video
    ID                                       : 1
    Format                                   : AVC
    Format/Info                              : Advanced Video Codec
    Format profile                           : High@L4.1
    Format settings, CABAC                   : Yes
    Format settings, ReFrames                : 2 frames
    Codec ID                                 : V_MPEG4/ISO/AVC
    Duration                                 : 1h 59mn
    Nominal bit rate                         : 15.5 Mbps
    Width                                    : 1 920 pixels
    Height                                   : 1 080 pixels
    Display aspect ratio                     : 16:9
    Frame rate mode                          : Constant
    Frame rate                               : 23.976 (24000/1001) fps
    Color space                              : YUV
    Chroma subsampling                       : 4:2:0
    Bit depth                                : 8 bits
    Scan type                                : Progressive
    Bits/(Pixel*Frame)                       : 0.312
    Title                                    : Independence.Day.Resurgence.2016.1080p.3D.BluRay.Half-SBS.x264.DTS-HD.MA.7.1-FGT
    Writing library                          : x264 core 142
    Encoding settings                        : cabac=1 / ref=1 / deblock=1:-1:-1 / analyse=0x3:0 / me=hex / subme=5 / psy=0 / mixed_ref=0 / me_range=16 / chroma_me=1 / trellis=0 / 8x8dct=1 / cqm=0 / deadzone=21,11 / fast_pskip=0 / chroma_qp_offset=0 / threads=8 / lookahead_threads=2 / sliced_threads=0 / nr=0 / decimate=1 / interlaced=0 / bluray_compat=0 / constrained_intra=0 / bframes=2 / b_pyramid=0 / b_adapt=1 / b_bias=0 / direct=1 / weightb=0 / open_gop=0 / weightp=0 / keyint=24 / keyint_min=13 / scenecut=40 / intra_refresh=0 / rc=abr / mbtree=0 / bitrate=15500 / ratetol=1.0 / qcomp=0.60 / qpmin=0 / qpmax=69 / qpstep=4 / ip_ratio=1.40 / pb_ratio=1.30 / aq=1:1.00
    Default                                  : Yes
    Forced                                   : No
    Color range                              : Limited
    Color primaries                          : BT.709
    Transfer characteristics                 : BT.709
    Matrix coefficients                      : BT.709

    Audio #1
    ID                                       : 2
    Format                                   : DTS
    Format/Info                              : Digital Theater Systems
    Format profile                           : MA / ES Matrix / Core
    Mode                                     : 16
    Format settings, Endianness              : Big
    Codec ID                                 : A_DTS
    Duration                                 : 1h 59mn
    Bit rate mode                            : Variable / Constant / Constant
    Bit rate                                 : Unknown / 1 509 Kbps / 1 509 Kbps
    Channel(s)                               : 8 channels / 7 channels / 6 channels
    Channel positions                        : Front: L C R, Side: L R, Back: L R, LFE / Front: L C R, Side: L R, Back: C, LFE / Front: L C R, Side: L R, LFE
    Sampling rate                            : 48.0 KHz
    Frame rate                               : 93.750 fps (512 spf)
    Bit depth                                : 24 bits
    Compression mode                         : Lossless / Lossy / Lossy
    Title                                    : Independence.Day.Resurgence.2016.1080p.3D.BluRay.Half-SBS.x264.DTS-HD.MA.7.1-FGT
    Language                                 : English
    Default                                  : Yes
    Forced                                   : No

    Audio #2
    ID                                       : 3
    Format                                   : DTS
    Format/Info                              : Digital Theater Systems
    Format profile                           : ES Matrix / Core
    Mode                                     : 16
    Format settings, Endianness              : Big
    Codec ID                                 : A_DTS
    Duration                                 : 1h 59mn
    Bit rate mode                            : Constant
    Bit rate                                 : 1 509 Kbps
    Channel(s)                               : 7 channels / 6 channels
    Channel positions                        : Front: L C R, Side: L R, Back: C, LFE / Front: L C R, Side: L R, LFE
    Sampling rate                            : 48.0 KHz
    Frame rate                               : 93.750 fps (512 spf)
    Bit depth                                : 24 bits
    Compression mode                         : Lossy
    Stream size                              : 1.26 GiB (6%)
    Title                                    : Independence.Day.Resurgence.2016.1080p.3D.BluRay.Half-SBS.x264.DTS-HD.MA.7.1-FGT
    Language                                 : English
    Default                                  : No
    Forced                                   : No

    Audio #3
    ID                                       : 4
    Format                                   : AC-3
    Format/Info                              : Audio Coding 3
    Mode extension                           : CM (complete main)
    Format settings, Endianness              : Big
    Codec ID                                 : A_AC3
    Duration                                 : 1h 59mn
    Bit rate mode                            : Constant
    Bit rate                                 : 448 Kbps
    Channel(s)                               : 6 channels
    Channel positions                        : Front: L C R, Side: L R, LFE
    Sampling rate                            : 48.0 KHz
    Frame rate                               : 31.250 fps (1536 spf)
    Compression mode                         : Lossy
    Stream size                              : 384 MiB (2%)
    Title                                    : Independence.Day.Resurgence.2016.1080p.3D.BluRay.Half-SBS.x264.DTS-HD.MA.7.1-FGT
    Language                                 : English
    Default                                  : No
    Forced                                   : No

    Audio #4
    ID                                       : 5
    Format                                   : AC-3
    Format/Info                              : Audio Coding 3
    Mode extension                           : CM (complete main)
    Format settings, Endianness              : Big
    Codec ID                                 : A_AC3
    Duration                                 : 1h 59mn
    Bit rate mode                            : Constant
    Bit rate                                 : 448 Kbps
    Channel(s)                               : 6 channels
    Channel positions                        : Front: L C R, Side: L R, LFE
    Sampling rate                            : 48.0 KHz
    Frame rate                               : 31.250 fps (1536 spf)
    Compression mode                         : Lossy
    Stream size                              : 384 MiB (2%)
    Title                                    : Independence.Day.Resurgence.2016.1080p.3D.BluRay.Half-SBS.x264.DTS-HD.MA.7.1-FGT
    Language                                 : Spanish
    Default                                  : No
    Forced                                   : No

    Audio #5
    ID                                       : 6
    Format                                   : AC-3
    Format/Info                              : Audio Coding 3
    Mode extension                           : CM (complete main)
    Format settings, Endianness              : Big
    Codec ID                                 : A_AC3
    Duration                                 : 1h 59mn
    Bit rate mode                            : Constant
    Bit rate                                 : 448 Kbps
    Channel(s)                               : 6 channels
    Channel positions                        : Front: L C R, Side: L R, LFE
    Sampling rate                            : 48.0 KHz
    Frame rate                               : 31.250 fps (1536 spf)
    Compression mode                         : Lossy
    Stream size                              : 384 MiB (2%)
    Title                                    : Independence.Day.Resurgence.2016.1080p.3D.BluRay.Half-SBS.x264.DTS-HD.MA.7.1-FGT
    Language                                 : French
    Default                                  : No
    Forced                                   : No

    Audio #6
    ID                                       : 7
    Format                                   : AC-3
    Format/Info                              : Audio Coding 3
    Mode extension                           : CM (complete main)
    Format settings, Endianness              : Big
    Codec ID                                 : A_AC3
    Duration                                 : 1h 59mn
    Bit rate mode                            : Constant
    Bit rate                                 : 448 Kbps
    Channel(s)                               : 6 channels
    Channel positions                        : Front: L C R, Side: L R, LFE
    Sampling rate                            : 48.0 KHz
    Frame rate                               : 31.250 fps (1536 spf)
    Compression mode                         : Lossy
    Stream size                              : 384 MiB (2%)
    Title                                    : Independence.Day.Resurgence.2016.1080p.3D.BluRay.Half-SBS.x264.DTS-HD.MA.7.1-FGT
    Language                                 : Portuguese
    Default                                  : No
    Forced                                   : No

    Audio #7
    ID                                       : 8
    Format                                   : DTS
    Format/Info                              : Digital Theater Systems
    Mode                                     : 16
    Format settings, Endianness              : Big
    Codec ID                                 : A_DTS
    Duration                                 : 1h 59mn
    Bit rate mode                            : Constant
    Bit rate                                 : 768 Kbps
    Channel(s)                               : 6 channels
    Channel positions                        : Front: L C R, Side: L R, LFE
    Sampling rate                            : 48.0 KHz
    Frame rate                               : 93.750 fps (512 spf)
    Bit depth                                : 24 bits
    Compression mode                         : Lossy
    Stream size                              : 658 MiB (3%)
    Title                                    : Independence.Day.Resurgence.2016.1080p.3D.BluRay.Half-SBS.x264.DTS-HD.MA.7.1-FGT
    Language                                 : Russian
    Default                                  : No
    Forced                                   : No

    Audio #8
    ID                                       : 9
    Format                                   : AC-3
    Format/Info                              : Audio Coding 3
    Mode extension                           : CM (complete main)
    Format settings, Endianness              : Big
    Codec ID                                 : A_AC3
    Duration                                 : 1h 59mn
    Bit rate mode                            : Constant
    Bit rate                                 : 448 Kbps
    Channel(s)                               : 6 channels
    Channel positions                        : Front: L C R, Side: L R, LFE
    Sampling rate                            : 48.0 KHz
    Frame rate                               : 31.250 fps (1536 spf)
    Compression mode                         : Lossy
    Stream size                              : 384 MiB (2%)
    Title                                    : Independence.Day.Resurgence.2016.1080p.3D.BluRay.Half-SBS.x264.DTS-HD.MA.7.1-FGT
    Language                                 : Ukrainian
    Default                                  : No
    Forced                                   : No

    Text #1
    ID                                       : 10
    Format                                   : PGS
    Muxing mode                              : zlib
    Codec ID                                 : S_HDMV/PGS
    Codec ID/Info                            : Picture based subtitle format used on BDs/HD-DVDs
    Title                                    : English-FORCED-PGS
    Language                                 : English
    Default                                  : Yes
    Forced                                   : Yes

    Text #2
    ID                                       : 11
    Format                                   : PGS
    Muxing mode                              : zlib
    Codec ID                                 : S_HDMV/PGS
    Codec ID/Info                            : Picture based subtitle format used on BDs/HD-DVDs
    Title                                    : English-PGS
    Language                                 : English
    Default                                  : No
    Forced                                   : No

    Text #3
    ID                                       : 12
    Format                                   : PGS
    Muxing mode                              : zlib
    Codec ID                                 : S_HDMV/PGS
    Codec ID/Info                            : Picture based subtitle format used on BDs/HD-DVDs
    Title                                    : Spanish-PGS
    Language                                 : Spanish
    Default                                  : No
    Forced                                   : No

    Text #4
    ID                                       : 13
    Format                                   : PGS
    Muxing mode                              : zlib
    Codec ID                                 : S_HDMV/PGS
    Codec ID/Info                            : Picture based subtitle format used on BDs/HD-DVDs
    Title                                    : French-PGS
    Language                                 : French
    Default                                  : No
    Forced                                   : No

    Text #5
    ID                                       : 14
    Format                                   : PGS
    Muxing mode                              : zlib
    Codec ID                                 : S_HDMV/PGS
    Codec ID/Info                            : Picture based subtitle format used on BDs/HD-DVDs
    Title                                    : Danish-PGS
    Language                                 : Danish
    Default                                  : No
    Forced                                   : No

    Text #6
    ID                                       : 15
    Format                                   : PGS
    Muxing mode                              : zlib
    Codec ID                                 : S_HDMV/PGS
    Codec ID/Info                            : Picture based subtitle format used on BDs/HD-DVDs
    Title                                    : Finnish-PGS
    Language                                 : Finnish
    Default                                  : No
    Forced                                   : No

    Text #7
    ID                                       : 16
    Format                                   : PGS
    Muxing mode                              : zlib
    Codec ID                                 : S_HDMV/PGS
    Codec ID/Info                            : Picture based subtitle format used on BDs/HD-DVDs
    Title                                    : Norwegian-PGS
    Language                                 : Norwegian
    Default                                  : No
    Forced                                   : No

    Text #8
    ID                                       : 17
    Format                                   : PGS
    Muxing mode                              : zlib
    Codec ID                                 : S_HDMV/PGS
    Codec ID/Info                            : Picture based subtitle format used on BDs/HD-DVDs
    Title                                    : Portuguese-PGS
    Language                                 : Portuguese
    Default                                  : No
    Forced                                   : No

    Text #9
    ID                                       : 18
    Format                                   : PGS
    Muxing mode                              : zlib
    Codec ID                                 : S_HDMV/PGS
    Codec ID/Info                            : Picture based subtitle format used on BDs/HD-DVDs
    Title                                    : Russian-PGS
    Language                                 : Russian
    Default                                  : No
    Forced                                   : No

    Text #10
    ID                                       : 19
    Format                                   : PGS
    Muxing mode                              : zlib
    Codec ID                                 : S_HDMV/PGS
    Codec ID/Info                            : Picture based subtitle format used on BDs/HD-DVDs
    Title                                    : Swedish-PGS
    Language                                 : Swedish
    Default                                  : No
    Forced                                   : No

    Text #11
    ID                                       : 20
    Format                                   : PGS
    Muxing mode                              : zlib
    Codec ID                                 : S_HDMV/PGS
    Codec ID/Info                            : Picture based subtitle format used on BDs/HD-DVDs
    Title                                    : Estonian-PGS
    Language                                 : Estonian
    Default                                  : No
    Forced                                   : No

    Text #12
    ID                                       : 21
    Format                                   : PGS
    Muxing mode                              : zlib
    Codec ID                                 : S_HDMV/PGS
    Codec ID/Info                            : Picture based subtitle format used on BDs/HD-DVDs
    Title                                    : Latvian-PGS
    Language                                 : Latvian
    Default                                  : No
    Forced                                   : No

    Text #13
    ID                                       : 22
    Format                                   : PGS
    Muxing mode                              : zlib
    Codec ID                                 : S_HDMV/PGS
    Codec ID/Info                            : Picture based subtitle format used on BDs/HD-DVDs
    Title                                    : Lithuanian-PGS
    Language                                 : Lithuanian
    Default                                  : No
    Forced                                   : No

    Text #14
    ID                                       : 23
    Format                                   : PGS
    Muxing mode                              : zlib
    Codec ID                                 : S_HDMV/PGS
    Codec ID/Info                            : Picture based subtitle format used on BDs/HD-DVDs
    Title                                    : Ukrainian-PGS
    Language                                 : Ukrainian
    Default                                  : No
    Forced                                   : No





    13331985486171381781_thumb.jpg

    66315501390796954729_thumb.jpg

    74510092534697009057_thumb.jpg

    77072378470279811123_thumb.jpg

    83151577757760039404_thumb.jpg

    89250687471386578688_thumb.jpg




    游客,如果您要查看本帖隐藏内容请回复



    Video
    ID                                       : 1
    Format                                   : AVC
    Format/Info                              : Advanced Video Codec
    Format profile                           : High@L4.1
    Format settings, CABAC                   : Yes
    Format settings, ReFrames                : 2 frames
    Codec ID                                 : V_MPEG4/ISO/AVC
    Duration                                 : 1h 59mn
    Nominal bit rate                         : 16.0 Mbps
    Width                                    : 1 920 pixels
    Height                                   : 1 080 pixels
    Display aspect ratio                     : 16:9
    Frame rate mode                          : Constant
    Frame rate                               : 23.976 (24000/1001) fps
    Color space                              : YUV
    Chroma subsampling                       : 4:2:0
    Bit depth                                : 8 bits
    Scan type                                : Progressive
    Bits/(Pixel*Frame)                       : 0.322
    Title                                    : Independence.Day.Resurgence.2016.1080p.3D.BluRay.Half-OU.x264.DTS-HD.MA.7.1-FGT
    Writing library                          : x264 core 142
    Encoding settings                        : cabac=1 / ref=1 / deblock=1:-1:-1 / analyse=0x3:0 / me=hex / subme=5 / psy=0 / mixed_ref=0 / me_range=16 / chroma_me=1 / trellis=0 / 8x8dct=1 / cqm=0 / deadzone=21,11 / fast_pskip=0 / chroma_qp_offset=0 / threads=8 / lookahead_threads=2 / sliced_threads=0 / nr=0 / decimate=1 / interlaced=0 / bluray_compat=0 / constrained_intra=0 / bframes=2 / b_pyramid=0 / b_adapt=1 / b_bias=0 / direct=1 / weightb=0 / open_gop=0 / weightp=0 / keyint=24 / keyint_min=13 / scenecut=40 / intra_refresh=0 / rc=abr / mbtree=0 / bitrate=16000 / ratetol=1.0 / qcomp=0.60 / qpmin=0 / qpmax=69 / qpstep=4 / ip_ratio=1.40 / pb_ratio=1.30 / aq=1:1.00
    Default                                  : Yes
    Forced                                   : No
    Color range                              : Limited
    Color primaries                          : BT.709
    Transfer characteristics                 : BT.709
    Matrix coefficients                      : BT.709

    Audio #1
    ID                                       : 2
    Format                                   : DTS
    Format/Info                              : Digital Theater Systems
    Format profile                           : MA / ES Matrix / Core
    Mode                                     : 16
    Format settings, Endianness              : Big
    Codec ID                                 : A_DTS
    Duration                                 : 1h 59mn
    Bit rate mode                            : Variable / Constant / Constant
    Bit rate                                 : Unknown / 1 509 Kbps / 1 509 Kbps
    Channel(s)                               : 8 channels / 7 channels / 6 channels
    Channel positions                        : Front: L C R, Side: L R, Back: L R, LFE / Front: L C R, Side: L R, Back: C, LFE / Front: L C R, Side: L R, LFE
    Sampling rate                            : 48.0 KHz
    Frame rate                               : 93.750 fps (512 spf)
    Bit depth                                : 24 bits
    Compression mode                         : Lossless / Lossy / Lossy
    Title                                    : Independence.Day.Resurgence.2016.1080p.3D.BluRay.Half-OU.x264.DTS-HD.MA.7.1-FGT
    Language                                 : English
    Default                                  : Yes
    Forced                                   : No

    Audio #2
    ID                                       : 3
    Format                                   : DTS
    Format/Info                              : Digital Theater Systems
    Format profile                           : ES Matrix / Core
    Mode                                     : 16
    Format settings, Endianness              : Big
    Codec ID                                 : A_DTS
    Duration                                 : 1h 59mn
    Bit rate mode                            : Constant
    Bit rate                                 : 1 509 Kbps
    Channel(s)                               : 7 channels / 6 channels
    Channel positions                        : Front: L C R, Side: L R, Back: C, LFE / Front: L C R, Side: L R, LFE
    Sampling rate                            : 48.0 KHz
    Frame rate                               : 93.750 fps (512 spf)
    Bit depth                                : 24 bits
    Compression mode                         : Lossy
    Stream size                              : 1.26 GiB (6%)
    Title                                    : Independence.Day.Resurgence.2016.1080p.3D.BluRay.Half-OU.x264.DTS-HD.MA.7.1-FGT
    Language                                 : English
    Default                                  : No
    Forced                                   : No

    Audio #3
    ID                                       : 4
    Format                                   : AC-3
    Format/Info                              : Audio Coding 3
    Mode extension                           : CM (complete main)
    Format settings, Endianness              : Big
    Codec ID                                 : A_AC3
    Duration                                 : 1h 59mn
    Bit rate mode                            : Constant
    Bit rate                                 : 448 Kbps
    Channel(s)                               : 6 channels
    Channel positions                        : Front: L C R, Side: L R, LFE
    Sampling rate                            : 48.0 KHz
    Frame rate                               : 31.250 fps (1536 spf)
    Compression mode                         : Lossy
    Stream size                              : 384 MiB (2%)
    Title                                    : Independence.Day.Resurgence.2016.1080p.3D.BluRay.Half-OU.x264.DTS-HD.MA.7.1-FGT
    Language                                 : English
    Default                                  : No
    Forced                                   : No

    Audio #4
    ID                                       : 5
    Format                                   : AC-3
    Format/Info                              : Audio Coding 3
    Mode extension                           : CM (complete main)
    Format settings, Endianness              : Big
    Codec ID                                 : A_AC3
    Duration                                 : 1h 59mn
    Bit rate mode                            : Constant
    Bit rate                                 : 448 Kbps
    Channel(s)                               : 6 channels
    Channel positions                        : Front: L C R, Side: L R, LFE
    Sampling rate                            : 48.0 KHz
    Frame rate                               : 31.250 fps (1536 spf)
    Compression mode                         : Lossy
    Stream size                              : 384 MiB (2%)
    Title                                    : Independence.Day.Resurgence.2016.1080p.3D.BluRay.Half-OU.x264.DTS-HD.MA.7.1-FGT
    Language                                 : Spanish
    Default                                  : No
    Forced                                   : No

    Audio #5
    ID                                       : 6
    Format                                   : AC-3
    Format/Info                              : Audio Coding 3
    Mode extension                           : CM (complete main)
    Format settings, Endianness              : Big
    Codec ID                                 : A_AC3
    Duration                                 : 1h 59mn
    Bit rate mode                            : Constant
    Bit rate                                 : 448 Kbps
    Channel(s)                               : 6 channels
    Channel positions                        : Front: L C R, Side: L R, LFE
    Sampling rate                            : 48.0 KHz
    Frame rate                               : 31.250 fps (1536 spf)
    Compression mode                         : Lossy
    Stream size                              : 384 MiB (2%)
    Title                                    : Independence.Day.Resurgence.2016.1080p.3D.BluRay.Half-OU.x264.DTS-HD.MA.7.1-FGT
    Language                                 : French
    Default                                  : No
    Forced                                   : No

    Audio #6
    ID                                       : 7
    Format                                   : AC-3
    Format/Info                              : Audio Coding 3
    Mode extension                           : CM (complete main)
    Format settings, Endianness              : Big
    Codec ID                                 : A_AC3
    Duration                                 : 1h 59mn
    Bit rate mode                            : Constant
    Bit rate                                 : 448 Kbps
    Channel(s)                               : 6 channels
    Channel positions                        : Front: L C R, Side: L R, LFE
    Sampling rate                            : 48.0 KHz
    Frame rate                               : 31.250 fps (1536 spf)
    Compression mode                         : Lossy
    Stream size                              : 384 MiB (2%)
    Title                                    : Independence.Day.Resurgence.2016.1080p.3D.BluRay.Half-OU.x264.DTS-HD.MA.7.1-FGT
    Language                                 : Portuguese
    Default                                  : No
    Forced                                   : No

    Audio #7
    ID                                       : 8
    Format                                   : DTS
    Format/Info                              : Digital Theater Systems
    Mode                                     : 16
    Format settings, Endianness              : Big
    Codec ID                                 : A_DTS
    Duration                                 : 1h 59mn
    Bit rate mode                            : Constant
    Bit rate                                 : 768 Kbps
    Channel(s)                               : 6 channels
    Channel positions                        : Front: L C R, Side: L R, LFE
    Sampling rate                            : 48.0 KHz
    Frame rate                               : 93.750 fps (512 spf)
    Bit depth                                : 24 bits
    Compression mode                         : Lossy
    Stream size                              : 658 MiB (3%)
    Title                                    : Independence.Day.Resurgence.2016.1080p.3D.BluRay.Half-OU.x264.DTS-HD.MA.7.1-FGT
    Language                                 : Russian
    Default                                  : No
    Forced                                   : No

    Audio #8
    ID                                       : 9
    Format                                   : AC-3
    Format/Info                              : Audio Coding 3
    Mode extension                           : CM (complete main)
    Format settings, Endianness              : Big
    Codec ID                                 : A_AC3
    Duration                                 : 1h 59mn
    Bit rate mode                            : Constant
    Bit rate                                 : 448 Kbps
    Channel(s)                               : 6 channels
    Channel positions                        : Front: L C R, Side: L R, LFE
    Sampling rate                            : 48.0 KHz
    Frame rate                               : 31.250 fps (1536 spf)
    Compression mode                         : Lossy
    Stream size                              : 384 MiB (2%)
    Title                                    : Independence.Day.Resurgence.2016.1080p.3D.BluRay.Half-OU.x264.DTS-HD.MA.7.1-FGT
    Language                                 : Ukrainian
    Default                                  : No
    Forced                                   : No

    Text #1
    ID                                       : 10
    Format                                   : PGS
    Muxing mode                              : zlib
    Codec ID                                 : S_HDMV/PGS
    Codec ID/Info                            : Picture based subtitle format used on BDs/HD-DVDs
    Title                                    : English-FORCED-PGS
    Language                                 : English
    Default                                  : Yes
    Forced                                   : Yes

    Text #2
    ID                                       : 11
    Format                                   : PGS
    Muxing mode                              : zlib
    Codec ID                                 : S_HDMV/PGS
    Codec ID/Info                            : Picture based subtitle format used on BDs/HD-DVDs
    Title                                    : English-PGS
    Language                                 : English
    Default                                  : No
    Forced                                   : No

    Text #3
    ID                                       : 12
    Format                                   : PGS
    Muxing mode                              : zlib
    Codec ID                                 : S_HDMV/PGS
    Codec ID/Info                            : Picture based subtitle format used on BDs/HD-DVDs
    Title                                    : Spanish-PGS
    Language                                 : Spanish
    Default                                  : No
    Forced                                   : No

    Text #4
    ID                                       : 13
    Format                                   : PGS
    Muxing mode                              : zlib
    Codec ID                                 : S_HDMV/PGS
    Codec ID/Info                            : Picture based subtitle format used on BDs/HD-DVDs
    Title                                    : French-PGS
    Language                                 : French
    Default                                  : No
    Forced                                   : No

    Text #5
    ID                                       : 14
    Format                                   : PGS
    Muxing mode                              : zlib
    Codec ID                                 : S_HDMV/PGS
    Codec ID/Info                            : Picture based subtitle format used on BDs/HD-DVDs
    Title                                    : Danish-PGS
    Language                                 : Danish
    Default                                  : No
    Forced                                   : No

    Text #6
    ID                                       : 15
    Format                                   : PGS
    Muxing mode                              : zlib
    Codec ID                                 : S_HDMV/PGS
    Codec ID/Info                            : Picture based subtitle format used on BDs/HD-DVDs
    Title                                    : Finnish-PGS
    Language                                 : Finnish
    Default                                  : No
    Forced                                   : No

    Text #7
    ID                                       : 16
    Format                                   : PGS
    Muxing mode                              : zlib
    Codec ID                                 : S_HDMV/PGS
    Codec ID/Info                            : Picture based subtitle format used on BDs/HD-DVDs
    Title                                    : Norwegian-PGS
    Language                                 : Norwegian
    Default                                  : No
    Forced                                   : No

    Text #8
    ID                                       : 17
    Format                                   : PGS
    Muxing mode                              : zlib
    Codec ID                                 : S_HDMV/PGS
    Codec ID/Info                            : Picture based subtitle format used on BDs/HD-DVDs
    Title                                    : Portuguese-PGS
    Language                                 : Portuguese
    Default                                  : No
    Forced                                   : No

    Text #9
    ID                                       : 18
    Format                                   : PGS
    Muxing mode                              : zlib
    Codec ID                                 : S_HDMV/PGS
    Codec ID/Info                            : Picture based subtitle format used on BDs/HD-DVDs
    Title                                    : Russian-PGS
    Language                                 : Russian
    Default                                  : No
    Forced                                   : No

    Text #10
    ID                                       : 19
    Format                                   : PGS
    Muxing mode                              : zlib
    Codec ID                                 : S_HDMV/PGS
    Codec ID/Info                            : Picture based subtitle format used on BDs/HD-DVDs
    Title                                    : Swedish-PGS
    Language                                 : Swedish
    Default                                  : No
    Forced                                   : No

    Text #11
    ID                                       : 20
    Format                                   : PGS
    Muxing mode                              : zlib
    Codec ID                                 : S_HDMV/PGS
    Codec ID/Info                            : Picture based subtitle format used on BDs/HD-DVDs
    Title                                    : Estonian-PGS
    Language                                 : Estonian
    Default                                  : No
    Forced                                   : No

    Text #12
    ID                                       : 21
    Format                                   : PGS
    Muxing mode                              : zlib
    Codec ID                                 : S_HDMV/PGS
    Codec ID/Info                            : Picture based subtitle format used on BDs/HD-DVDs
    Title                                    : Latvian-PGS
    Language                                 : Latvian
    Default                                  : No
    Forced                                   : No

    Text #13
    ID                                       : 22
    Format                                   : PGS
    Muxing mode                              : zlib
    Codec ID                                 : S_HDMV/PGS
    Codec ID/Info                            : Picture based subtitle format used on BDs/HD-DVDs
    Title                                    : Lithuanian-PGS
    Language                                 : Lithuanian
    Default                                  : No
    Forced                                   : No

    Text #14
    ID                                       : 23
    Format                                   : PGS
    Muxing mode                              : zlib
    Codec ID                                 : S_HDMV/PGS
    Codec ID/Info                            : Picture based subtitle format used on BDs/HD-DVDs
    Title                                    : Ukrainian-PGS
    Language                                 : Ukrainian
    Default                                  : No
    Forced                                   : No





    03434476434957625613_thumb.jpg

    17246573502180585490_thumb.jpg

    40739091184729956648_thumb.jpg

    57571458727371610028_thumb.jpg

    63299745337812238595_thumb.jpg

    75880394994311073992_thumb.jpg




    游客,如果您要查看本帖隐藏内容请回复



    Video
    ID                                       : 1
    Format                                   : AVC
    Format/Info                              : Advanced Video Codec
    Format profile                           : High@L4.1
    Format settings, CABAC                   : Yes
    Format settings, ReFrames                : 5 frames
    Codec ID                                 : V_MPEG4/ISO/AVC
    Duration                                 : 1h 59mn
    Bit rate                                 : 8 952 Kbps
    Width                                    : 1 920 pixels
    Height                                   : 800 pixels
    Display aspect ratio                     : 2.40:1
    Frame rate mode                          : Constant
    Frame rate                               : 23.976 fps
    Color space                              : YUV
    Chroma subsampling                       : 4:2:0
    Bit depth                                : 8 bits
    Scan type                                : Progressive
    Bits/(Pixel*Frame)                       : 0.243
    Stream size                              : 7.48 GiB (86%)
    Writing library                          : x264 core 148 r2692 64f4e24
    Encoding settings                        : cabac=1 / ref=5 / deblock=1:0:0 / analyse=0x3:0x133 / me=umh / subme=7 / psy=1 / psy_rd=1.00:0.00 / mixed_ref=1 / me_range=16 / chroma_me=1 / trellis=1 / 8x8dct=1 / cqm=0 / deadzone=21,11 / fast_pskip=0 / chroma_qp_offset=-2 / threads=24 / lookahead_threads=4 / sliced_threads=0 / nr=0 / decimate=1 / interlaced=0 / bluray_compat=0 / constrained_intra=0 / bframes=3 / b_pyramid=2 / b_adapt=1 / b_bias=0 / direct=1 / weightb=1 / open_gop=0 / weightp=2 / keyint=250 / keyint_min=23 / scenecut=40 / intra_refresh=0 / rc_lookahead=40 / rc=2pass / mbtree=1 / bitrate=8952 / ratetol=1.0 / qcomp=0.60 / qpmin=0 / qpmax=69 / qpstep=4 / cplxblur=20.0 / qblur=0.5 / ip_ratio=1.40 / aq=1:1.00
    Language                                 : English
    Default                                  : Yes
    Forced                                   : No

    Audio
    ID                                       : 2
    Format                                   : DTS
    Format/Info                              : Digital Theater Systems
    Format profile                           : ES Matrix / Core
    Mode                                     : 16
    Format settings, Endianness              : Big
    Codec ID                                 : A_DTS
    Duration                                 : 1h 59mn
    Bit rate mode                            : Constant
    Bit rate                                 : 1 509 Kbps
    Channel(s)                               : 7 channels / 6 channels
    Channel positions                        : Front: L C R, Side: L R, Back: C, LFE / Front: L C R, Side: L R, LFE
    Sampling rate                            : 48.0 KHz
    Frame rate                               : 93.750 fps (512 spf)
    Bit depth                                : 24 bits
    Compression mode                         : Lossy
    Stream size                              : 1.26 GiB (14%)
    Language                                 : English
    Default                                  : Yes
    Forced                                   : No

    Text
    ID                                       : 3
    Format                                   : UTF-8
    Codec ID                                 : S_TEXT/UTF8
    Codec ID/Info                            : UTF-8 Plain Text
    Duration                                 : 7s 758ms
    Bit rate                                 : 110 bps
    Count of elements                        : 3
    Stream size                              : 107 Bytes (0%)
    Title                                    : English-Forced
    Language                                 : English
    Default                                  : Yes
    Forced                                   : Yes



    05360997495836624265_thumb.jpg

    游客,如果您要查看本帖隐藏内容请回复


    点评

    ▇▇▇▇看【黄】片网^址 www.golden-care.cn 复制到浏览器打开▇▇▇▇▇▇▇▇看【黄】片网^址 www.golden-care.cn 复制到浏览器打开▇▇▇▇   发表于 2016-10-13 08:18
  • TA的每日心情

    2017-1-13 18:53
  • 签到天数: 291 天

    [LV.8]以坛为家III

    发表于 2016-10-11 12:29:48 | 显示全部楼层
    谢谢楼主分享
    回复 支持 反对

    使用道具 举报

  • TA的每日心情
    慵懒
    2017-7-31 19:51
  • 签到天数: 428 天

    [LV.9]以坛为家II

    发表于 2016-10-11 13:17:04 | 显示全部楼层
            打印 上一主题 下一主题 [左右] [影视发布] [独立日:卷土重来3D Independence.Day.Resurgence.2016.3D][1080p][左右半宽][MKV 8.75G]
    回复 支持 反对

    使用道具 举报

    匿名  发表于 2016-10-11 13:31:44
    谢谢分享!
    匿名  发表于 2016-10-11 13:31:54
    谢谢分享!
    匿名  发表于 2016-10-11 13:32:26
    谢谢分享!
    匿名  发表于 2016-10-11 13:33:02
    谢谢分享!
  • TA的每日心情
    开心
    2 小时前
  • 签到天数: 1231 天

    [LV.10]以坛为家III

    发表于 2016-10-11 13:47:12 | 显示全部楼层
    多谢分享~~~~~~~~~~~~~~~~~~~~~~~~~~~~~
    回复 支持 反对

    使用道具 举报

  • TA的每日心情
    开心
    2017-7-29 15:48
  • 签到天数: 1145 天

    [LV.10]以坛为家III

    发表于 2016-10-11 14:03:03 | 显示全部楼层
    太好了,终于出来了!
    回复 支持 反对

    使用道具 举报

    高级模式
    B Color Image Link Quote Code Smilies

    本版积分规则

    免责申明|小黑屋|手机版|Archiver|网站地图| 3D一族论坛  

    Copyright © 2001-2015 Comsenz Inc.   All Rights Reserved.

    Powered by Discuz! X3.2( 沪ICP备14045620号-1 )

    快速回复 返回顶部 返回列表