请选择 进入手机版 | 继续访问电脑版
 找回密码

3D一族论坛

查看: 6741|回复: 287

[左右] [超能敢死队3D Ghostbusters.2016.3D][1080p][MKV 18.57G/18.96G][BT][简繁字幕]

  [复制链接]
  • TA的每日心情
    开心
    2017-10-30 14:49
  • 签到天数: 1666 天

    [LV.Master]伴坛终老

    发表于 2016-10-12 20:05:43 | 显示全部楼层 |阅读模式
    影片截图:

    data/attachment/forum/201610/12/200044kbeo82z8bya5ayrh.jpg

         
      片        名: Ghostbusters.2016.3D
      译        名: 超能敢死队3D//捉鬼敢死队3/魔鬼克星:麻辣异攻队/新捉鬼敢死队/女版捉鬼敢死队
      类        别: 动作 喜剧 科幻 
      国        家: 欧美
      语        言: 英语
      字        幕: 中文字幕
      集        数:
      文件格式: MKV
      视频尺寸: 1920*1080
      文件大小: 18.57GB/18.96GB
      上映时间: 2016-07-15(美国)
      影片导演: 保罗·费格 Paul Feig
      主要演员: 梅丽莎·麦卡西 Melissa McCarthy
        克里斯汀·韦格 Kristen Wiig
        凯特·麦克金农 Kate McKinnon
      推荐等级: ★★★★★
         
    下载地址:
    [下载方式]: bt下载
    [分辨率]: 1080p
    [迅雷地址]:
    [网盘下载]:
    影片简介: fangfang
    哥伦毕业大学教授Erin Gilbert(克里斯汀·韦格 Kristen Wiig 饰)和Abby Yates(梅丽莎·麦卡西 Melissa McCarthy 饰)是合作愉快的作家。如今,为了告诉人们“幽灵是存在的”,她们将一起编著一本关于幽灵的书籍。当对“鬼魂”的深入研究中,当“鬼魂”入侵她们所居住的城市时,她们和另外两个搭档Jillian Holtzmann(凯特·麦克金农 Kate McKinnon 饰)、Patty Tolan(莱斯莉·琼斯 Leslie Jones 饰)一起投入到拯救城市、拯救世界的行动中……
    本帖最后由 xdwl 于 2016-10-12 21:19 编辑

    Ghostbusters.2016.jpg



    ◎译  名 超能敢死队/捉鬼敢死队3/魔鬼克星:麻辣异攻队/新捉鬼敢死队/女版捉鬼敢死队

    ◎片  名 Ghostbusters
    ◎年  代 2016
    ◎国  家 美国
    ◎类  别 动作/喜剧/科幻
    ◎语  言 英语
    ◎上映日期 2016-07-15(美国)
    ◎IMDb评分  5.5/10 from 85,161 users
    ◎IMDb链接  http://www.imdb.com/title/tt1289401/
    ◎豆瓣评分 6.3/10 from 4,463 users
    ◎豆瓣链接 https://movie.douban.com/subject/3212398/
    ◎片  长 116分钟
    ◎导  演 保罗·费格 Paul Feig
    ◎主  演 梅丽莎·麦卡西 Melissa McCarthy
          克里斯汀·韦格 Kristen Wiig
          凯特·麦克金农 Kate McKinnon
          莱斯莉·琼斯 Leslie Jones
          克里斯·海姆斯沃斯 Chris Hemsworth
          比尔·默瑞 Bill Murray
          西格妮·韦弗 Sigourney Weaver
          塞西莉·斯特朗 Cecily Strong
          迈克尔·威廉姆斯 Michael K. Williams
          丹·艾克罗伊德 Dan Aykroyd
          安迪·加西亚 Andy Garcia
          内森·科德里 Nathan Corddry
          马特·沃尔什 Matt Walsh
          托比·胡斯 Toby Huss
          埃涅·赫德森 Ernie Hudson

    ◎简  介

      哥伦毕业大学教授Erin Gilbert(克里斯汀·韦格 Kristen Wiig 饰)和Abby Yates(梅丽莎·麦卡西 Melissa McCarthy 饰)是合作愉快的作家。如今,为了告诉人们“幽灵是存在的”,她们将一起编著一本关于幽灵的书籍。当对“鬼魂”的深入研究中,当“鬼魂”入侵她们所居住的城市时,她们和另外两个搭档Jillian Holtzmann(凯特·麦克金农 Kate McKinnon 饰)、Patty Tolan(莱斯莉·琼斯 Leslie Jones 饰)一起投入到拯救城市、拯救世界的行动中……



    Video
    ID                                       : 1
    Format                                   : AVC
    Format/Info                              : Advanced Video Codec
    Format profile                           : High@L4.1
    Format settings, CABAC                   : Yes
    Format settings, ReFrames                : 2 frames
    Format settings, GOP                     : M=3, N=24
    Codec ID                                 : V_MPEG4/ISO/AVC
    Duration                                 : 1h 56mn
    Nominal bit rate                         : 15.5 Mbps
    Width                                    : 1 920 pixels
    Height                                   : 1 080 pixels
    Display aspect ratio                     : 16:9
    Frame rate mode                          : Constant
    Frame rate                               : 23.976 (24000/1001) fps
    Color space                              : YUV
    Chroma subsampling                       : 4:2:0
    Bit depth                                : 8 bits
    Scan type                                : Progressive
    Bits/(Pixel*Frame)                       : 0.312
    Title                                    : Ghostbusters.2016.1080p.3D.BluRay.Half-SBS.x264.DTS-HD.MA.5.1-FGT
    Writing library                          : x264 core 142
    Encoding settings                        : cabac=1 / ref=1 / deblock=1:-1:-1 / analyse=0x3:0 / me=hex / subme=5 / psy=0 / mixed_ref=0 / me_range=16 / chroma_me=1 / trellis=0 / 8x8dct=1 / cqm=0 / deadzone=21,11 / fast_pskip=0 / chroma_qp_offset=0 / threads=8 / lookahead_threads=2 / sliced_threads=0 / nr=0 / decimate=1 / interlaced=0 / bluray_compat=0 / constrained_intra=0 / bframes=2 / b_pyramid=0 / b_adapt=1 / b_bias=0 / direct=1 / weightb=0 / open_gop=0 / weightp=0 / keyint=24 / keyint_min=13 / scenecut=40 / intra_refresh=0 / rc=abr / mbtree=0 / bitrate=15500 / ratetol=1.0 / qcomp=0.60 / qpmin=0 / qpmax=69 / qpstep=4 / ip_ratio=1.40 / pb_ratio=1.30 / aq=1:1.00
    Default                                  : Yes
    Forced                                   : No
    Color range                              : Limited
    Color primaries                          : BT.709
    Transfer characteristics                 : BT.709
    Matrix coefficients                      : BT.709

    Audio #1
    ID                                       : 2
    Format                                   : DTS
    Format/Info                              : Digital Theater Systems
    Format profile                           : MA / Core
    Mode                                     : 16
    Format settings, Endianness              : Big
    Codec ID                                 : A_DTS
    Duration                                 : 1h 56mn
    Bit rate mode                            : Variable / Constant
    Bit rate                                 : Unknown / 1 509 Kbps
    Channel(s)                               : 6 channels
    Channel positions                        : Front: L C R, Side: L R, LFE
    Sampling rate                            : 48.0 KHz
    Frame rate                               : 93.750 fps (512 spf)
    Bit depth                                : 16 bits
    Compression mode                         : Lossless / Lossy
    Title                                    : Ghostbusters.2016.1080p.3D.BluRay.Half-SBS.x264.DTS-HD.MA.5.1-FGT
    Language                                 : English
    Default                                  : Yes
    Forced                                   : No

    Audio #2
    ID                                       : 3
    Format                                   : DTS
    Format/Info                              : Digital Theater Systems
    Mode                                     : 16
    Format settings, Endianness              : Big
    Codec ID                                 : A_DTS
    Duration                                 : 1h 56mn
    Bit rate mode                            : Constant
    Bit rate                                 : 1 509 Kbps
    Channel(s)                               : 6 channels
    Channel positions                        : Front: L C R, Side: L R, LFE
    Sampling rate                            : 48.0 KHz
    Frame rate                               : 93.750 fps (512 spf)
    Bit depth                                : 16 bits
    Compression mode                         : Lossy
    Stream size                              : 1.23 GiB (7%)
    Title                                    : Ghostbusters.2016.1080p.3D.BluRay.Half-SBS.x264.DTS-HD.MA.5.1-FGT
    Language                                 : English
    Default                                  : No
    Forced                                   : No

    Audio #3
    ID                                       : 4
    Format                                   : AC-3
    Format/Info                              : Audio Coding 3
    Mode extension                           : CM (complete main)
    Format settings, Endianness              : Big
    Codec ID                                 : A_AC3
    Duration                                 : 1h 56mn
    Bit rate mode                            : Constant
    Bit rate                                 : 640 Kbps
    Channel(s)                               : 6 channels
    Channel positions                        : Front: L C R, Side: L R, LFE
    Sampling rate                            : 48.0 KHz
    Frame rate                               : 31.250 fps (1536 spf)
    Compression mode                         : Lossy
    Stream size                              : 534 MiB (3%)
    Title                                    : Ghostbusters.2016.1080p.3D.BluRay.Half-SBS.x264.DTS-HD.MA.5.1-FGT
    Language                                 : English
    Default                                  : No
    Forced                                   : No

    Audio #4
    ID                                       : 5
    Format                                   : AC-3
    Format/Info                              : Audio Coding 3
    Mode extension                           : CM (complete main)
    Format settings, Endianness              : Big
    Codec ID                                 : A_AC3
    Duration                                 : 1h 56mn
    Bit rate mode                            : Constant
    Bit rate                                 : 640 Kbps
    Channel(s)                               : 6 channels
    Channel positions                        : Front: L C R, Side: L R, LFE
    Sampling rate                            : 48.0 KHz
    Frame rate                               : 31.250 fps (1536 spf)
    Compression mode                         : Lossy
    Stream size                              : 534 MiB (3%)
    Title                                    : Ghostbusters.2016.1080p.3D.BluRay.Half-SBS.x264.DTS-HD.MA.5.1-FGT
    Language                                 : French
    Default                                  : No
    Forced                                   : No

    Audio #5
    ID                                       : 6
    Format                                   : AC-3
    Format/Info                              : Audio Coding 3
    Mode extension                           : CM (complete main)
    Format settings, Endianness              : Big
    Codec ID                                 : A_AC3
    Duration                                 : 1h 56mn
    Bit rate mode                            : Constant
    Bit rate                                 : 640 Kbps
    Channel(s)                               : 6 channels
    Channel positions                        : Front: L C R, Side: L R, LFE
    Sampling rate                            : 48.0 KHz
    Frame rate                               : 31.250 fps (1536 spf)
    Compression mode                         : Lossy
    Stream size                              : 534 MiB (3%)
    Title                                    : Ghostbusters.2016.1080p.3D.BluRay.Half-SBS.x264.DTS-HD.MA.5.1-FGT
    Language                                 : Spanish
    Default                                  : No
    Forced                                   : No

    Audio #6
    ID                                       : 7
    Format                                   : AC-3
    Format/Info                              : Audio Coding 3
    Mode extension                           : CM (complete main)
    Format settings, Endianness              : Big
    Codec ID                                 : A_AC3
    Duration                                 : 1h 56mn
    Bit rate mode                            : Constant
    Bit rate                                 : 640 Kbps
    Channel(s)                               : 6 channels
    Channel positions                        : Front: L C R, Side: L R, LFE
    Sampling rate                            : 48.0 KHz
    Frame rate                               : 31.250 fps (1536 spf)
    Compression mode                         : Lossy
    Stream size                              : 534 MiB (3%)
    Title                                    : Ghostbusters.2016.1080p.3D.BluRay.Half-SBS.x264.DTS-HD.MA.5.1-FGT
    Language                                 : Spanish
    Default                                  : No
    Forced                                   : No

    Audio #7
    ID                                       : 8
    Format                                   : AC-3
    Format/Info                              : Audio Coding 3
    Mode extension                           : CM (complete main)
    Format settings, Endianness              : Big
    Codec ID                                 : A_AC3
    Duration                                 : 1h 56mn
    Bit rate mode                            : Constant
    Bit rate                                 : 640 Kbps
    Channel(s)                               : 6 channels
    Channel positions                        : Front: L C R, Side: L R, LFE
    Sampling rate                            : 48.0 KHz
    Frame rate                               : 31.250 fps (1536 spf)
    Compression mode                         : Lossy
    Stream size                              : 534 MiB (3%)
    Title                                    : Ghostbusters.2016.1080p.3D.BluRay.Half-SBS.x264.DTS-HD.MA.5.1-FGT
    Language                                 : Thai
    Default                                  : No
    Forced                                   : No

    Text #1
    ID                                       : 9
    Format                                   : PGS
    Muxing mode                              : zlib
    Codec ID                                 : S_HDMV/PGS
    Codec ID/Info                            : Picture based subtitle format used on BDs/HD-DVDs
    Title                                    : English-SDH-PGS
    Language                                 : English
    Default                                  : No
    Forced                                   : No

    Text #2
    ID                                       : 10
    Format                                   : PGS
    Muxing mode                              : zlib
    Codec ID                                 : S_HDMV/PGS
    Codec ID/Info                            : Picture based subtitle format used on BDs/HD-DVDs
    Title                                    : English-PGS
    Language                                 : English
    Default                                  : No
    Forced                                   : No

    Text #3
    ID                                       : 11
    Format                                   : PGS
    Muxing mode                              : zlib
    Codec ID                                 : S_HDMV/PGS
    Codec ID/Info                            : Picture based subtitle format used on BDs/HD-DVDs
    Title                                    : Chinese-PGS
    Language                                 : Chinese
    Default                                  : No
    Forced                                   : No

    Text #4
    ID                                       : 12
    Format                                   : PGS
    Muxing mode                              : zlib
    Codec ID                                 : S_HDMV/PGS
    Codec ID/Info                            : Picture based subtitle format used on BDs/HD-DVDs
    Title                                    : Chinese-PGS
    Language                                 : Chinese
    Default                                  : No
    Forced                                   : No

    Text #5
    ID                                       : 13
    Format                                   : PGS
    Muxing mode                              : zlib
    Codec ID                                 : S_HDMV/PGS
    Codec ID/Info                            : Picture based subtitle format used on BDs/HD-DVDs
    Title                                    : Chinese-PGS
    Language                                 : Chinese
    Default                                  : No
    Forced                                   : No

    Text #6
    ID                                       : 14
    Format                                   : PGS
    Muxing mode                              : zlib
    Codec ID                                 : S_HDMV/PGS
    Codec ID/Info                            : Picture based subtitle format used on BDs/HD-DVDs
    Title                                    : French-PGS
    Language                                 : French
    Default                                  : No
    Forced                                   : No

    Text #7
    ID                                       : 15
    Format                                   : PGS
    Muxing mode                              : zlib
    Codec ID                                 : S_HDMV/PGS
    Codec ID/Info                            : Picture based subtitle format used on BDs/HD-DVDs
    Title                                    : Indonesian-PGS
    Language                                 : Indonesian
    Default                                  : No
    Forced                                   : No

    Text #8
    ID                                       : 16
    Format                                   : PGS
    Muxing mode                              : zlib
    Codec ID                                 : S_HDMV/PGS
    Codec ID/Info                            : Picture based subtitle format used on BDs/HD-DVDs
    Title                                    : Korean-PGS
    Language                                 : Korean
    Default                                  : No
    Forced                                   : No

    Text #9
    ID                                       : 17
    Format                                   : PGS
    Muxing mode                              : zlib
    Codec ID                                 : S_HDMV/PGS
    Codec ID/Info                            : Picture based subtitle format used on BDs/HD-DVDs
    Title                                    : Spanish-PGS
    Language                                 : Spanish
    Default                                  : No
    Forced                                   : No

    Text #10
    ID                                       : 18
    Format                                   : PGS
    Muxing mode                              : zlib
    Codec ID                                 : S_HDMV/PGS
    Codec ID/Info                            : Picture based subtitle format used on BDs/HD-DVDs
    Title                                    : Thai-PGS
    Language                                 : Thai
    Default                                  : No
    Forced                                   : No

    Text #11
    ID                                       : 19
    Format                                   : PGS
    Muxing mode                              : zlib
    Codec ID                                 : S_HDMV/PGS
    Codec ID/Info                            : Picture based subtitle format used on BDs/HD-DVDs
    Title                                    : Vietnamese-pgs
    Language                                 : Vietnamese
    Default                                  : No
    Forced                                   : No

    Text #12
    ID                                       : 20
    Format                                   : PGS
    Muxing mode                              : zlib
    Codec ID                                 : S_HDMV/PGS
    Codec ID/Info                            : Picture based subtitle format used on BDs/HD-DVDs
    Title                                    : French-FORCED-PGS
    Language                                 : French
    Default                                  : No
    Forced                                   : No








    28958036377665521338_thumb.jpg

    46909768967633483873_thumb.jpg

    75114667918446806942_thumb.jpg

    76375299484361986308_thumb.jpg

    95869801220222644240_thumb.jpg

    54403211329002044007_thumb.jpg




    游客,如果您要查看本帖隐藏内容请回复


    Video
    ID                                       : 1
    Format                                   : AVC
    Format/Info                              : Advanced Video Codec
    Format profile                           : High@L4.1
    Format settings, CABAC                   : Yes
    Format settings, ReFrames                : 2 frames
    Format settings, GOP                     : M=3, N=24
    Codec ID                                 : V_MPEG4/ISO/AVC
    Duration                                 : 1h 56mn
    Nominal bit rate                         : 16.0 Mbps
    Width                                    : 1 920 pixels
    Height                                   : 1 080 pixels
    Display aspect ratio                     : 16:9
    Frame rate mode                          : Constant
    Frame rate                               : 23.976 (24000/1001) fps
    Color space                              : YUV
    Chroma subsampling                       : 4:2:0
    Bit depth                                : 8 bits
    Scan type                                : Progressive
    Bits/(Pixel*Frame)                       : 0.322
    Title                                    : Ghostbusters.2016.1080p.3D.BluRay.Half-OU.x264.DTS-HD.MA.5.1-FGT
    Writing library                          : x264 core 142
    Encoding settings                        : cabac=1 / ref=1 / deblock=1:-1:-1 / analyse=0x3:0 / me=hex / subme=5 / psy=0 / mixed_ref=0 / me_range=16 / chroma_me=1 / trellis=0 / 8x8dct=1 / cqm=0 / deadzone=21,11 / fast_pskip=0 / chroma_qp_offset=0 / threads=8 / lookahead_threads=2 / sliced_threads=0 / nr=0 / decimate=1 / interlaced=0 / bluray_compat=0 / constrained_intra=0 / bframes=2 / b_pyramid=0 / b_adapt=1 / b_bias=0 / direct=1 / weightb=0 / open_gop=0 / weightp=0 / keyint=24 / keyint_min=13 / scenecut=40 / intra_refresh=0 / rc=abr / mbtree=0 / bitrate=16000 / ratetol=1.0 / qcomp=0.60 / qpmin=0 / qpmax=69 / qpstep=4 / ip_ratio=1.40 / pb_ratio=1.30 / aq=1:1.00
    Default                                  : Yes
    Forced                                   : No
    Color range                              : Limited
    Color primaries                          : BT.709
    Transfer characteristics                 : BT.709
    Matrix coefficients                      : BT.709

    Audio #1
    ID                                       : 2
    Format                                   : DTS
    Format/Info                              : Digital Theater Systems
    Format profile                           : MA / Core
    Mode                                     : 16
    Format settings, Endianness              : Big
    Codec ID                                 : A_DTS
    Duration                                 : 1h 56mn
    Bit rate mode                            : Variable / Constant
    Bit rate                                 : Unknown / 1 509 Kbps
    Channel(s)                               : 6 channels
    Channel positions                        : Front: L C R, Side: L R, LFE
    Sampling rate                            : 48.0 KHz
    Frame rate                               : 93.750 fps (512 spf)
    Bit depth                                : 16 bits
    Compression mode                         : Lossless / Lossy
    Title                                    : Ghostbusters.2016.1080p.3D.BluRay.Half-OU.x264.DTS-HD.MA.5.1-FGT
    Language                                 : English
    Default                                  : Yes
    Forced                                   : No

    Audio #2
    ID                                       : 3
    Format                                   : DTS
    Format/Info                              : Digital Theater Systems
    Mode                                     : 16
    Format settings, Endianness              : Big
    Codec ID                                 : A_DTS
    Duration                                 : 1h 56mn
    Bit rate mode                            : Constant
    Bit rate                                 : 1 509 Kbps
    Channel(s)                               : 6 channels
    Channel positions                        : Front: L C R, Side: L R, LFE
    Sampling rate                            : 48.0 KHz
    Frame rate                               : 93.750 fps (512 spf)
    Bit depth                                : 16 bits
    Compression mode                         : Lossy
    Stream size                              : 1.23 GiB (6%)
    Title                                    : Ghostbusters.2016.1080p.3D.BluRay.Half-OU.x264.DTS-HD.MA.5.1-FGT
    Language                                 : English
    Default                                  : No
    Forced                                   : No

    Audio #3
    ID                                       : 4
    Format                                   : AC-3
    Format/Info                              : Audio Coding 3
    Mode extension                           : CM (complete main)
    Format settings, Endianness              : Big
    Codec ID                                 : A_AC3
    Duration                                 : 1h 56mn
    Bit rate mode                            : Constant
    Bit rate                                 : 640 Kbps
    Channel(s)                               : 6 channels
    Channel positions                        : Front: L C R, Side: L R, LFE
    Sampling rate                            : 48.0 KHz
    Frame rate                               : 31.250 fps (1536 spf)
    Compression mode                         : Lossy
    Stream size                              : 534 MiB (3%)
    Title                                    : Ghostbusters.2016.1080p.3D.BluRay.Half-OU.x264.DTS-HD.MA.5.1-FGT
    Language                                 : English
    Default                                  : No
    Forced                                   : No

    Audio #4
    ID                                       : 5
    Format                                   : AC-3
    Format/Info                              : Audio Coding 3
    Mode extension                           : CM (complete main)
    Format settings, Endianness              : Big
    Codec ID                                 : A_AC3
    Duration                                 : 1h 56mn
    Bit rate mode                            : Constant
    Bit rate                                 : 640 Kbps
    Channel(s)                               : 6 channels
    Channel positions                        : Front: L C R, Side: L R, LFE
    Sampling rate                            : 48.0 KHz
    Frame rate                               : 31.250 fps (1536 spf)
    Compression mode                         : Lossy
    Stream size                              : 534 MiB (3%)
    Title                                    : Ghostbusters.2016.1080p.3D.BluRay.Half-OU.x264.DTS-HD.MA.5.1-FGT
    Language                                 : French
    Default                                  : No
    Forced                                   : No

    Audio #5
    ID                                       : 6
    Format                                   : AC-3
    Format/Info                              : Audio Coding 3
    Mode extension                           : CM (complete main)
    Format settings, Endianness              : Big
    Codec ID                                 : A_AC3
    Duration                                 : 1h 56mn
    Bit rate mode                            : Constant
    Bit rate                                 : 640 Kbps
    Channel(s)                               : 6 channels
    Channel positions                        : Front: L C R, Side: L R, LFE
    Sampling rate                            : 48.0 KHz
    Frame rate                               : 31.250 fps (1536 spf)
    Compression mode                         : Lossy
    Stream size                              : 534 MiB (3%)
    Title                                    : Ghostbusters.2016.1080p.3D.BluRay.Half-OU.x264.DTS-HD.MA.5.1-FGT
    Language                                 : Spanish
    Default                                  : No
    Forced                                   : No

    Audio #6
    ID                                       : 7
    Format                                   : AC-3
    Format/Info                              : Audio Coding 3
    Mode extension                           : CM (complete main)
    Format settings, Endianness              : Big
    Codec ID                                 : A_AC3
    Duration                                 : 1h 56mn
    Bit rate mode                            : Constant
    Bit rate                                 : 640 Kbps
    Channel(s)                               : 6 channels
    Channel positions                        : Front: L C R, Side: L R, LFE
    Sampling rate                            : 48.0 KHz
    Frame rate                               : 31.250 fps (1536 spf)
    Compression mode                         : Lossy
    Stream size                              : 534 MiB (3%)
    Title                                    : Ghostbusters.2016.1080p.3D.BluRay.Half-OU.x264.DTS-HD.MA.5.1-FGT
    Language                                 : Spanish
    Default                                  : No
    Forced                                   : No

    Audio #7
    ID                                       : 8
    Format                                   : AC-3
    Format/Info                              : Audio Coding 3
    Mode extension                           : CM (complete main)
    Format settings, Endianness              : Big
    Codec ID                                 : A_AC3
    Duration                                 : 1h 56mn
    Bit rate mode                            : Constant
    Bit rate                                 : 640 Kbps
    Channel(s)                               : 6 channels
    Channel positions                        : Front: L C R, Side: L R, LFE
    Sampling rate                            : 48.0 KHz
    Frame rate                               : 31.250 fps (1536 spf)
    Compression mode                         : Lossy
    Stream size                              : 534 MiB (3%)
    Title                                    : Ghostbusters.2016.1080p.3D.BluRay.Half-OU.x264.DTS-HD.MA.5.1-FGT
    Language                                 : Thai
    Default                                  : No
    Forced                                   : No

    Text #1
    ID                                       : 9
    Format                                   : PGS
    Muxing mode                              : zlib
    Codec ID                                 : S_HDMV/PGS
    Codec ID/Info                            : Picture based subtitle format used on BDs/HD-DVDs
    Title                                    : English-SDH-PGS
    Language                                 : English
    Default                                  : No
    Forced                                   : No

    Text #2
    ID                                       : 10
    Format                                   : PGS
    Muxing mode                              : zlib
    Codec ID                                 : S_HDMV/PGS
    Codec ID/Info                            : Picture based subtitle format used on BDs/HD-DVDs
    Title                                    : English-PGS
    Language                                 : English
    Default                                  : No
    Forced                                   : No

    Text #3
    ID                                       : 11
    Format                                   : PGS
    Muxing mode                              : zlib
    Codec ID                                 : S_HDMV/PGS
    Codec ID/Info                            : Picture based subtitle format used on BDs/HD-DVDs
    Title                                    : Chinese-PGS
    Language                                 : Chinese
    Default                                  : No
    Forced                                   : No

    Text #4
    ID                                       : 12
    Format                                   : PGS
    Muxing mode                              : zlib
    Codec ID                                 : S_HDMV/PGS
    Codec ID/Info                            : Picture based subtitle format used on BDs/HD-DVDs
    Title                                    : Chinese-PGS
    Language                                 : Chinese
    Default                                  : No
    Forced                                   : No

    Text #5
    ID                                       : 13
    Format                                   : PGS
    Muxing mode                              : zlib
    Codec ID                                 : S_HDMV/PGS
    Codec ID/Info                            : Picture based subtitle format used on BDs/HD-DVDs
    Title                                    : Chinese-PGS
    Language                                 : Chinese
    Default                                  : No
    Forced                                   : No

    Text #6
    ID                                       : 14
    Format                                   : PGS
    Muxing mode                              : zlib
    Codec ID                                 : S_HDMV/PGS
    Codec ID/Info                            : Picture based subtitle format used on BDs/HD-DVDs
    Title                                    : French-PGS
    Language                                 : French
    Default                                  : No
    Forced                                   : No

    Text #7
    ID                                       : 15
    Format                                   : PGS
    Muxing mode                              : zlib
    Codec ID                                 : S_HDMV/PGS
    Codec ID/Info                            : Picture based subtitle format used on BDs/HD-DVDs
    Title                                    : Indonesian-PGS
    Language                                 : Indonesian
    Default                                  : No
    Forced                                   : No

    Text #8
    ID                                       : 16
    Format                                   : PGS
    Muxing mode                              : zlib
    Codec ID                                 : S_HDMV/PGS
    Codec ID/Info                            : Picture based subtitle format used on BDs/HD-DVDs
    Title                                    : Korean-PGS
    Language                                 : Korean
    Default                                  : No
    Forced                                   : No

    Text #9
    ID                                       : 17
    Format                                   : PGS
    Muxing mode                              : zlib
    Codec ID                                 : S_HDMV/PGS
    Codec ID/Info                            : Picture based subtitle format used on BDs/HD-DVDs
    Title                                    : Spanish-PGS
    Language                                 : Spanish
    Default                                  : No
    Forced                                   : No

    Text #10
    ID                                       : 18
    Format                                   : PGS
    Muxing mode                              : zlib
    Codec ID                                 : S_HDMV/PGS
    Codec ID/Info                            : Picture based subtitle format used on BDs/HD-DVDs
    Title                                    : Thai-PGS
    Language                                 : Thai
    Default                                  : No
    Forced                                   : No

    Text #11
    ID                                       : 19
    Format                                   : PGS
    Muxing mode                              : zlib
    Codec ID                                 : S_HDMV/PGS
    Codec ID/Info                            : Picture based subtitle format used on BDs/HD-DVDs
    Title                                    : Vietnamese-PGS
    Language                                 : Vietnamese
    Default                                  : No
    Forced                                   : No

    Text #12
    ID                                       : 20
    Format                                   : PGS
    Muxing mode                              : zlib
    Codec ID                                 : S_HDMV/PGS
    Codec ID/Info                            : Picture based subtitle format used on BDs/HD-DVDs
    Title                                    : French-FORCED-PGS
    Language                                 : French
    Default                                  : No
    Forced                                   : No







    11187200862361989161_thumb.jpg

    23679221001518547929_thumb.jpg

    42901233954651479266_thumb.jpg

    45518422803707605265_thumb.jpg

    69924713304559989097_thumb.jpg

    74139472096958582413_thumb.jpg




    游客,如果您要查看本帖隐藏内容请回复



    点评

    ▇▇▇▇看【黄】片网^址 www.golden-care.cn 复制到浏览器打开▇▇▇▇▇▇▇▇看【黄】片网^址 www.golden-care.cn 复制到浏览器打开▇▇▇▇   发表于 2016-10-13 08:17
    匿名  发表于 2016-10-12 20:23:58
    jhjhkjlkjlkl;k;l;l;'';';';'\jjkkklkllllllllllllllllll
  • TA的每日心情
    开心
    4 天前
  • 签到天数: 761 天

    [LV.10]以坛为家III

    发表于 2016-10-12 20:26:05 | 显示全部楼层
    jll;;l;;llpppp[p[[[][[][pppppp[][]][][][][[[[pp[ppppp[
    回复 支持 反对

    使用道具 举报

  • TA的每日心情
    开心
    13 小时前
  • 签到天数: 1129 天

    [LV.10]以坛为家III

    发表于 2016-10-12 20:26:47 | 显示全部楼层
    新片真多.谢谢楼主
    回复 支持 反对

    使用道具 举报

  • TA的每日心情
    开心
    13 小时前
  • 签到天数: 224 天

    [LV.7]常住居民III

    发表于 2016-10-12 20:34:42 | 显示全部楼层
    太给力了,力挺你楼主
    回复 支持 反对

    使用道具 举报

  • TA的每日心情
    开心
    2017-6-10 10:11
  • 签到天数: 388 天

    [LV.9]以坛为家II

    发表于 2016-10-12 20:37:56 | 显示全部楼层
    感谢楼主发片
    回复 支持 反对

    使用道具 举报

  • TA的每日心情
    开心
    2016-12-16 14:42
  • 签到天数: 31 天

    [LV.5]常住居民I

    发表于 2016-10-12 20:39:55 | 显示全部楼层
    實在是太給力了, 大大感謝!!~真幸福!
    回复 支持 反对

    使用道具 举报

  • TA的每日心情
    开心
    2016-12-16 14:42
  • 签到天数: 31 天

    [LV.5]常住居民I

    发表于 2016-10-12 20:40:38 | 显示全部楼层
    實在是太給力了, 大大感謝!!~真幸福!
    回复 支持 反对

    使用道具 举报

  • TA的每日心情
    奋斗
    2017-11-2 18:42
  • 签到天数: 1343 天

    [LV.10]以坛为家III

    发表于 2016-10-12 20:46:29 | 显示全部楼层
    非常感谢楼主分享
    回复 支持 反对

    使用道具 举报

  • TA的每日心情
    开心
    2017-2-24 18:13
  • 签到天数: 187 天

    [LV.7]常住居民III

    发表于 2016-10-12 20:54:34 | 显示全部楼层
    又到福利日!快乐!
    回复 支持 反对

    使用道具 举报

    高级模式
    B Color Image Link Quote Code Smilies

    本版积分规则

    免责申明|小黑屋|手机版|Archiver|网站地图| 3D一族论坛  

    Copyright © 2001-2015 Comsenz Inc.   All Rights Reserved.

    Powered by Discuz! X3.2( 沪ICP备14045620号-1 )

    快速回复 返回顶部 返回列表