请选择 进入手机版 | 继续访问电脑版
 找回密码

3D一族论坛

查看: 2369|回复: 141

[1080P] [星际迷航3:超越星辰/星际迷航13:超越 Star.Trek.Beyond.2016.720p/1080p.BluRay.x264-SPARKS][MKV 5.45G/7.94G][BT]

  [复制链接]
  • TA的每日心情
    开心
    3 天前
  • 签到天数: 1657 天

    [LV.Master]伴坛终老

    发表于 2016-10-18 16:02:32 | 显示全部楼层 |阅读模式
    Star Trek Beyond Blu-ray_front.jpg

    Star Trek Beyond Blu-ray_front (2).jpg


    ◎译  名 星际迷航3:超越星辰/星际迷航13:超越/星际旅行13:超越太空/星空奇遇记13:超域时空/星际争霸战13:浩瀚无垠/星舰奇航记13/星舰迷航记13
    ◎片  名 Star Trek Beyond
    ◎年  代 2016
    ◎国  家 美国
    ◎类  别 动作/科幻/冒险
    ◎语  言 英语
    ◎上映日期 2016-07-22(美国)/2016-09-02(中国大陆)
    ◎IMDb评分  7.3/10 from 93,870 users
    ◎IMDb链接  http://www.imdb.com/title/tt2660888/
    ◎豆瓣评分 7.4/10 from 66,374 users
    ◎豆瓣链接 https://movie.douban.com/subject/22939161/
    ◎片  长 122分钟(中国大陆/美国)
    ◎导  演 林诣彬 Justin Lin
    ◎主  演 克里斯·派恩 Chris Pine
          扎克瑞·昆图 Zachary Quinto
          佐伊·索尔达娜 Zoe Saldana
          西蒙·佩吉 Simon Pegg
          安东·叶利钦 Anton Yelchin
          伊德里斯·艾尔巴 Idris Elba
          索菲亚·波多拉 Sofia Boutella
          卡尔·厄本 Karl Urban
          索瑞·安达斯鲁 Shohreh Aghdashloo
          约翰·赵 John Cho
          迪普·罗伊 Deep Roy
          莉迪亚·威尔逊 Lydia Wilson
          乔·塔斯利姆 Joe Taslim
          约瑟夫·盖特 Joseph Gatt
          卡洛·安切洛蒂 Carlo Ancelotti
          亚当·迪马克 Adam DiMarco
          梅丽莎·罗斯伯格 Melissa Roxburgh
          阿什丽·艾德纳 Ashley Edner
          贾森·马修·史密斯 Jason Matthew Smith

    ◎简  介

      柯克船长(克里斯·派恩 Chris Pine 饰)和企业号的船员们来到了银河系中未知的一个区域,开始完成他们5年的任务——探索新世界,寻找新物种。却在途中滞留异星,遭遇了当地种族追杀,他们必须找到方法离开这个星球。


    Video
    ID                                       : 1
    Format                                   : AVC
    Format/Info                              : Advanced Video Codec
    Format profile                           : High@L4.1
    Format settings, CABAC                   : Yes
    Format settings, ReFrames                : 5 frames
    Codec ID                                 : V_MPEG4/ISO/AVC
    Duration                                 : 2h 2mn
    Bit rate                                 : 5 752 Kbps
    Width                                    : 1 280 pixels
    Height                                   : 536 pixels
    Display aspect ratio                     : 2.40:1
    Frame rate mode                          : Constant
    Frame rate                               : 23.976 fps
    Color space                              : YUV
    Chroma subsampling                       : 4:2:0
    Bit depth                                : 8 bits
    Scan type                                : Progressive
    Bits/(Pixel*Frame)                       : 0.350
    Stream size                              : 4.90 GiB (90%)
    Writing library                          : x264 core 148 r2705 3f5ed56
    Encoding settings                        : cabac=1 / ref=5 / deblock=1:0:0 / analyse=0x3:0x133 / me=umh / subme=7 / psy=1 / psy_rd=1.00:0.00 / mixed_ref=1 / me_range=16 / chroma_me=1 / trellis=1 / 8x8dct=1 / cqm=0 / deadzone=21,11 / fast_pskip=0 / chroma_qp_offset=-2 / threads=17 / lookahead_threads=2 / sliced_threads=0 / nr=0 / decimate=1 / interlaced=0 / bluray_compat=0 / constrained_intra=0 / bframes=3 / b_pyramid=2 / b_adapt=1 / b_bias=0 / direct=1 / weightb=1 / open_gop=0 / weightp=2 / keyint=250 / keyint_min=23 / scenecut=40 / intra_refresh=0 / rc_lookahead=40 / rc=2pass / mbtree=1 / bitrate=5752 / ratetol=1.0 / qcomp=0.60 / qpmin=0 / qpmax=69 / qpstep=4 / cplxblur=20.0 / qblur=0.5 / ip_ratio=1.40 / aq=1:1.00
    Language                                 : English
    Default                                  : Yes
    Forced                                   : No

    Audio
    ID                                       : 2
    Format                                   : AC-3
    Format/Info                              : Audio Coding 3
    Mode extension                           : CM (complete main)
    Format settings, Endianness              : Big
    Codec ID                                 : A_AC3
    Duration                                 : 2h 2mn
    Bit rate mode                            : Constant
    Bit rate                                 : 640 Kbps
    Channel(s)                               : 6 channels
    Channel positions                        : Front: L C R, Side: L R, LFE
    Sampling rate                            : 48.0 KHz
    Frame rate                               : 31.250 fps (1536 spf)
    Compression mode                         : Lossy
    Stream size                              : 560 MiB (10%)
    Language                                 : English
    Default                                  : Yes
    Forced                                   : No

    00121181484114332990_thumb.jpg


    游客,如果您要查看本帖隐藏内容请回复



    Video
    ID                                       : 1
    Format                                   : AVC
    Format/Info                              : Advanced Video Codec
    Format profile                           : High@L4.1
    Format settings, CABAC                   : Yes
    Format settings, ReFrames                : 5 frames
    Codec ID                                 : V_MPEG4/ISO/AVC
    Duration                                 : 2h 2mn
    Bit rate                                 : 8 654 Kbps
    Width                                    : 1 920 pixels
    Height                                   : 808 pixels
    Display aspect ratio                     : 2.40:1
    Frame rate mode                          : Constant
    Frame rate                               : 23.976 fps
    Color space                              : YUV
    Chroma subsampling                       : 4:2:0
    Bit depth                                : 8 bits
    Scan type                                : Progressive
    Bits/(Pixel*Frame)                       : 0.233
    Stream size                              : 7.39 GiB (93%)
    Writing library                          : x264 core 148 r2705 3f5ed56
    Encoding settings                        : cabac=1 / ref=5 / deblock=1:0:0 / analyse=0x3:0x133 / me=umh / subme=7 / psy=1 / psy_rd=1.00:0.00 / mixed_ref=1 / me_range=16 / chroma_me=1 / trellis=1 / 8x8dct=1 / cqm=0 / deadzone=21,11 / fast_pskip=0 / chroma_qp_offset=-2 / threads=18 / lookahead_threads=3 / sliced_threads=0 / nr=0 / decimate=1 / interlaced=0 / bluray_compat=0 / constrained_intra=0 / bframes=3 / b_pyramid=2 / b_adapt=1 / b_bias=0 / direct=1 / weightb=1 / open_gop=0 / weightp=2 / keyint=250 / keyint_min=23 / scenecut=40 / intra_refresh=0 / rc_lookahead=40 / rc=2pass / mbtree=1 / bitrate=8654 / ratetol=1.0 / qcomp=0.60 / qpmin=0 / qpmax=69 / qpstep=4 / cplxblur=20.0 / qblur=0.5 / ip_ratio=1.40 / aq=1:1.00
    Language                                 : English
    Default                                  : Yes
    Forced                                   : No

    Audio
    ID                                       : 2
    Format                                   : AC-3
    Format/Info                              : Audio Coding 3
    Mode extension                           : CM (complete main)
    Format settings, Endianness              : Big
    Codec ID                                 : A_AC3
    Duration                                 : 2h 2mn
    Bit rate mode                            : Constant
    Bit rate                                 : 640 Kbps
    Channel(s)                               : 6 channels
    Channel positions                        : Front: L C R, Side: L R, LFE
    Sampling rate                            : 48.0 KHz
    Frame rate                               : 31.250 fps (1536 spf)
    Compression mode                         : Lossy
    Stream size                              : 560 MiB (7%)
    Language                                 : English
    Default                                  : Yes
    Forced                                   : No


    00121181484114332990_thumb.jpg


    游客,如果您要查看本帖隐藏内容请回复



  • TA的每日心情
    开心
    2017-1-18 11:27
  • 签到天数: 57 天

    [LV.5]常住居民I

    发表于 2016-10-18 16:54:50 | 显示全部楼层
    谢谢分享
    回复 支持 反对

    使用道具 举报

  • TA的每日心情
    难过
    2017-3-15 22:23
  • 签到天数: 252 天

    [LV.8]以坛为家III

    发表于 2016-10-18 18:20:24 | 显示全部楼层
    感谢楼主分享
    回复 支持 反对

    使用道具 举报

  • TA的每日心情

    2017-2-27 17:54
  • 签到天数: 271 天

    [LV.8]以坛为家III

    发表于 2016-10-18 18:41:07 | 显示全部楼层
    感谢分享。。。
    回复 支持 反对

    使用道具 举报

  • TA的每日心情
    郁闷
    2017-3-7 23:04
  • 签到天数: 377 天

    [LV.9]以坛为家II

    发表于 2016-10-18 18:44:37 | 显示全部楼层
    谢谢楼主大爱。
    回复 支持 反对

    使用道具 举报

  • TA的每日心情
    开心
    2017-1-22 11:39
  • 签到天数: 37 天

    [LV.5]常住居民I

    发表于 2016-10-18 19:32:55 | 显示全部楼层
    哇,谢谢分享,太快了
    回复 支持 反对

    使用道具 举报

    匿名  发表于 2016-10-18 20:37:13
    谢谢分享好东西!
  • TA的每日心情
    无聊
    2016-10-22 16:40
  • 签到天数: 200 天

    [LV.7]常住居民III

    发表于 2016-10-18 20:51:33 | 显示全部楼层
    企业号的船员们来到了银河系中未知的一个区域
    回复 支持 反对

    使用道具 举报

  • TA的每日心情
    擦汗
    昨天 19:37
  • 签到天数: 505 天

    [LV.9]以坛为家II

    发表于 2016-10-18 20:57:07 | 显示全部楼层
    非常感谢楼主分享
    回复 支持 反对

    使用道具 举报

    匿名  发表于 2016-10-18 21:26:34
    楼主威武
    高级模式
    B Color Image Link Quote Code Smilies

    本版积分规则

    免责申明|小黑屋|手机版|Archiver|网站地图| 3D一族论坛  

    Copyright © 2001-2015 Comsenz Inc.   All Rights Reserved.

    Powered by Discuz! X3.2( 沪ICP备14045620号-1 )

    快速回复 返回顶部 返回列表