请选择 进入手机版 | 继续访问电脑版
 找回密码

3D一族论坛

查看: 1867|回复: 73

[1080P] [海底总动员2:多莉去哪儿 Finding.Dory.2016 720p/1080p.BluRay.X264-AMIABL][MKV 4.37G/6.56G][BT]

  [复制链接]
  • TA的每日心情
    开心
    5 天前
  • 签到天数: 1664 天

    [LV.Master]伴坛终老

    发表于 2016-10-27 11:35:09 | 显示全部楼层 |阅读模式
    118111_front.jpg


    ◎译  名 海底总动员2:多莉去哪儿/海底总动员2:寻找多莉/寻找多莉/海底奇兵2
    ◎片  名 Finding Dory
    ◎年  代 2016
    ◎国  家 美国
    ◎类  别 喜剧/动画/冒险/家庭
    ◎语  言 英语
    ◎上映日期 2016-06-17(中国大陆/美国)
    ◎IMDb评分  7.7/10 from 74,610 users
    ◎IMDb链接  http://www.imdb.com/title/tt2277860/
    ◎豆瓣评分 7.4/10 from 32,728 users
    ◎豆瓣链接 https://movie.douban.com/subject/11524967/
    ◎片  长 97分钟
    ◎导  演 安德鲁·斯坦顿 Andrew Stanton / 安格斯·麦克莱恩 Angus MacLane
    ◎主  演 艾伦·德杰尼勒斯 Ellen DeGeneres
          艾伯特·布鲁克斯 Albert Brooks
          艾德·奥尼尔 Ed O'Neill
          凯特琳·奥尔森 Kaitlin Olson
          海登·罗兰斯 Hayden Rolence
          泰·布利尔 Ty Burrell
          黛安·基顿 Diane Keaton
          尤金·列维 Eugene Levy
          斯隆·穆雷 Sloane Murray
          伊德里斯·艾尔巴 Idris Elba
          多米尼克·威斯特 Dominic West
          鲍勃·彼德森 Bob Peterson
          凯特·麦克金农 Kate McKinnon
          比尔·哈德尔 Bill Hader
          西格妮·韦弗 Sigourney Weaver

    ◎简  介

      大家最喜爱的、健忘的多莉(艾伦·德杰尼勒斯 Ellen DeGeneres 配音)回来了!这次她将与好朋友尼莫(海登·罗兰斯 Hayden Rolence 配音)与马林(艾伯特·布鲁克斯 Albert Brooks 配音)一起,寻找她的神秘过去和她遗失的家庭。她能记起来什么?她的父母是谁?还有,她是从哪儿学会了说鲸语?多莉与马林、尼莫一起开启了这场改变“鱼”生的大冒险,穿越大洋至加州著名的海洋生物研究所。 在这里,多莉获得了三位有趣居民的鼎力支持:一只脾气暴躁、经常让研究所雇员找得团团转的章鱼汉克(艾德·奥尼尔 Ed O'Neill 配音);一头坚信自己的生物声呐技能出问题了的白鲸贝利(泰·布利尔 Ty Burrell 配音);以及一头严重近视眼的鲸鲨运儿(凯特琳·奥尔森 Kaitlin Olson 配音)。当多莉和朋友们在研究所错综复杂的内部水道中辗转前行时,她也逐渐对友谊、亲情和家庭的奥义有了更深刻的认识……



    Video
    ID                                       : 1
    Format                                   : AVC
    Format/Info                              : Advanced Video Codec
    Format profile                           : High@L4.1
    Format settings, CABAC                   : Yes
    Format settings, ReFrames                : 5 frames
    Codec ID                                 : V_MPEG4/ISO/AVC
    Duration                                 : 1h 37mn
    Bit rate                                 : 4 936 Kbps
    Width                                    : 1 280 pixels
    Height                                   : 720 pixels
    Display aspect ratio                     : 16:9
    Frame rate mode                          : Constant
    Frame rate                               : 23.976 (24000/1001) fps
    Color space                              : YUV
    Chroma subsampling                       : 4:2:0
    Bit depth                                : 8 bits
    Scan type                                : Progressive
    Bits/(Pixel*Frame)                       : 0.223
    Stream size                              : 3.26 GiB (75%)
    Writing library                          : x264 core 148 r2705 3f5ed56
    Encoding settings                        : cabac=1 / ref=5 / deblock=1:-3:-3 / analyse=0x3:0x113 / me=umh / subme=8 / psy=1 / psy_rd=1.00:0.00 / mixed_ref=1 / me_range=24 / chroma_me=1 / trellis=1 / 8x8dct=1 / cqm=0 / deadzone=21,11 / fast_pskip=1 / chroma_qp_offset=-2 / threads=22 / lookahead_threads=3 / sliced_threads=0 / nr=0 / decimate=1 / interlaced=0 / bluray_compat=0 / constrained_intra=0 / bframes=3 / b_pyramid=2 / b_adapt=2 / b_bias=0 / direct=3 / weightb=1 / open_gop=0 / weightp=2 / keyint=240 / keyint_min=24 / scenecut=40 / intra_refresh=0 / rc_lookahead=50 / rc=2pass / mbtree=1 / bitrate=4936 / ratetol=1.0 / qcomp=0.60 / qpmin=0 / qpmax=69 / qpstep=4 / cplxblur=20.0 / qblur=0.5 / ip_ratio=1.40 / aq=3:0.80
    Default                                  : Yes
    Forced                                   : No
    Statistics Tags Issue                    : no_variable_data 1970-01-01 00:00:00 / no_variable_data 2010-02-22 21:41:29
    FromStats_BitRate                        : 4936770
    FromStats_Duration                       : 01:37:03.651000000
    FromStats_FrameCount                     : 139628
    FromStats_StreamSize                     : 3593753716

    Audio
    ID                                       : 2
    Format                                   : DTS
    Format/Info                              : Digital Theater Systems
    Mode                                     : 16
    Format settings, Endianness              : Big
    Codec ID                                 : A_DTS
    Duration                                 : 1h 37mn
    Bit rate mode                            : Constant
    Bit rate                                 : 1 509 Kbps
    Channel(s)                               : 6 channels
    Channel positions                        : Front: L C R, Side: L R, LFE
    Sampling rate                            : 48.0 KHz
    Frame rate                               : 93.750 fps (512 spf)
    Bit depth                                : 24 bits
    Compression mode                         : Lossy
    Stream size                              : 1.02 GiB (23%)
    Language                                 : English
    Default                                  : Yes
    Forced                                   : No
    Statistics Tags Issue                    : no_variable_data 1970-01-01 00:00:00 / no_variable_data 2010-02-22 21:41:29
    FromStats_BitRate                        : 1509000
    FromStats_Duration                       : 01:37:03.648000000
    FromStats_FrameCount                     : 545967
    FromStats_StreamSize                     : 1098485604

    Text #1
    ID                                       : 3
    Format                                   : UTF-8
    Codec ID                                 : S_TEXT/UTF8
    Codec ID/Info                            : UTF-8 Plain Text
    Language                                 : English
    Default                                  : No
    Forced                                   : No
    Statistics Tags Issue                    : no_variable_data 1970-01-01 00:00:00 / no_variable_data 2010-02-22 21:41:29
    FromStats_BitRate                        : 85
    FromStats_Duration                       : 01:35:07.993000000
    FromStats_FrameCount                     : 1578
    FromStats_StreamSize                     : 60724

    Text #2
    ID                                       : 4
    Format                                   : UTF-8
    Codec ID                                 : S_TEXT/UTF8
    Codec ID/Info                            : UTF-8 Plain Text
    Title                                    : SDH
    Language                                 : English
    Default                                  : No
    Forced                                   : No
    Statistics Tags Issue                    : no_variable_data 1970-01-01 00:00:00 / no_variable_data 2010-02-22 21:41:29
    FromStats_BitRate                        : 92
    FromStats_Duration                       : 01:35:21.006000000
    FromStats_FrameCount                     : 1764
    FromStats_StreamSize                     : 66114





    69430165821636623214_thumb.jpg



    游客,如果您要查看本帖隐藏内容请回复










    Video
    ID                                       : 1
    Format                                   : AVC
    Format/Info                              : Advanced Video Codec
    Format profile                           : High@L4.1
    Format settings, CABAC                   : Yes
    Format settings, ReFrames                : 4 frames
    Codec ID                                 : V_MPEG4/ISO/AVC
    Duration                                 : 1h 37mn
    Bit rate                                 : 8 160 Kbps
    Width                                    : 1 920 pixels
    Height                                   : 1 080 pixels
    Display aspect ratio                     : 16:9
    Frame rate mode                          : Constant
    Frame rate                               : 23.976 (24000/1001) fps
    Color space                              : YUV
    Chroma subsampling                       : 4:2:0
    Bit depth                                : 8 bits
    Scan type                                : Progressive
    Bits/(Pixel*Frame)                       : 0.164
    Stream size                              : 5.40 GiB (82%)
    Writing library                          : x264 core 148 r2705 3f5ed56
    Encoding settings                        : cabac=1 / ref=4 / deblock=1:-3:-3 / analyse=0x3:0x113 / me=umh / subme=8 / psy=1 / psy_rd=1.00:0.00 / mixed_ref=1 / me_range=32 / chroma_me=1 / trellis=1 / 8x8dct=1 / cqm=0 / deadzone=21,11 / fast_pskip=1 / chroma_qp_offset=-2 / threads=24 / lookahead_threads=4 / sliced_threads=0 / nr=0 / decimate=1 / interlaced=0 / bluray_compat=0 / constrained_intra=0 / bframes=3 / b_pyramid=2 / b_adapt=2 / b_bias=0 / direct=3 / weightb=1 / open_gop=0 / weightp=2 / keyint=240 / keyint_min=24 / scenecut=40 / intra_refresh=0 / rc_lookahead=50 / rc=2pass / mbtree=1 / bitrate=8160 / ratetol=1.0 / qcomp=0.60 / qpmin=0 / qpmax=69 / qpstep=4 / cplxblur=20.0 / qblur=0.5 / ip_ratio=1.40 / aq=3:0.80
    Default                                  : Yes
    Forced                                   : No
    Statistics Tags Issue                    : no_variable_data 1970-01-01 00:00:00 / no_variable_data 2010-02-22 21:41:29
    FromStats_BitRate                        : 8161172
    FromStats_Duration                       : 01:37:03.651000000
    FromStats_FrameCount                     : 139628
    FromStats_StreamSize                     : 5940977507

    Audio
    ID                                       : 2
    Format                                   : DTS
    Format/Info                              : Digital Theater Systems
    Mode                                     : 16
    Format settings, Endianness              : Big
    Codec ID                                 : A_DTS
    Duration                                 : 1h 37mn
    Bit rate mode                            : Constant
    Bit rate                                 : 1 509 Kbps
    Channel(s)                               : 6 channels
    Channel positions                        : Front: L C R, Side: L R, LFE
    Sampling rate                            : 48.0 KHz
    Frame rate                               : 93.750 fps (512 spf)
    Bit depth                                : 24 bits
    Compression mode                         : Lossy
    Stream size                              : 1.02 GiB (16%)
    Language                                 : English
    Default                                  : Yes
    Forced                                   : No
    Statistics Tags Issue                    : no_variable_data 1970-01-01 00:00:00 / no_variable_data 2010-02-22 21:41:29
    FromStats_BitRate                        : 1509000
    FromStats_Duration                       : 01:37:03.648000000
    FromStats_FrameCount                     : 545967
    FromStats_StreamSize                     : 1098485604

    Text #1
    ID                                       : 3
    Format                                   : UTF-8
    Codec ID                                 : S_TEXT/UTF8
    Codec ID/Info                            : UTF-8 Plain Text
    Language                                 : English
    Default                                  : No
    Forced                                   : No
    Statistics Tags Issue                    : no_variable_data 1970-01-01 00:00:00 / no_variable_data 2010-02-22 21:41:29
    FromStats_BitRate                        : 85
    FromStats_Duration                       : 01:35:07.993000000
    FromStats_FrameCount                     : 1578
    FromStats_StreamSize                     : 60724

    Text #2
    ID                                       : 4
    Format                                   : UTF-8
    Codec ID                                 : S_TEXT/UTF8
    Codec ID/Info                            : UTF-8 Plain Text
    Title                                    : SDH
    Language                                 : English
    Default                                  : No
    Forced                                   : No
    Statistics Tags Issue                    : no_variable_data 1970-01-01 00:00:00 / no_variable_data 2010-02-22 21:41:29
    FromStats_BitRate                        : 92
    FromStats_Duration                       : 01:35:21.006000000
    FromStats_FrameCount                     : 1764
    FromStats_StreamSize                     : 66114





    69430165821636623214_thumb.jpg




    游客,如果您要查看本帖隐藏内容请回复

  • TA的每日心情
    擦汗
    2016-11-19 13:48
  • 签到天数: 129 天

    [LV.7]常住居民III

    发表于 2016-10-27 12:33:57 | 显示全部楼层
    下来看看!!!!!!!!!!!!!!!!!!!!!!!!!!
    回复 支持 反对

    使用道具 举报

  • TA的每日心情
    无聊
    2017-1-20 09:41
  • 签到天数: 414 天

    [LV.9]以坛为家II

    发表于 2016-10-27 14:23:44 | 显示全部楼层
    谢谢分享!
    回复 支持 反对

    使用道具 举报

  • TA的每日心情
    无聊
    2017-1-20 09:41
  • 签到天数: 414 天

    [LV.9]以坛为家II

    发表于 2016-10-27 14:24:43 | 显示全部楼层
    谢谢分享!
    回复 支持 反对

    使用道具 举报

  • TA的每日心情
    慵懒
    2017-6-28 09:39
  • 签到天数: 509 天

    [LV.9]以坛为家II

    发表于 2016-10-27 16:25:41 | 显示全部楼层
    感谢分享 哈哈
    回复 支持 反对

    使用道具 举报

  • TA的每日心情
    郁闷
    2016-12-6 19:52
  • 签到天数: 426 天

    [LV.9]以坛为家II

    发表于 2016-10-27 18:39:49 | 显示全部楼层
    支持一个~~~~~~~~~~~~~~~~~~
    回复 支持 反对

    使用道具 举报

  • TA的每日心情
    开心
    2016-10-28 00:06
  • 签到天数: 2 天

    [LV.1]初来乍到

    发表于 2016-10-27 19:35:31 | 显示全部楼层
    感谢分享,很好的资源
    回复 支持 反对

    使用道具 举报

  • TA的每日心情
    慵懒
    昨天 20:16
  • 签到天数: 534 天

    [LV.9]以坛为家II

    发表于 2016-10-27 20:36:27 | 显示全部楼层
    感谢楼主无私分享
    回复 支持 反对

    使用道具 举报

  • TA的每日心情
    开心
    2017-6-18 17:08
  • 签到天数: 134 天

    [LV.7]常住居民III

    发表于 2016-10-27 22:01:42 | 显示全部楼层
    thx for sharing
    回复 支持 反对

    使用道具 举报

  • TA的每日心情
    擦汗
    昨天 04:31
  • 签到天数: 217 天

    [LV.7]常住居民III

    发表于 2016-10-28 04:58:08 | 显示全部楼层
    期待已久的动漫电影
    回复 支持 反对

    使用道具 举报

    高级模式
    B Color Image Link Quote Code Smilies

    本版积分规则

    免责申明|小黑屋|手机版|Archiver|网站地图| 3D一族论坛  

    Copyright © 2001-2015 Comsenz Inc.   All Rights Reserved.

    Powered by Discuz! X3.2( 沪ICP备14045620号-1 )

    快速回复 返回顶部 返回列表