请选择 进入手机版 | 继续访问电脑版
 找回密码

3D一族论坛

查看: 7715|回复: 506

[左右] [星球大战7:原力觉醒3D Star.Wars.Episode.VII.The.Force.Awakens.2015.3D][1080p][MKV 26.39G/26.85G/14.97G/7.24G][BT]

  [复制链接]
  • TA的每日心情
    开心
    2017-10-30 14:49
  • 签到天数: 1666 天

    [LV.Master]伴坛终老

    发表于 2016-10-28 09:41:02 | 显示全部楼层 |阅读模式
    影片截图:

    data/attachment/forum/201610/28/093729vwd2jitzixmizdwi.jpg

         
      片        名: Star.Wars.Episode.VII.The.Force.Awakens.2015.3D
      译        名: 星球大战7:原力觉醒3D / 星球大战:原力觉醒 / 星际大战七部曲:原力觉醒
      类        别: 动作 科幻 冒险 
      国        家: 欧美
      语        言: 英语
      字        幕: 英文字幕
      集        数:
      文件格式: MKV
      视频尺寸: 1920*1080
      文件大小: 26.39GB/26.85GB/14.97GB/7.24GB
      上映时间: 2015-12-18(美国) / 2016-01-09(中国大陆)
      影片导演: J·J·艾布拉姆斯 J.J. Abrams
      主要演员: 黛西·雷德利 Daisy Ridley
        约翰·博耶加 John Boyega
        哈里森·福特 Harrison Ford
      推荐等级: ★★★★★
         
    下载地址:
    [下载方式]: bt下载
    [分辨率]: 1080p
    [迅雷地址]:
    [网盘下载]:
    影片简介: fangfang
    自从银河帝国衰败之后,正邪轮回再度开始,第一秩序的黑暗力量蔓延滋长,重新为银河系带来威胁。与此同时,对于凯洛·伦的堕落深感内疚的天行者卢克宣告失踪,而围绕卢克下落的一份星系地图,则引起敌我双方的争夺。不愿成为战争机器的第一军团士兵芬恩(约翰·波耶加 John Boyega 饰)协助反抗组织成员波·达摩龙(奥斯卡·伊萨克 Oscar Isaac 饰)逃到蛮荒星球贾库,寻找藏有地图的机器人BB8。两人失散后,芬邂逅拾荒者蕾伊(黛茜·雷德利 Daisy Ridley 饰)和BB8。他们乘坐破旧的千年隼号躲过了军团的追杀,此后更遇到千年隼号的主人汉·索罗(哈里森·福特 Harrison Ford 饰)。
    第一秩序制造了破坏力远超死星的弑星者基地。宇宙和平危在旦夕,某人体内的原力则悄然苏醒……
    本帖最后由 xdwl 于 2016-10-29 10:34 编辑

    64238_front.jpg

    Star Wars Episode VII - The Force Awakens 3D Blu-ray_front.jpg


    ◎片  名  Star Wars Episode VII - The Force Awakens
    ◎译  名  星球大战7:原力觉醒 / 星球大战:原力觉醒 / 星际大战七部曲:原力觉醒
    ◎年  代  2015
    ◎国  家  美国
    ◎电影类型  动作 / 科幻 / 奇幻 / 冒险
    ◎语  言  英语
    ◎官方网站  www.starwars.com/the-force-awakens
    ◎上映日期  2015-12-18(美国) / 2016-01-09(中国大陆)
    ◎iMDB评分  8.4/10 (457,987 votes)
    ◎iMDB链接  http://www.imdb.com/title/tt2488496/
    ◎片  长  2h:18m:6s
    ◎导  演  J·J·艾布拉姆斯 J.J. Abrams
    ◎演  员  黛西·雷德利 Daisy Ridley
           约翰·博耶加 John Boyega
           哈里森·福特 Harrison Ford
           多姆纳尔·格里森 Domhnall Gleeson
           亚当·德利弗 Adam Driver
           马克·哈米尔 Mark Hamill
           凯丽·费雪 Carrie Fisher
           奥斯卡·伊萨克 Oscar Isaac
           露皮塔·尼永奥 Lupita Nyong‘o
           安迪·瑟金斯 Andy Serkis
           安东尼·丹尼尔斯 Anthony Daniels
           彼德·梅犹 Peter Mayhew
           马克斯·冯·叙多 Max von Sydow
           比利·迪·威廉姆斯 Billy Dee Williams
           爱德华·斯皮伊尔斯 Ed Speleers
           马修·詹姆斯·托马斯 Matthew James Thomas
           肯尼·贝克 Kenny Baker
           格温多兰·克里斯蒂 Gwendoline Christie
           西蒙·佩吉 Simon Pegg
           克里斯塔·克拉克 Crystal Clarke
           匹普·安德森 Pip Andersen

    ◎简  介

          自从银河帝国衰败之后,正邪轮回再度开始,第一秩序的黑暗力量蔓延滋长,重新为银河系带来威胁。与此同时,对于凯洛·伦的堕落深感内疚的天行者卢克宣告失踪,而围绕卢克下落的一份星系地图,则引起敌我双方的争夺。不愿成为战争机器的第一军团士兵芬恩(约翰·波耶加 John Boyega 饰)协助反抗组织成员波·达摩龙(奥斯卡·伊萨克 Oscar Isaac 饰)逃到蛮荒星球贾库,寻找藏有地图的机器人BB8。两人失散后,芬邂逅拾荒者蕾伊(黛茜·雷德利 Daisy Ridley 饰)和BB8。他们乘坐破旧的千年隼号躲过了军团的追杀,此后更遇到千年隼号的主人汉·索罗(哈里森·福特 Harrison Ford 饰)。
    第一秩序制造了破坏力远超死星的弑星者基地。宇宙和平危在旦夕,某人体内的原力则悄然苏醒……





    Video
    ID                                       : 1
    Format                                   : AVC
    Format/Info                              : Advanced Video Codec
    Format profile                           : High@L4.1
    Format settings, CABAC                   : Yes
    Format settings, ReFrames                : 2 frames
    Codec ID                                 : V_MPEG4/ISO/AVC
    Duration                                 : 2h 18mn
    Nominal bit rate                         : 15.5 Mbps
    Width                                    : 1 920 pixels
    Height                                   : 1 080 pixels
    Display aspect ratio                     : 16:9
    Frame rate mode                          : Constant
    Frame rate                               : 23.976 (24000/1001) fps
    Color space                              : YUV
    Chroma subsampling                       : 4:2:0
    Bit depth                                : 8 bits
    Scan type                                : Progressive
    Bits/(Pixel*Frame)                       : 0.312
    Title                                    : Star.Wars.Episode.VII.The.Force.Awakens.2015.1080p.3D.BluRay.Half-SBS.x264.DTS-HD.MA.7.1-FGT
    Writing library                          : x264 core 142
    Encoding settings                        : cabac=1 / ref=1 / deblock=1:-1:-1 / analyse=0x3:0 / me=hex / subme=5 / psy=0 / mixed_ref=0 / me_range=16 / chroma_me=1 / trellis=0 / 8x8dct=1 / cqm=0 / deadzone=21,11 / fast_pskip=0 / chroma_qp_offset=0 / threads=8 / lookahead_threads=2 / sliced_threads=0 / nr=0 / decimate=1 / interlaced=0 / bluray_compat=0 / constrained_intra=0 / bframes=2 / b_pyramid=0 / b_adapt=1 / b_bias=0 / direct=1 / weightb=0 / open_gop=0 / weightp=0 / keyint=24 / keyint_min=13 / scenecut=40 / intra_refresh=0 / rc=abr / mbtree=0 / bitrate=15500 / ratetol=1.0 / qcomp=0.60 / qpmin=0 / qpmax=69 / qpstep=4 / ip_ratio=1.40 / pb_ratio=1.30 / aq=1:1.00
    Default                                  : Yes
    Forced                                   : No
    Color range                              : Limited
    Color primaries                          : BT.709
    Transfer characteristics                 : BT.709
    Matrix coefficients                      : BT.709

    Audio #1
    ID                                       : 2
    Format                                   : DTS
    Format/Info                              : Digital Theater Systems
    Format profile                           : MA / Core
    Mode                                     : 16
    Format settings, Endianness              : Big
    Codec ID                                 : A_DTS
    Duration                                 : 2h 18mn
    Bit rate mode                            : Variable / Constant
    Bit rate                                 : Unknown / 1 509 Kbps
    Channel(s)                               : 8 channels / 6 channels
    Channel positions                        : Front: L C R, Side: L R, Back: L R, LFE / Front: L C R, Side: L R, LFE
    Sampling rate                            : 48.0 KHz
    Frame rate                               : 93.750 fps (512 spf)
    Bit depth                                : 24 bits
    Compression mode                         : Lossless / Lossy
    Title                                    : Star.Wars.Episode.VII.The.Force.Awakens.2015.1080p.3D.BluRay.Half-SBS.x264.DTS-HD.MA.7.1-FGT
    Language                                 : English
    Default                                  : Yes
    Forced                                   : No

    Audio #2
    ID                                       : 3
    Format                                   : DTS
    Format/Info                              : Digital Theater Systems
    Mode                                     : 16
    Format settings, Endianness              : Big
    Codec ID                                 : A_DTS
    Duration                                 : 2h 18mn
    Bit rate mode                            : Constant
    Bit rate                                 : 1 509 Kbps
    Channel(s)                               : 6 channels
    Channel positions                        : Front: L C R, Side: L R, LFE
    Sampling rate                            : 48.0 KHz
    Frame rate                               : 93.750 fps (512 spf)
    Bit depth                                : 24 bits
    Compression mode                         : Lossy
    Stream size                              : 1.46 GiB (6%)
    Title                                    : Star.Wars.Episode.VII.The.Force.Awakens.2015.1080p.3D.BluRay.Half-SBS.x264.DTS-HD.MA.7.1-FGT
    Language                                 : English
    Default                                  : No
    Forced                                   : No

    Audio #3
    ID                                       : 4
    Format                                   : AC-3
    Format/Info                              : Audio Coding 3
    Format profile                           : Dolby Digital
    Mode extension                           : CM (complete main)
    Format settings, Endianness              : Big
    Codec ID                                 : A_AC3
    Duration                                 : 2h 18mn
    Bit rate mode                            : Constant
    Bit rate                                 : 320 Kbps
    Channel(s)                               : 2 channels
    Channel positions                        : Front: L R
    Sampling rate                            : 48.0 KHz
    Frame rate                               : 31.250 fps (1536 spf)
    Compression mode                         : Lossy
    Stream size                              : 316 MiB (1%)
    Title                                    : Star.Wars.Episode.VII.The.Force.Awakens.2015.1080p.3D.BluRay.Half-SBS.x264.DTS-HD.MA.7.1-FGT
    Language                                 : English
    Default                                  : No
    Forced                                   : No

    Audio #4
    ID                                       : 5
    Format                                   : DTS
    Format/Info                              : Digital Theater Systems
    Format profile                           : HRA / Core
    Mode                                     : 16
    Format settings, Endianness              : Big
    Codec ID                                 : A_DTS
    Duration                                 : 2h 18mn
    Bit rate mode                            : Constant
    Bit rate                                 : 2 046 Kbps / 1 509 Kbps
    Channel(s)                               : 6 channels
    Channel positions                        : Front: L C R, Side: L R, LFE
    Sampling rate                            : 48.0 KHz
    Frame rate                               : 93.750 fps (512 spf)
    Bit depth                                : 24 bits
    Compression mode                         : Lossy
    Stream size                              : 1.97 GiB (7%)
    Title                                    : Star.Wars.Episode.VII.The.Force.Awakens.2015.1080p.3D.BluRay.Half-SBS.x264.DTS-HD.MA.7.1-FGT
    Language                                 : French
    Default                                  : No
    Forced                                   : No

    Audio #5
    ID                                       : 6
    Format                                   : DTS
    Format/Info                              : Digital Theater Systems
    Mode                                     : 16
    Format settings, Endianness              : Big
    Codec ID                                 : A_DTS
    Duration                                 : 2h 18mn
    Bit rate mode                            : Constant
    Bit rate                                 : 1 509 Kbps
    Channel(s)                               : 6 channels
    Channel positions                        : Front: L C R, Side: L R, LFE
    Sampling rate                            : 48.0 KHz
    Frame rate                               : 93.750 fps (512 spf)
    Bit depth                                : 24 bits
    Compression mode                         : Lossy
    Stream size                              : 1.46 GiB (6%)
    Title                                    : Star.Wars.Episode.VII.The.Force.Awakens.2015.1080p.3D.BluRay.Half-SBS.x264.DTS-HD.MA.7.1-FGT
    Language                                 : French
    Default                                  : No
    Forced                                   : No

    Audio #6
    ID                                       : 7
    Format                                   : AC-3
    Format/Info                              : Audio Coding 3
    Mode extension                           : CM (complete main)
    Format settings, Endianness              : Big
    Codec ID                                 : A_AC3
    Duration                                 : 2h 18mn
    Bit rate mode                            : Constant
    Bit rate                                 : 640 Kbps
    Channel(s)                               : 6 channels
    Channel positions                        : Front: L C R, Side: L R, LFE
    Sampling rate                            : 48.0 KHz
    Frame rate                               : 31.250 fps (1536 spf)
    Compression mode                         : Lossy
    Stream size                              : 632 MiB (2%)
    Title                                    : Star.Wars.Episode.VII.The.Force.Awakens.2015.1080p.3D.BluRay.Half-SBS.x264.DTS-HD.MA.7.1-FGT
    Language                                 : Czech
    Default                                  : No
    Forced                                   : No

    Audio #7
    ID                                       : 8
    Format                                   : AC-3
    Format/Info                              : Audio Coding 3
    Mode extension                           : CM (complete main)
    Format settings, Endianness              : Big
    Codec ID                                 : A_AC3
    Duration                                 : 2h 18mn
    Bit rate mode                            : Constant
    Bit rate                                 : 640 Kbps
    Channel(s)                               : 6 channels
    Channel positions                        : Front: L C R, Side: L R, LFE
    Sampling rate                            : 48.0 KHz
    Frame rate                               : 31.250 fps (1536 spf)
    Compression mode                         : Lossy
    Stream size                              : 632 MiB (2%)
    Title                                    : Star.Wars.Episode.VII.The.Force.Awakens.2015.1080p.3D.BluRay.Half-SBS.x264.DTS-HD.MA.7.1-FGT
    Language                                 : Hindi
    Default                                  : No
    Forced                                   : No

    Text #1
    ID                                       : 9
    Format                                   : PGS
    Muxing mode                              : zlib
    Codec ID                                 : S_HDMV/PGS
    Codec ID/Info                            : Picture based subtitle format used on BDs/HD-DVDs
    Title                                    : English-PGS
    Language                                 : English
    Default                                  : No
    Forced                                   : No

    Text #2
    ID                                       : 10
    Format                                   : PGS
    Muxing mode                              : zlib
    Codec ID                                 : S_HDMV/PGS
    Codec ID/Info                            : Picture based subtitle format used on BDs/HD-DVDs
    Title                                    : French-PGS
    Language                                 : French
    Default                                  : No
    Forced                                   : No

    Text #3
    ID                                       : 11
    Format                                   : PGS
    Muxing mode                              : zlib
    Codec ID                                 : S_HDMV/PGS
    Codec ID/Info                            : Picture based subtitle format used on BDs/HD-DVDs
    Title                                    : Czech-PGS
    Language                                 : Czech
    Default                                  : No
    Forced                                   : No

    Text #4
    ID                                       : 12
    Format                                   : PGS
    Muxing mode                              : zlib
    Codec ID                                 : S_HDMV/PGS
    Codec ID/Info                            : Picture based subtitle format used on BDs/HD-DVDs
    Title                                    : Dutch-PGS
    Language                                 : Dutch
    Default                                  : No
    Forced                                   : No

    Text #5
    ID                                       : 13
    Format                                   : PGS
    Muxing mode                              : zlib
    Codec ID                                 : S_HDMV/PGS
    Codec ID/Info                            : Picture based subtitle format used on BDs/HD-DVDs
    Title                                    : Arabic-PGS
    Language                                 : Arabic
    Default                                  : No
    Forced                                   : No

    Text #6
    ID                                       : 14
    Format                                   : PGS
    Muxing mode                              : zlib
    Codec ID                                 : S_HDMV/PGS
    Codec ID/Info                            : Picture based subtitle format used on BDs/HD-DVDs
    Title                                    : Danish-PGS
    Language                                 : Danish
    Default                                  : No
    Forced                                   : No

    Text #7
    ID                                       : 15
    Format                                   : PGS
    Muxing mode                              : zlib
    Codec ID                                 : S_HDMV/PGS
    Codec ID/Info                            : Picture based subtitle format used on BDs/HD-DVDs
    Title                                    : Finnish-PGS
    Language                                 : Finnish
    Default                                  : No
    Forced                                   : No

    Text #8
    ID                                       : 16
    Format                                   : PGS
    Muxing mode                              : zlib
    Codec ID                                 : S_HDMV/PGS
    Codec ID/Info                            : Picture based subtitle format used on BDs/HD-DVDs
    Title                                    : Norwegian-PGS
    Language                                 : Norwegian
    Default                                  : No
    Forced                                   : No

    Text #9
    ID                                       : 17
    Format                                   : PGS
    Muxing mode                              : zlib
    Codec ID                                 : S_HDMV/PGS
    Codec ID/Info                            : Picture based subtitle format used on BDs/HD-DVDs
    Title                                    : Swedish-PGS
    Language                                 : Swedish
    Default                                  : No
    Forced                                   : No

    Text #10
    ID                                       : 18
    Format                                   : PGS
    Muxing mode                              : zlib
    Codec ID                                 : S_HDMV/PGS
    Codec ID/Info                            : Picture based subtitle format used on BDs/HD-DVDs
    Title                                    : French-FORCED-PGS
    Language                                 : French
    Default                                  : No
    Forced                                   : No

    Text #11
    ID                                       : 19
    Format                                   : PGS
    Muxing mode                              : zlib
    Codec ID                                 : S_HDMV/PGS
    Codec ID/Info                            : Picture based subtitle format used on BDs/HD-DVDs
    Title                                    : Czech-FORCED-PGS
    Language                                 : Czech
    Default                                  : No
    Forced                                   : No

    Text #12
    ID                                       : 20
    Format                                   : PGS
    Muxing mode                              : zlib
    Codec ID                                 : S_HDMV/PGS
    Codec ID/Info                            : Picture based subtitle format used on BDs/HD-DVDs
    Title                                    : Hindi-FORCED-PGS
    Language                                 : Hindi
    Default                                  : No
    Forced                                   : No


    09111249156949196383_thumb.jpg

    41577424813730826663_thumb.jpg

    54760523155633578211_thumb.jpg

    56655783504325967825_thumb.jpg

    66775592330723607466_thumb.jpg

    96015650766984787919_thumb.jpg


    游客,如果您要查看本帖隐藏内容请回复



    Video
    ID                                       : 1
    Format                                   : AVC
    Format/Info                              : Advanced Video Codec
    Format profile                           : High@L4.1
    Format settings, CABAC                   : Yes
    Format settings, ReFrames                : 2 frames
    Codec ID                                 : V_MPEG4/ISO/AVC
    Duration                                 : 2h 18mn
    Nominal bit rate                         : 16.0 Mbps
    Width                                    : 1 920 pixels
    Height                                   : 1 080 pixels
    Display aspect ratio                     : 16:9
    Frame rate mode                          : Constant
    Frame rate                               : 23.976 (24000/1001) fps
    Color space                              : YUV
    Chroma subsampling                       : 4:2:0
    Bit depth                                : 8 bits
    Scan type                                : Progressive
    Bits/(Pixel*Frame)                       : 0.322
    Title                                    : Star.Wars.Episode.VII.The.Force.Awakens.2015.1080p.3D.BluRay.Half-OU.x264.DTS-HD.MA.7.1-FGT
    Writing library                          : x264 core 142
    Encoding settings                        : cabac=1 / ref=1 / deblock=1:-1:-1 / analyse=0x3:0 / me=hex / subme=5 / psy=0 / mixed_ref=0 / me_range=16 / chroma_me=1 / trellis=0 / 8x8dct=1 / cqm=0 / deadzone=21,11 / fast_pskip=0 / chroma_qp_offset=0 / threads=8 / lookahead_threads=2 / sliced_threads=0 / nr=0 / decimate=1 / interlaced=0 / bluray_compat=0 / constrained_intra=0 / bframes=2 / b_pyramid=0 / b_adapt=1 / b_bias=0 / direct=1 / weightb=0 / open_gop=0 / weightp=0 / keyint=24 / keyint_min=13 / scenecut=40 / intra_refresh=0 / rc=abr / mbtree=0 / bitrate=16000 / ratetol=1.0 / qcomp=0.60 / qpmin=0 / qpmax=69 / qpstep=4 / ip_ratio=1.40 / pb_ratio=1.30 / aq=1:1.00
    Default                                  : Yes
    Forced                                   : No
    Color range                              : Limited
    Color primaries                          : BT.709
    Transfer characteristics                 : BT.709
    Matrix coefficients                      : BT.709

    Audio #1
    ID                                       : 2
    Format                                   : DTS
    Format/Info                              : Digital Theater Systems
    Format profile                           : MA / Core
    Mode                                     : 16
    Format settings, Endianness              : Big
    Codec ID                                 : A_DTS
    Duration                                 : 2h 18mn
    Bit rate mode                            : Variable / Constant
    Bit rate                                 : Unknown / 1 509 Kbps
    Channel(s)                               : 8 channels / 6 channels
    Channel positions                        : Front: L C R, Side: L R, Back: L R, LFE / Front: L C R, Side: L R, LFE
    Sampling rate                            : 48.0 KHz
    Frame rate                               : 93.750 fps (512 spf)
    Bit depth                                : 24 bits
    Compression mode                         : Lossless / Lossy
    Title                                    : Star.Wars.Episode.VII.The.Force.Awakens.2015.1080p.3D.BluRay.Half-OU.x264.DTS-HD.MA.7.1-FGT
    Language                                 : English
    Default                                  : Yes
    Forced                                   : No

    Audio #2
    ID                                       : 3
    Format                                   : DTS
    Format/Info                              : Digital Theater Systems
    Mode                                     : 16
    Format settings, Endianness              : Big
    Codec ID                                 : A_DTS
    Duration                                 : 2h 18mn
    Bit rate mode                            : Constant
    Bit rate                                 : 1 509 Kbps
    Channel(s)                               : 6 channels
    Channel positions                        : Front: L C R, Side: L R, LFE
    Sampling rate                            : 48.0 KHz
    Frame rate                               : 93.750 fps (512 spf)
    Bit depth                                : 24 bits
    Compression mode                         : Lossy
    Stream size                              : 1.46 GiB (5%)
    Title                                    : Star.Wars.Episode.VII.The.Force.Awakens.2015.1080p.3D.BluRay.Half-OU.x264.DTS-HD.MA.7.1-FGT
    Language                                 : English
    Default                                  : No
    Forced                                   : No

    Audio #3
    ID                                       : 4
    Format                                   : AC-3
    Format/Info                              : Audio Coding 3
    Format profile                           : Dolby Digital
    Mode extension                           : CM (complete main)
    Format settings, Endianness              : Big
    Codec ID                                 : A_AC3
    Duration                                 : 2h 18mn
    Bit rate mode                            : Constant
    Bit rate                                 : 320 Kbps
    Channel(s)                               : 2 channels
    Channel positions                        : Front: L R
    Sampling rate                            : 48.0 KHz
    Frame rate                               : 31.250 fps (1536 spf)
    Compression mode                         : Lossy
    Stream size                              : 316 MiB (1%)
    Title                                    : Star.Wars.Episode.VII.The.Force.Awakens.2015.1080p.3D.BluRay.Half-OU.x264.DTS-HD.MA.7.1-FGT
    Language                                 : English
    Default                                  : No
    Forced                                   : No

    Audio #4
    ID                                       : 5
    Format                                   : DTS
    Format/Info                              : Digital Theater Systems
    Format profile                           : HRA / Core
    Mode                                     : 16
    Format settings, Endianness              : Big
    Codec ID                                 : A_DTS
    Duration                                 : 2h 18mn
    Bit rate mode                            : Constant
    Bit rate                                 : 2 046 Kbps / 1 509 Kbps
    Channel(s)                               : 6 channels
    Channel positions                        : Front: L C R, Side: L R, LFE
    Sampling rate                            : 48.0 KHz
    Frame rate                               : 93.750 fps (512 spf)
    Bit depth                                : 24 bits
    Compression mode                         : Lossy
    Stream size                              : 1.97 GiB (7%)
    Title                                    : Star.Wars.Episode.VII.The.Force.Awakens.2015.1080p.3D.BluRay.Half-OU.x264.DTS-HD.MA.7.1-FGT
    Language                                 : French
    Default                                  : No
    Forced                                   : No

    Audio #5
    ID                                       : 6
    Format                                   : DTS
    Format/Info                              : Digital Theater Systems
    Mode                                     : 16
    Format settings, Endianness              : Big
    Codec ID                                 : A_DTS
    Duration                                 : 2h 18mn
    Bit rate mode                            : Constant
    Bit rate                                 : 1 509 Kbps
    Channel(s)                               : 6 channels
    Channel positions                        : Front: L C R, Side: L R, LFE
    Sampling rate                            : 48.0 KHz
    Frame rate                               : 93.750 fps (512 spf)
    Bit depth                                : 24 bits
    Compression mode                         : Lossy
    Stream size                              : 1.46 GiB (5%)
    Title                                    : Star.Wars.Episode.VII.The.Force.Awakens.2015.1080p.3D.BluRay.Half-OU.x264.DTS-HD.MA.7.1-FGT
    Language                                 : French
    Default                                  : No
    Forced                                   : No

    Audio #6
    ID                                       : 7
    Format                                   : AC-3
    Format/Info                              : Audio Coding 3
    Mode extension                           : CM (complete main)
    Format settings, Endianness              : Big
    Codec ID                                 : A_AC3
    Duration                                 : 2h 18mn
    Bit rate mode                            : Constant
    Bit rate                                 : 640 Kbps
    Channel(s)                               : 6 channels
    Channel positions                        : Front: L C R, Side: L R, LFE
    Sampling rate                            : 48.0 KHz
    Frame rate                               : 31.250 fps (1536 spf)
    Compression mode                         : Lossy
    Stream size                              : 632 MiB (2%)
    Title                                    : Star.Wars.Episode.VII.The.Force.Awakens.2015.1080p.3D.BluRay.Half-OU.x264.DTS-HD.MA.7.1-FGT
    Language                                 : Czech
    Default                                  : No
    Forced                                   : No

    Audio #7
    ID                                       : 8
    Format                                   : AC-3
    Format/Info                              : Audio Coding 3
    Mode extension                           : CM (complete main)
    Format settings, Endianness              : Big
    Codec ID                                 : A_AC3
    Duration                                 : 2h 18mn
    Bit rate mode                            : Constant
    Bit rate                                 : 640 Kbps
    Channel(s)                               : 6 channels
    Channel positions                        : Front: L C R, Side: L R, LFE
    Sampling rate                            : 48.0 KHz
    Frame rate                               : 31.250 fps (1536 spf)
    Compression mode                         : Lossy
    Stream size                              : 632 MiB (2%)
    Title                                    : Star.Wars.Episode.VII.The.Force.Awakens.2015.1080p.3D.BluRay.Half-OU.x264.DTS-HD.MA.7.1-FGT
    Language                                 : Hindi
    Default                                  : No
    Forced                                   : No

    Text #1
    ID                                       : 9
    Format                                   : PGS
    Muxing mode                              : zlib
    Codec ID                                 : S_HDMV/PGS
    Codec ID/Info                            : Picture based subtitle format used on BDs/HD-DVDs
    Title                                    : English-PGS
    Language                                 : English
    Default                                  : No
    Forced                                   : No

    Text #2
    ID                                       : 10
    Format                                   : PGS
    Muxing mode                              : zlib
    Codec ID                                 : S_HDMV/PGS
    Codec ID/Info                            : Picture based subtitle format used on BDs/HD-DVDs
    Title                                    : French-PGS
    Language                                 : French
    Default                                  : No
    Forced                                   : No

    Text #3
    ID                                       : 11
    Format                                   : PGS
    Muxing mode                              : zlib
    Codec ID                                 : S_HDMV/PGS
    Codec ID/Info                            : Picture based subtitle format used on BDs/HD-DVDs
    Title                                    : Czech-PGS
    Language                                 : Czech
    Default                                  : No
    Forced                                   : No

    Text #4
    ID                                       : 12
    Format                                   : PGS
    Muxing mode                              : zlib
    Codec ID                                 : S_HDMV/PGS
    Codec ID/Info                            : Picture based subtitle format used on BDs/HD-DVDs
    Title                                    : Dutch-PGS
    Language                                 : Dutch
    Default                                  : No
    Forced                                   : No

    Text #5
    ID                                       : 13
    Format                                   : PGS
    Muxing mode                              : zlib
    Codec ID                                 : S_HDMV/PGS
    Codec ID/Info                            : Picture based subtitle format used on BDs/HD-DVDs
    Title                                    : Arabic-PGS
    Language                                 : Arabic
    Default                                  : No
    Forced                                   : No

    Text #6
    ID                                       : 14
    Format                                   : PGS
    Muxing mode                              : zlib
    Codec ID                                 : S_HDMV/PGS
    Codec ID/Info                            : Picture based subtitle format used on BDs/HD-DVDs
    Title                                    : Danish-PGS
    Language                                 : Danish
    Default                                  : No
    Forced                                   : No

    Text #7
    ID                                       : 15
    Format                                   : PGS
    Muxing mode                              : zlib
    Codec ID                                 : S_HDMV/PGS
    Codec ID/Info                            : Picture based subtitle format used on BDs/HD-DVDs
    Title                                    : Finnish-PGS
    Language                                 : Finnish
    Default                                  : No
    Forced                                   : No

    Text #8
    ID                                       : 16
    Format                                   : PGS
    Muxing mode                              : zlib
    Codec ID                                 : S_HDMV/PGS
    Codec ID/Info                            : Picture based subtitle format used on BDs/HD-DVDs
    Title                                    : Norwegian-PGS
    Language                                 : Norwegian
    Default                                  : No
    Forced                                   : No

    Text #9
    ID                                       : 17
    Format                                   : PGS
    Muxing mode                              : zlib
    Codec ID                                 : S_HDMV/PGS
    Codec ID/Info                            : Picture based subtitle format used on BDs/HD-DVDs
    Title                                    : Swedish-PGS
    Language                                 : Swedish
    Default                                  : No
    Forced                                   : No

    Text #10
    ID                                       : 18
    Format                                   : PGS
    Muxing mode                              : zlib
    Codec ID                                 : S_HDMV/PGS
    Codec ID/Info                            : Picture based subtitle format used on BDs/HD-DVDs
    Title                                    : French-FORCED-PGS
    Language                                 : French
    Default                                  : No
    Forced                                   : No

    Text #11
    ID                                       : 19
    Format                                   : PGS
    Muxing mode                              : zlib
    Codec ID                                 : S_HDMV/PGS
    Codec ID/Info                            : Picture based subtitle format used on BDs/HD-DVDs
    Title                                    : Czech-FORCED-PGS
    Language                                 : Czech
    Default                                  : No
    Forced                                   : No

    Text #12
    ID                                       : 20
    Format                                   : PGS
    Muxing mode                              : zlib
    Codec ID                                 : S_HDMV/PGS
    Codec ID/Info                            : Picture based subtitle format used on BDs/HD-DVDs
    Title                                    : Hindi-FORCED-PGS
    Language                                 : Hindi
    Default                                  : No
    Forced                                   : No




    07593785500014062826_thumb.jpg

    17261879806438593388_thumb.jpg

    35616522584829921527_thumb.jpg

    40117778767073466666_thumb.jpg

    75001745175065866955_thumb.jpg

    95424397837570966758_thumb.jpg

    游客,如果您要查看本帖隐藏内容请回复


    Format                                   : Matroska
    Format version                           : Version 2
    File size                                : 15.0 GiB
    Duration                                 : 2h 18mn
    Overall bit rate                         : 15.5 Mbps
    Movie name                               : Star.Wars.Episode.VII.The.Force.Awakens.3D.2015.PL.HOU.BDRip.1080p.Sonda
    Encoded date                             : UTC 2016-10-28 13:50:56
    Writing application                      : mkvmerge v5.7.0 ('The Whirlwind') built on Jul  8 2012 20:08:51
    Writing library                          : libebml v1.2.3 + libmatroska v1.3.0

    Video
    ID                                       : 1
    Format                                   : AVC
    Format/Info                              : Advanced Video Codec
    Format profile                           : High@L4.1
    Format settings, CABAC                   : Yes
    Format settings, ReFrames                : 4 frames
    Codec ID                                 : V_MPEG4/ISO/AVC
    Duration                                 : 2h 18mn
    Bit rate                                 : 12.5 Mbps
    Width                                    : 1 920 pixels
    Height                                   : 1 080 pixels
    Display aspect ratio                     : 16:9 (2.39:1)
    Frame rate mode                          : Constant
    Frame rate                               : 23.976 fps
    Color space                              : YUV
    Chroma subsampling                       : 4:2:0
    Bit depth                                : 8 bits
    Scan type                                : Progressive
    Bits/(Pixel*Frame)                       : 0.251
    Stream size                              : 11.8 GiB (79%)
    Title                                    : Rip by Sonda
    Writing library                          : x264 core 148 r2638 7599210
    Encoding settings                        : cabac=1 / ref=4 / deblock=1:-1:-1 / rc=2pass
    Default                                  : Yes
    Forced                                   : No

    Audio #1
    ID                                       : 2
    Format                                   : AC-3
    Format/Info                              : Audio Coding 3
    Mode extension                           : CM (complete main)
    Format settings, Endianness              : Big
    Codec ID                                 : A_AC3
    Duration                                 : 2h 18mn
    Bit rate mode                            : Constant
    Bit rate                                 : 192 Kbps
    Channel count                            : 2 channels
    Channel positions                        : Front: L R
    Sampling rate                            : 48.0 KHz
    Bit depth                                : 16 bits
    Compression mode                         : Lossy
    Stream size                              : 190 MiB (1%)
    Title                                    : AC3 2.0 Lektor PL
    Language                                 : Polish
    Default                                  : Yes
    Forced                                   : Yes

    Audio #2
    ID                                       : 3
    Format                                   : AC-3
    Format/Info                              : Audio Coding 3
    Mode extension                           : CM (complete main)
    Format settings, Endianness              : Big
    Codec ID                                 : A_AC3
    Duration                                 : 2h 18mn
    Bit rate mode                            : Constant
    Bit rate                                 : 640 Kbps
    Channel count                            : 6 channels
    Channel positions                        : Front: L C R, Side: L R, LFE
    Sampling rate                            : 48.0 KHz
    Bit depth                                : 16 bits
    Compression mode                         : Lossy
    Stream size                              : 632 MiB (4%)
    Title                                    : AC3 5.1 Dubbing PL
    Language                                 : Polish
    Default                                  : No
    Forced                                   : No

    Audio #3
    ID                                       : 4
    Format                                   : AC-3
    Format/Info                              : Audio Coding 3
    Mode extension                           : CM (complete main)
    Format settings, Endianness              : Big
    Codec ID                                 : A_AC3
    Duration                                 : 2h 18mn
    Bit rate mode                            : Constant
    Bit rate                                 : 640 Kbps
    Channel count                            : 6 channels
    Channel positions                        : Front: L C R, Side: L R, LFE
    Sampling rate                            : 48.0 KHz
    Bit depth                                : 16 bits
    Compression mode                         : Lossy
    Stream size                              : 632 MiB (4%)
    Title                                    : AC3 5.1 ENG
    Language                                 : English
    Default                                  : No
    Forced                                   : No

    Audio #4
    ID                                       : 5
    Format                                   : DTS
    Format/Info                              : Digital Theater Systems
    Mode                                     : 16
    Format settings, Endianness              : Big
    Codec ID                                 : A_DTS
    Duration                                 : 2h 18mn
    Bit rate mode                            : Constant
    Bit rate                                 : 1 509 Kbps
    Channel count                            : 6 channels
    Channel positions                        : Front: L C R, Side: L R, LFE
    Sampling rate                            : 48.0 KHz
    Bit depth                                : 24 bits
    Compression mode                         : Lossy
    Stream size                              : 1.46 GiB (10%)
    Title                                    : DTS 5.1 ENG
    Language                                 : English
    Default                                  : No
    Forced                                   : No

    Text #1
    ID                                       : 6
    Format                                   : UTF-8
    Codec ID                                 : S_TEXT/UTF8
    Codec ID/Info                            : UTF-8 Plain Text
    Title                                    : napisy PL 2D.srt
    Language                                 : Polish
    Default                                  : No
    Forced                                   : No

    Text #2
    ID                                       : 7
    Format                                   : UTF-8
    Codec ID                                 : S_TEXT/UTF8
    Codec ID/Info                            : UTF-8 Plain Text
    Title                                    : napisy ENG 2D.srt
    Language                                 : English
    Default                                  : No
    Forced                                   : No

    Text #3
    ID                                       : 8
    Format                                   : PGS
    Muxing mode                              : zlib
    Codec ID                                 : S_HDMV/PGS
    Codec ID/Info                            : The same subtitle format used on BDs/HD-DVDs
    Title                                    : napisy PL 3D.sup
    Language                                 : Polish
    Default                                  : No
    Forced                                   : No

    Text #4
    ID                                       : 9
    Format                                   : PGS
    Muxing mode                              : zlib
    Codec ID                                 : S_HDMV/PGS
    Codec ID/Info                            : The same subtitle format used on BDs/HD-DVDs
    Title                                    : napisy ENG 3D.sup
    Language                                 : English
    Default                                  : No
    Forced                                   : No



    4nNafLQ.jpg

    6B2TPxO.jpg

    d320K7l.jpg

    YnzwUKy.jpg


    游客,如果您要查看本帖隐藏内容请回复



    Storyline:
    30 years after the defeat of Darth Vader and the Empire, Rey, a scavenger from the planet Jakku, finds a BB-8 droid that knows the whereabouts of the long lost Luke Skywalker. Rey, as well as a rogue stormtrooper and two smugglers, are thrown into the middle of a battle between the Resistance and the daunting legions of the First Order.


    General:

          
    Format.......: Matroska
    File Size....: 7.24 GiB
    Duration.....: 2h 18mn
    Bitrate......: 7 507 Kbps
    Source.......: BluRay
    Encoder".......JYK


    IMDB.......http://www.imdb.com/title/tt2488496/




    Video:


    Video Format......: AVC
    Video Codec.......: x264 core 148 r2638 7599210     
    Bitrate...........: 6 750 Kbps
    Frame Rate........: 23.976 fps
    Width.............: 1 920 pixels
    Height............: 1 080 pixels
    aspect ratio......: 16:9



    Audio #1:


    Format..........: DTS
    Bitrate.........: 755 Kbps
    Channels........: 6 channels
    Sampling Rate...: 48.0 KHz
    Language........: English


    Subtitles:

    Codec...................... Language

    srt ....................... English
    srt ....................... French
    srt ....................... Spanish





    24FEx.jpg

    24nDW.jpg

    24Rm5.jpg

    247AI.jpg




    游客,如果您要查看本帖隐藏内容请回复

    评分

    参与人数 1威望 +4 e币 +20 贡献 +4 收起 理由
    lsjsyp + 4 + 20 + 4 很给力,楼主辛苦了!

    查看全部评分

    匿名  发表于 2016-10-28 09:47:22
    [星球大战7:原力觉醒3D Star.Wars.Episode.VII.The.Force.Awakens.2015.3D][1080p][MKV 26.39G/26.85G][BT] [修改]
    高级模式
    匿名  发表于 2016-10-28 09:48:03
    [星球大战7:原力觉醒3D Star.Wars.Episode.VII.The.Force.Awakens.2015.3D][1080p][MKV 26.39G/26.85G][BT] [修改]
    高级模式
  • TA的每日心情
    开心
    2017-3-16 13:52
  • 签到天数: 250 天

    [LV.8]以坛为家III

    发表于 2016-10-28 09:49:14 | 显示全部楼层
    [星球大战7:原力觉醒3D Star.Wars.Episode.VII.The.Force.Awakens.2015.3D][1080p][MKV 26.39G/26.85G][BT] [修改]
    高级模式
    回复 支持 反对

    使用道具 举报

  • TA的每日心情
    开心
    2017-2-20 22:17
  • 签到天数: 256 天

    [LV.8]以坛为家III

    发表于 2016-10-28 09:52:01 | 显示全部楼层
    谢谢分享~~
    回复 支持 反对

    使用道具 举报

  • TA的每日心情
    开心
    2017-5-1 22:12
  • 签到天数: 85 天

    [LV.6]常住居民II

    发表于 2016-10-28 10:37:17 | 显示全部楼层
    值得收藏的电影。。。下载给孩子看
    回复 支持 反对

    使用道具 举报

  • TA的每日心情
    开心
    2017-2-23 11:39
  • 签到天数: 684 天

    [LV.9]以坛为家II

    发表于 2016-10-28 10:38:50 | 显示全部楼层
    不错下载看看
    回复 支持 反对

    使用道具 举报

  • TA的每日心情
    开心
    2017-6-17 10:33
  • 签到天数: 59 天

    [LV.5]常住居民I

    发表于 2016-10-28 11:24:30 | 显示全部楼层
    要下载的,谢谢!
    回复 支持 反对

    使用道具 举报

  • TA的每日心情

    2017-9-5 13:39
  • 签到天数: 174 天

    [LV.7]常住居民III

    发表于 2016-10-28 11:30:00 | 显示全部楼层
    这个片居然出了高配版,之前那个4G的可以删掉了,谢谢楼主
    回复 支持 反对

    使用道具 举报

  • TA的每日心情
    擦汗
    2017-5-3 14:15
  • 签到天数: 104 天

    [LV.6]常住居民II

    发表于 2016-10-28 11:34:05 | 显示全部楼层
    等了一年了,谢谢分享
    回复 支持 反对

    使用道具 举报

    高级模式
    B Color Image Link Quote Code Smilies

    本版积分规则

    免责申明|小黑屋|手机版|Archiver|网站地图| 3D一族论坛  

    Copyright © 2001-2015 Comsenz Inc.   All Rights Reserved.

    Powered by Discuz! X3.2( 沪ICP备14045620号-1 )

    快速回复 返回顶部 返回列表