请选择 进入手机版 | 继续访问电脑版
 找回密码

3D一族论坛

查看: 2852|回复: 105

[1080P] [小姐 The.Handmaiden.2016.720p/1080p.BluRay.x264.DTS-WiKi][MKV 5.46G/14.09G][BT][简繁字幕]

  [复制链接]
  • TA的每日心情
    开心
    6 天前
  • 签到天数: 1636 天

    [LV.Master]伴坛终老

    发表于 2016-10-30 08:58:27 | 显示全部楼层 |阅读模式
    b6bbf16af62ae994db55c713b96c952754063050.jpg


    ◎译  名 
    小姐/下女诱罪(港)/下女的诱惑(台)/指匠情挑
    ◎片  名 The Handmaiden/아가씨
    ◎年  代 2016
    ◎国  家 韩国
    ◎类  别 剧情/爱情
    ◎语  言 韩语
    ◎字  幕 简体中文/繁体中文
    ◎IMDb评分  8.0/10 (5,305 votes)
    ◎IMDB链接 http://www.imdb.com/title/tt4016934
    ◎片  长 2h:19m:05s
    ◎导  演 朴赞郁 Chan-wook Park
    ◎主  演 金敏喜 Min-hie Kim
          金泰璃 Tae Ri Kim
          河正宇 Jung-woo Ha
          赵镇雄 Jin-woong Jo
          金海淑 Hae-suk Kim
          文素丽 So-ri Moon



    ◎简  介



      韩国,上世纪30年代,日本占领期间。一位年轻的少女(金泰璃 饰)受雇到一位富有的日本小姐(金敏喜 饰)家中当女佣。后者在一座巨大的庄园内生活,并受专横的叔叔看管。但这位女佣却有一个秘密。在一个假扮日本伯爵(河正宇 饰)的骗子的帮助下,他们为小姐设下了其他圈套……



    Video
    ID                                       : 1
    Format                                   : AVC
    Format/Info                              : Advanced Video Codec
    Format profile                           : High@L4.1
    Format settings, CABAC                   : Yes
    Format settings, ReFrames                : 12 frames
    Codec ID                                 : V_MPEG4/ISO/AVC
    Duration                                 : 2h 19mn
    Bit rate                                 : 4 980 Kbps
    Width                                    : 1 280 pixels
    Height                                   : 536 pixels
    Display aspect ratio                     : 2.40:1
    Frame rate mode                          : Constant
    Frame rate                               : 25.000 fps
    Color space                              : YUV
    Chroma subsampling                       : 4:2:0
    Bit depth                                : 8 bits
    Scan type                                : Progressive
    Bits/(Pixel*Frame)                       : 0.290
    Stream size                              : 4.83 GiB (89%)
    Writing library                          : x264 core 129 r2245+704+36 8e61944 tMod+MixAQ [8-bit@4:2:0 X86_64]
    Encoding settings                        : cabac=1 / ref=12 / deblock=1:-3:-3 / analyse=0x3:0x133 / me=umh / subme=11 / psy=1 / fade_compensate=0.00 / psy_rd=1.05:0.10 / mixed_ref=1 / me_range=32 / chroma_me=1 / trellis=2 / 8x8dct=1 / cqm=0 / deadzone=21,11 / fast_pskip=0 / chroma_qp_offset=-3 / threads=18 / lookahead_threads=3 / sliced_threads=0 / nr=0 / decimate=0 / interlaced=0 / bluray_compat=0 / constrained_intra=0 / fgo=0 / bframes=10 / b_pyramid=2 / b_adapt=2 / b_bias=0 / direct=3 / weightb=1 / open_gop=0 / weightp=2 / keyint=250 / keyint_min=25 / scenecut=40 / intra_refresh=0 / rc_lookahead=80 / rc=2pass / mbtree=1 / bitrate=4980 / ratetol=1.0 / qcomp=0.70 / qpmin=0 / qpmax=69 / qpstep=4 / cplxblur=20.0 / qblur=0.5 / ip_ratio=1.40 / aq=1 / aq-strength=0.85 / aq-sensitivity=10.00 / aq-ifactor=1.00 / aq-pfactor=1.00 / aq-bfactor=1.00 / aq2=0
    Language                                 : Korean
    Default                                  : Yes
    Forced                                   : No
    Color range                              : Limited
    Matrix coefficients                      : BT.709

    Audio
    ID                                       : 2
    Format                                   : AC-3
    Format/Info                              : Audio Coding 3
    Mode extension                           : CM (complete main)
    Format settings, Endianness              : Big
    Codec ID                                 : A_AC3
    Duration                                 : 2h 19mn
    Bit rate mode                            : Constant
    Bit rate                                 : 640 Kbps
    Channel(s)                               : 6 channels
    Channel positions                        : Front: L C R, Side: L R, LFE
    Sampling rate                            : 48.0 KHz
    Frame rate                               : 31.250 fps (1536 spf)
    Compression mode                         : Lossy
    Stream size                              : 637 MiB (11%)
    Language                                 : Korean
    Default                                  : Yes
    Forced                                   : No

    Text #1
    ID                                       : 3
    Format                                   : UTF-8
    Codec ID                                 : S_TEXT/UTF8
    Codec ID/Info                            : UTF-8 Plain Text
    Duration                                 : 2h 17mn
    Bit rate                                 : 37 bps
    Count of elements                        : 1256
    Stream size                              : 37.7 KiB (0%)
    Title                                    : Simplified
    Language                                 : Chinese
    Default                                  : Yes
    Forced                                   : No

    Text #2
    ID                                       : 4
    Format                                   : UTF-8
    Codec ID                                 : S_TEXT/UTF8
    Codec ID/Info                            : UTF-8 Plain Text
    Duration                                 : 2h 17mn
    Bit rate                                 : 37 bps
    Count of elements                        : 1256
    Stream size                              : 37.7 KiB (0%)
    Title                                    : Traditional
    Language                                 : Chinese
    Default                                  : No
    Forced                                   : No


    18652173239799640656_thumb.jpg

    35431253498811983039_thumb.jpg

    53313781717876087434_thumb.jpg

    76629476792048359484_thumb.jpg

    78168912331720944118_thumb.jpg

    93284975965664632856_thumb.jpg

    游客,如果您要查看本帖隐藏内容请回复




    Video
    ID                                       : 1
    Format                                   : AVC
    Format/Info                              : Advanced Video Codec
    Format profile                           : High@L4.1
    Format settings, CABAC                   : Yes
    Format settings, ReFrames                : 5 frames
    Codec ID                                 : V_MPEG4/ISO/AVC
    Duration                                 : 2h 19mn
    Bit rate                                 : 13.0 Mbps
    Width                                    : 1 920 pixels
    Height                                   : 804 pixels
    Display aspect ratio                     : 2.40:1
    Frame rate mode                          : Constant
    Frame rate                               : 25.000 fps
    Color space                              : YUV
    Chroma subsampling                       : 4:2:0
    Bit depth                                : 8 bits
    Scan type                                : Progressive
    Bits/(Pixel*Frame)                       : 0.337
    Stream size                              : 12.3 GiB (88%)
    Writing library                          : x264 core 142 r2431+42 c69a006 tMod [8-bit@all X86_64]
    Encoding settings                        : cabac=1 / ref=5 / deblock=1:-3:-3 / analyse=0x3:0x133 / me=umh / subme=11 / psy=1 / fade_compensate=0.00 / psy_rd=1.10:0.10 / mixed_ref=1 / me_range=64 / chroma_me=1 / trellis=2 / 8x8dct=1 / cqm=0 / deadzone=21,11 / fast_pskip=0 / chroma_qp_offset=-1 / threads=12 / lookahead_threads=3 / sliced_threads=0 / nr=0 / decimate=0 / interlaced=0 / bluray_compat=0 / constrained_intra=0 / fgo=0 / bframes=10 / b_pyramid=2 / b_adapt=2 / b_bias=0 / direct=3 / weightb=1 / open_gop=0 / weightp=2 / keyint=250 / keyint_min=25 / scenecut=40 / intra_refresh=0 / rc_lookahead=120 / rc=2pass / mbtree=0 / bitrate=13000 / ratetol=1.0 / qcomp=0.70 / qpmin=0:0:0 / qpmax=69:69:69 / qpstep=4 / cplxblur=20.0 / qblur=0.5 / vbv_maxrate=50000 / vbv_bufsize=50000 / nal_hrd=none / filler=0 / ip_ratio=1.40 / pb_ratio=1.30 / aq=1:0.70 / aq-sensitivity=10.00 / aq-factor=1.00:1.00:1.00 / aq2=0 / aq3=0
    Language                                 : Korean
    Default                                  : Yes
    Forced                                   : No

    Audio
    ID                                       : 2
    Format                                   : DTS
    Format/Info                              : Digital Theater Systems
    Mode                                     : 16
    Format settings, Endianness              : Big
    Codec ID                                 : A_DTS
    Duration                                 : 2h 19mn
    Bit rate mode                            : Constant
    Bit rate                                 : 1 509 Kbps
    Channel(s)                               : 6 channels
    Channel positions                        : Front: L C R, Side: L R, LFE
    Sampling rate                            : 48.0 KHz
    Frame rate                               : 93.750 fps (512 spf)
    Bit depth                                : 16 bits
    Compression mode                         : Lossy
    Stream size                              : 1.47 GiB (10%)
    Language                                 : Korean
    Default                                  : Yes
    Forced                                   : No

    Text #1
    ID                                       : 3
    Format                                   : UTF-8
    Codec ID                                 : S_TEXT/UTF8
    Codec ID/Info                            : UTF-8 Plain Text
    Title                                    : CHS
    Language                                 : Chinese
    Default                                  : No
    Forced                                   : No

    Text #2
    ID                                       : 4
    Format                                   : UTF-8
    Codec ID                                 : S_TEXT/UTF8
    Codec ID/Info                            : UTF-8 Plain Text
    Title                                    : CHT
    Language                                 : Chinese
    Default                                  : No
    Forced                                   : No






    游客,如果您要查看本帖隐藏内容请回复

  • TA的每日心情

    2016-12-31 09:49
  • 签到天数: 67 天

    [LV.6]常住居民II

    发表于 2016-10-30 11:28:45 | 显示全部楼层
    [小姐 The.Handmaiden.2016.720p/1080p.BluRay.x264.DTS-WiKi][M
    回复 支持 反对

    使用道具 举报

  • TA的每日心情
    开心
    2017-3-17 20:12
  • 签到天数: 808 天

    [LV.10]以坛为家III

    发表于 2016-10-30 12:40:22 | 显示全部楼层
    下来看看.谢谢分享
    回复 支持 反对

    使用道具 举报

  • TA的每日心情
    开心
    2016-11-12 18:31
  • 签到天数: 3 天

    [LV.2]偶尔看看I

    发表于 2016-10-30 13:41:31 | 显示全部楼层
    好电影就要看大屏
    回复 支持 反对

    使用道具 举报

    匿名  发表于 2016-10-30 17:40:07
    下来看看,据说还不错
  • TA的每日心情
    擦汗
    昨天 22:59
  • 签到天数: 391 天

    [LV.9]以坛为家II

    发表于 2016-10-30 17:50:25 | 显示全部楼层
    感谢楼主无私分享!
    回复 支持 反对

    使用道具 举报

  • TA的每日心情
    慵懒
    昨天 20:15
  • 签到天数: 950 天

    [LV.10]以坛为家III

    发表于 2016-10-30 23:20:13 | 显示全部楼层
    谢谢分享
    回复 支持 反对

    使用道具 举报

  • TA的每日心情
    开心
    半小时前
  • 签到天数: 1481 天

    [LV.10]以坛为家III

    发表于 2016-10-31 00:13:34 | 显示全部楼层
    谢谢楼主分享。
    回复 支持 反对

    使用道具 举报

  • TA的每日心情
    无聊
    2016-11-22 23:22
  • 签到天数: 164 天

    [LV.7]常住居民III

    发表于 2016-10-31 00:19:52 | 显示全部楼层
    下来看看.谢谢分享
    回复 支持 反对

    使用道具 举报

    匿名  发表于 2016-10-31 07:15:37
    efgafsd asg  sadg asdg
    高级模式
    B Color Image Link Quote Code Smilies

    本版积分规则

    免责申明|小黑屋|手机版|Archiver|网站地图| 3D一族论坛  

    Copyright © 2001-2015 Comsenz Inc.   All Rights Reserved.

    Powered by Discuz! X3.2( 沪ICP备14045620号-1 )

    快速回复 返回顶部 返回列表