请选择 进入手机版 | 继续访问电脑版
 找回密码

3D一族论坛

查看: 4759|回复: 147

[左右] [金属风暴3D Metalstorm.The.Destruction.of.Jared-Syn.1983.3D][1080p][左右半宽][MKV 6.55G][BT]

  [复制链接]
  • TA的每日心情
    开心
    5 天前
  • 签到天数: 1636 天

    [LV.Master]伴坛终老

    发表于 2016-10-30 14:11:36 | 显示全部楼层 |阅读模式
    影片截图:

    data/attachment/forum/201610/30/140431lsxzsmgjkswkzvjx.jpg

         
      片        名: Metalstorm.The.Destruction.of.Jared-Syn.1983.3D
      译        名: 金属风暴.1983.3D
      类        别: 动作 爱情 科幻 冒险 
      国        家: 欧美
      语        言: 英语
      字        幕: N/A
      集        数:
      文件格式: MKV
      视频尺寸: 1920*1080
      文件大小: 6.55GB
      上映时间:
      影片导演: Charles Band
      主要演员: Jeffrey Byron, Michael Preston, Tim Thomerson | See full cast & crew
       
       
      推荐等级: ★★★★★
         
    下载地址:
    [下载方式]: bt下载
    [分辨率]: 1080p
    [迅雷地址]:
    [网盘下载]:
    影片简介: fangfang
    Dogen救援禅定在她父亲是被邪恶的Jared-Syn。为她的父亲报仇的死| Dogen必须找到Jared-Syn的藏身之处神秘的“失落之城”|但唯一知道这是一个衰老的人|烧毁的导引头叫罗兹。一路上|他们需要做斗争猎人巴力和他的毛石仆从Jared-Syn在决赛相遇。
    Metalstorm The Destruction of Jared-Syn 3D _front.jpg



    ◎译  名 金属风暴
    ◎片  名 Metalstorm: The Destruction of Jared-Syn
    ◎年  代 1983
    ◎国  家 美国
    ◎类  别 冒险/科幻/动作/爱情
    ◎语  言 英语
    ◎上映日期 1983
    ◎IMDb评分  3.6/10 from 1,232 users
    ◎IMDb链接  http://www.imdb.com/title/tt0085935/
    ◎片  长 84 分钟/West Germany: 77 分钟
    ◎导  演 Charles Band

    ◎简  介

      A seeker named Dogen rescues Dhyana after her father is murdered by the evil Jared-Syn. To avenge her father's death| Dogen must find Jared-Syn's hideout in themysterious "Lost City"| but the only person who knows where it is an aging| burned-out seeker named Rhodes. Along the way| they will need to do battle against thehunter Baal and his Cyclopean minions for engaging Jared-Syn in a final encounter.







    Video
    ID                                       : 1
    Format                                   : AVC
    Format/Info                              : Advanced Video Codec
    Format profile                           : High@L4.1
    MultiView_Count                          : 2
    MultiView_Layout                         : Side by Side (left eye first)
    Format settings, CABAC                   : Yes
    Format settings, ReFrames                : 5 frames
    Codec ID                                 : V_MPEG4/ISO/AVC
    Duration                                 : 1h 23mn
    Bit rate                                 : 9 732 Kbps
    Width                                    : 1 920 pixels
    Height                                   : 800 pixels
    Display aspect ratio                     : 2.40:1
    Frame rate mode                          : Constant
    Frame rate                               : 23.976 (24000/1001) fps
    Color space                              : YUV
    Chroma subsampling                       : 4:2:0
    Bit depth                                : 8 bits
    Scan type                                : Progressive
    Bits/(Pixel*Frame)                       : 0.264
    Stream size                              : 5.67 GiB (87%)
    Writing library                          : x264 core 148 r2692 64f4e24
    Encoding settings                        : cabac=1 / ref=5 / deblock=1:-3:-3 / analyse=0x3:0x113 / me=umh / subme=8 / psy=1 / psy_rd=1.00:0.25 / mixed_ref=1 / me_range=24 / chroma_me=1 / trellis=1 / 8x8dct=1 / cqm=0 / deadzone=21,11 / fast_pskip=1 / chroma_qp_offset=-4 / threads=24 / lookahead_threads=4 / sliced_threads=0 / nr=0 / decimate=1 / interlaced=0 / bluray_compat=0 / constrained_intra=0 / bframes=3 / b_pyramid=2 / b_adapt=2 / b_bias=0 / direct=3 / weightb=1 / open_gop=0 / weightp=2 / keyint=250 / keyint_min=23 / scenecut=40 / intra_refresh=0 / rc_lookahead=50 / rc=2pass / mbtree=1 / bitrate=9732 / ratetol=1.0 / qcomp=0.60 / qpmin=0 / qpmax=69 / qpstep=4 / cplxblur=20.0 / qblur=0.5 / vbv_maxrate=62500 / vbv_bufsize=78125 / nal_hrd=none / filler=0 / frame-packing=3 / ip_ratio=1.40 / aq=1:0.50
    Default                                  : Yes
    Forced                                   : No
    Color range                              : Limited
    Matrix coefficients                      : BT.709

    Audio
    ID                                       : 2
    Format                                   : DTS
    Format/Info                              : Digital Theater Systems
    Mode                                     : 16
    Format settings, Endianness              : Big
    Codec ID                                 : A_DTS
    Duration                                 : 1h 23mn
    Bit rate mode                            : Constant
    Bit rate                                 : 1 509 Kbps
    Channel(s)                               : 6 channels
    Channel positions                        : Front: L C R, Side: L R, LFE
    Sampling rate                            : 48.0 KHz
    Frame rate                               : 93.750 fps (512 spf)
    Bit depth                                : 24 bits
    Compression mode                         : Lossy
    Stream size                              : 901 MiB (13%)
    Language                                 : English
    Default                                  : Yes
    Forced                                   : No






    68745573192688114490_thumb.jpg


    游客,如果您要查看本帖隐藏内容请回复

    点评

    片子无资源,下载不了。  发表于 2017-5-8 16:57
  • TA的每日心情
    开心
    昨天 10:23
  • 签到天数: 1216 天

    [LV.10]以坛为家III

    发表于 2016-10-30 17:01:31 | 显示全部楼层
    非常感谢楼主热心的分享!
    回复 支持 反对

    使用道具 举报

  • TA的每日心情
    开心
    昨天 13:30
  • 签到天数: 317 天

    [LV.8]以坛为家III

    发表于 2016-10-30 17:01:46 | 显示全部楼层
    谢谢楼主分享
    回复 支持 反对

    使用道具 举报

  • TA的每日心情

    昨天 23:51
  • 签到天数: 390 天

    [LV.9]以坛为家II

    发表于 2016-10-30 17:54:56 | 显示全部楼层
    感谢楼主无私奉献电影!
    回复 支持 反对

    使用道具 举报

  • TA的每日心情
    开心
    2017-1-26 13:50
  • 签到天数: 665 天

    [LV.9]以坛为家II

    发表于 2016-10-30 18:41:43 | 显示全部楼层
    下载来看看,谢谢了。。。。。
    回复 支持 反对

    使用道具 举报

    匿名  发表于 2016-10-30 19:27:22
    顶楼主,谢谢
    匿名  发表于 2016-10-30 19:27:31
    顶楼主,谢谢
    匿名  发表于 2016-10-30 19:27:35
    顶楼主,谢谢
  • TA的每日心情
    擦汗
    2016-10-30 19:46
  • 签到天数: 18 天

    [LV.4]偶尔看看III

    发表于 2016-10-30 19:49:36 | 显示全部楼层
    金属风暴3D
    回复 支持 反对

    使用道具 举报

  • TA的每日心情

    2017-3-1 15:35
  • 签到天数: 666 天

    [LV.9]以坛为家II

    发表于 2016-10-30 20:03:30 | 显示全部楼层
    [金属风暴3D Metalstorm.The.Destruction.of.Jared-
    回复 支持 反对

    使用道具 举报

    高级模式
    B Color Image Link Quote Code Smilies

    本版积分规则

    免责申明|小黑屋|手机版|Archiver|网站地图| 3D一族论坛  

    Copyright © 2001-2015 Comsenz Inc.   All Rights Reserved.

    Powered by Discuz! X3.2( 沪ICP备14045620号-1 )

    快速回复 返回顶部 返回列表