请选择 进入手机版 | 继续访问电脑版
 找回密码

3D一族论坛

查看: 2526|回复: 328

[1080P] [机械师2:复活 Mechanic.Resurrection.2016.1080p.BluRay.x264-BLOW][MKV 4.37G/7.65G][BT]

  [复制链接]
  • TA的每日心情
    开心
    6 天前
  • 签到天数: 1636 天

    [LV.Master]伴坛终老

    发表于 2016-11-12 15:15:12 | 显示全部楼层 |阅读模式
    Mechanic.Resurrection.2016.jpg


    ◎译  名 机械师2:复活/秒速杀机2(港)/极速秒杀2(台)/机械师2

    ◎片  名 Mechanic: Resurrection
    ◎年  代 2016
    ◎国  家 法国/美国
    ◎类  别 动作/犯罪
    ◎语  言 英语/保加利亚语
    ◎上映日期 2016-10-21(中国大陆)/2016-08-26(美国)
    ◎IMDb评分  5.7/10 from 19,454 users
    ◎豆瓣评分 5.7/10 from 27,753 users
    ◎片  长 98分钟(美国)/97分钟(中国大陆)
    ◎导  演 丹尼斯·甘塞尔 Dennis Gansel
    ◎主  演 杰森·斯坦森 Jason Statham
          杰西卡·阿尔芭 Jessica Alba
          汤米·李·琼斯 Tommy Lee Jones
          杨紫琼 Michelle Yeoh
          山姆·哈兹尔丁 Sam Hazeldine
          约翰·塞纳迭姆博 John Cenatiempo
          托比·艾丁顿 Toby Eddington
          费米·依鲁福祖 Femi Elufowoju Jr.
          安提欧·昆塔瓦莱 Anteo Quintavalle
          雅雅英 Yayaying Rhatha Phongam
          邦妮·泽勒巴克 Bonnie Zellerbach
          斯图尔特·索普 Stuart Thorp
          艾利克斯·库则力科 Alex Kuzelicki
          布拉汉姆·艾克巴赫 Brahim Achabbakhe
          托马斯·科维 Thomas Kiwi

    ◎简  介

      系列电影《机械师》第一部中,假装死亡的顶级杀手亚瑟(杰森·斯坦森饰)金盆洗手,过着普通人平静的生活。在一桩看似意外的事件中,亚瑟的红颜知己梅(杨紫琼饰)请求亚瑟解救屡屡遭人毒打的神秘女子吉娜(杰西卡·阿尔芭饰),哪料,向来对爱情有免疫的亚瑟,竟与吉娜坠入了爱河,然而他平静的生活也因此被打破。

      五年远离是非的生活风平浪静,亚瑟以为自己已经和过去的杀手生涯告别,然而宿命难敌,竟然有人暗中盯上了他,亚瑟的身世之谜也浮出水面。原来,他年幼时和一群孩子被军火商抓去,训练他们玩枪、杀人,难以忍受的亚瑟从军火商手中逃脱,而他的一位小伙伴长大后却成了军火商的接班人,也是影片中的最大反派。

      这位反派找到了亚瑟,并绑架了他的挚爱吉娜,要挟他去刺杀三个世界上头号危险人物。为了他和他的爱人能够逃脱,亚瑟被迫再度从事刺客工作,他必须在有限的时间内完成一系列不可能的刺杀任务。

      亚瑟深知反派的残暴,最终一定不会放过自己,在成功暗杀了两个目标之后,亚瑟和第三个目标——另一支规模庞大的军火商头目亚当斯(汤米·李·琼斯饰)结成同盟,一同对付他们共同的对手。那么,亚瑟最终能否和吉娜一起逃脱,平静的生活能否再继续……


    Video
    ID                                       : 1
    Format                                   : AVC
    Format/Info                              : Advanced Video Codec
    Format profile                           : High@L4.1
    Format settings, CABAC                   : Yes
    Format settings, ReFrames                : 5 frames
    Codec ID                                 : V_MPEG4/ISO/AVC
    Duration                                 : 1h 38mn
    Bit rate                                 : 5 704 Kbps
    Width                                    : 1 280 pixels
    Height                                   : 536 pixels
    Display aspect ratio                     : 2.40:1
    Frame rate mode                          : Constant
    Frame rate                               : 23.976 (24000/1001) fps
    Color space                              : YUV
    Chroma subsampling                       : 4:2:0
    Bit depth                                : 8 bits
    Scan type                                : Progressive
    Bits/(Pixel*Frame)                       : 0.347
    Stream size                              : 3.84 GiB (88%)
    Writing library                          : x264 core 148 r2721 72d53ab
    Encoding settings                        : cabac=1 / ref=5 / deblock=1:0:0 / analyse=0x3:0x113 / me=umh / subme=8 / psy=1 / psy_rd=1.00:0.00 / mixed_ref=1 / me_range=16 / chroma_me=1 / trellis=2 / 8x8dct=1 / cqm=0 / deadzone=21,11 / fast_pskip=0 / chroma_qp_offset=-2 / threads=17 / lookahead_threads=2 / sliced_threads=0 / nr=0 / decimate=1 / interlaced=0 / bluray_compat=0 / constrained_intra=0 / bframes=3 / b_pyramid=2 / b_adapt=1 / b_bias=0 / direct=3 / weightb=1 / open_gop=0 / weightp=2 / keyint=250 / keyint_min=23 / scenecut=40 / intra_refresh=0 / rc_lookahead=50 / rc=2pass / mbtree=1 / bitrate=5704 / ratetol=1.0 / qcomp=0.60 / qpmin=0 / qpmax=69 / qpstep=4 / cplxblur=20.0 / qblur=0.5 / ip_ratio=1.40 / aq=1:1.00
    Language                                 : English
    Default                                  : Yes
    Forced                                   : No

    Audio
    ID                                       : 2
    Format                                   : AC-3
    Format/Info                              : Audio Coding 3
    Mode extension                           : CM (complete main)
    Format settings, Endianness              : Big
    Codec ID                                 : A_AC3
    Duration                                 : 1h 38mn
    Bit rate mode                            : Constant
    Bit rate                                 : 640 Kbps
    Channel(s)                               : 6 channels
    Channel positions                        : Front: L C R, Side: L R, LFE
    Sampling rate                            : 48.0 KHz
    Frame rate                               : 31.250 fps (1536 spf)
    Compression mode                         : Lossy
    Stream size                              : 452 MiB (10%)
    Language                                 : English
    Default                                  : Yes
    Forced                                   : No

    Text #1
    ID                                       : 3
    Format                                   : UTF-8
    Codec ID                                 : S_TEXT/UTF8
    Codec ID/Info                            : UTF-8 Plain Text
    Title                                    : English regular
    Language                                 : English
    Default                                  : No
    Forced                                   : No

    Text #2
    ID                                       : 4
    Format                                   : UTF-8
    Codec ID                                 : S_TEXT/UTF8
    Codec ID/Info                            : UTF-8 Plain Text
    Title                                    : English sdh
    Language                                 : English
    Default                                  : No
    Forced                                   : No





    76312157420238113671_thumb.jpg




    游客,如果您要查看本帖隐藏内容请回复



    Video
    ID                                       : 1
    Format                                   : AVC
    Format/Info                              : Advanced Video Codec
    Format profile                           : High@L4.1
    Format settings, CABAC                   : Yes
    Format settings, ReFrames                : 5 frames
    Codec ID                                 : V_MPEG4/ISO/AVC
    Duration                                 : 1h 38mn
    Bit rate                                 : 10.5 Mbps
    Width                                    : 1 920 pixels
    Height                                   : 808 pixels
    Display aspect ratio                     : 2.40:1
    Frame rate mode                          : Constant
    Frame rate                               : 23.976 (24000/1001) fps
    Color space                              : YUV
    Chroma subsampling                       : 4:2:0
    Bit depth                                : 8 bits
    Scan type                                : Progressive
    Bits/(Pixel*Frame)                       : 0.281
    Stream size                              : 7.06 GiB (92%)
    Writing library                          : x264 core 148 r2721 72d53ab
    Encoding settings                        : cabac=1 / ref=5 / deblock=1:0:0 / analyse=0x3:0x113 / me=umh / subme=8 / psy=1 / psy_rd=1.00:0.00 / mixed_ref=1 / me_range=16 / chroma_me=1 / trellis=2 / 8x8dct=1 / cqm=0 / deadzone=21,11 / fast_pskip=0 / chroma_qp_offset=-2 / threads=24 / lookahead_threads=4 / sliced_threads=0 / nr=0 / decimate=1 / interlaced=0 / bluray_compat=0 / constrained_intra=0 / bframes=3 / b_pyramid=2 / b_adapt=1 / b_bias=0 / direct=3 / weightb=1 / open_gop=0 / weightp=2 / keyint=250 / keyint_min=23 / scenecut=40 / intra_refresh=0 / rc_lookahead=50 / rc=2pass / mbtree=1 / bitrate=10466 / ratetol=1.0 / qcomp=0.60 / qpmin=0 / qpmax=69 / qpstep=4 / cplxblur=20.0 / qblur=0.5 / ip_ratio=1.40 / aq=1:1.00
    Language                                 : English
    Default                                  : Yes
    Forced                                   : No

    Audio
    ID                                       : 2
    Format                                   : AC-3
    Format/Info                              : Audio Coding 3
    Mode extension                           : CM (complete main)
    Format settings, Endianness              : Big
    Codec ID                                 : A_AC3
    Duration                                 : 1h 38mn
    Bit rate mode                            : Constant
    Bit rate                                 : 640 Kbps
    Channel(s)                               : 6 channels
    Channel positions                        : Front: L C R, Side: L R, LFE
    Sampling rate                            : 48.0 KHz
    Frame rate                               : 31.250 fps (1536 spf)
    Compression mode                         : Lossy
    Stream size                              : 452 MiB (6%)
    Language                                 : English
    Default                                  : Yes
    Forced                                   : No

    Text #1
    ID                                       : 3
    Format                                   : UTF-8
    Codec ID                                 : S_TEXT/UTF8
    Codec ID/Info                            : UTF-8 Plain Text
    Title                                    : English regular
    Language                                 : English
    Default                                  : No
    Forced                                   : No

    Text #2
    ID                                       : 4
    Format                                   : UTF-8
    Codec ID                                 : S_TEXT/UTF8
    Codec ID/Info                            : UTF-8 Plain Text
    Title                                    : English sdh
    Language                                 : English
    Default                                  : No
    Forced                                   : No




    76312157420238113671_thumb.jpg

    游客,如果您要查看本帖隐藏内容请回复



  • TA的每日心情
    开心
    昨天 18:56
  • 签到天数: 1239 天

    [LV.10]以坛为家III

    发表于 2016-11-12 15:25:37 | 显示全部楼层
    现在看看现在看看
    回复 支持 反对

    使用道具 举报

  • TA的每日心情
    开心
    2017-1-15 21:24
  • 签到天数: 149 天

    [LV.7]常住居民III

    发表于 2016-11-12 16:11:46 | 显示全部楼层
    终于等到了
    回复 支持 反对

    使用道具 举报

  • TA的每日心情
    开心
    2017-1-31 19:09
  • 签到天数: 928 天

    [LV.10]以坛为家III

    发表于 2016-11-12 17:24:50 | 显示全部楼层
    谢谢楼主分享
    回复 支持 反对

    使用道具 举报

  • TA的每日心情
    开心
    2017-3-9 17:01
  • 签到天数: 595 天

    [LV.9]以坛为家II

    发表于 2016-11-12 17:40:09 | 显示全部楼层
    叼啊 终于出来了 下载看看
    回复 支持 反对

    使用道具 举报

  • TA的每日心情
    难过
    2016-11-12 18:09
  • 签到天数: 20 天

    [LV.4]偶尔看看III

    发表于 2016-11-12 18:09:52 | 显示全部楼层
    感谢楼主的分享
    回复 支持 反对

    使用道具 举报

  • TA的每日心情
    奋斗
    昨天 12:02
  • 签到天数: 63 天

    [LV.6]常住居民II

    发表于 2016-11-12 18:19:59 | 显示全部楼层
    的点点滴滴多多多多多
    回复 支持 反对

    使用道具 举报

  • TA的每日心情
    难过
    2016-11-12 19:27
  • 签到天数: 7 天

    [LV.3]偶尔看看II

    发表于 2016-11-12 19:27:46 | 显示全部楼层
    挺快的,感谢楼主
    回复 支持 反对

    使用道具 举报

  • TA的每日心情
    开心
    2017-1-24 18:03
  • 签到天数: 70 天

    [LV.6]常住居民II

    发表于 2016-11-12 19:45:29 | 显示全部楼层
    台海噢了萨vvv
    回复 支持 反对

    使用道具 举报

  • TA的每日心情
    郁闷
    2016-11-10 22:19
  • 签到天数: 153 天

    [LV.7]常住居民III

    发表于 2016-11-12 20:07:41 | 显示全部楼层
    终于出来啦,感谢分享
    回复 支持 反对

    使用道具 举报

    高级模式
    B Color Image Link Quote Code Smilies

    本版积分规则

    免责申明|小黑屋|手机版|Archiver|网站地图| 3D一族论坛  

    Copyright © 2001-2015 Comsenz Inc.   All Rights Reserved.

    Powered by Discuz! X3.2( 沪ICP备14045620号-1 )

    快速回复 返回顶部 返回列表