请选择 进入手机版 | 继续访问电脑版
 找回密码

3D一族论坛

查看: 4070|回复: 248

[左右] [久保与二弦琴3D Kubo.and.the.Two.Strings.2016.3D][1080p][MKV 15.2G/15.91G][BT]

  [复制链接]
  • TA的每日心情
    开心
    5 天前
  • 签到天数: 1636 天

    [LV.Master]伴坛终老

    发表于 2016-11-15 10:36:15 | 显示全部楼层 |阅读模式
    影片截图:

    data/attachment/forum/201611/15/103043b6dbddi6px16pxtd.jpg

         
      片        名: Kubo.and.the.Two.Strings.2016.3D
      译        名: 久保与二弦琴3D/久保与二胡/魔弦传说/酷宝:魔弦传说/捉妖敢死队
      类        别: 冒险 动漫 
      国        家: 欧美
      语        言: 英语
      字        幕: 英文字幕
      集        数:
      文件格式: MKV
      视频尺寸: 1920*1080
      文件大小: 15.2GB/15.91GB
      上映时间:
      影片导演: 特拉维斯·奈特 Travis Knight
      主要演员: 查理兹·塞隆 Charlize Theron
        阿特·帕金森 Art Parkinson
        拉尔夫·费因斯 Ralph Fiennes
      推荐等级: ★★★★★
         
    下载地址:
    [下载方式]: bt下载
    [分辨率]: 1080p
    [迅雷地址]:
    [网盘下载]:
    影片简介: fangfang
    久保与二弦琴》的故事主角是生活在海岸边的男孩久保。当一位来自过去的怨灵将他卷入复仇之中的时候,久保平静低调的生活瞬间掀起巨浪。在神灵与妖怪的追杀之下,久保反败为胜的唯一希望就是寻回父亲生前披戴过的那副拥有法力的盔甲。鼓起勇气的久保就此踏上了奥德赛式的征程,而路上等待他的不仅有埋藏在家族里的秘密,还有为保护这片土地与头顶的星空展开的英勇抗争。
    Kubo and the Two Strings 3D Blu-ray_front.jpg


    ◎译  名 
    久保与二弦琴/久保与二胡/魔弦传说/酷宝:魔弦传说/捉妖敢死队
    ◎片  名 Kubo and the Two Strings
    ◎年  代 2016
    ◎国  家 美国
    ◎类  别 动画/冒险
    ◎语  言 英语
    ◎IMDb评分  8.2/10 from 16,391 users
    ◎IMDB链接  http://www.imdb.com/title/tt4302938
    ◎片  长 01:41:36
    ◎导  演 特拉维斯·奈特 Travis Knight
    ◎主  演 查理兹·塞隆 Charlize Theron
          阿特·帕金森 Art Parkinson
          拉尔夫·费因斯 Ralph Fiennes
          鲁妮·玛拉 Rooney Mara
          竹井乔治 George Takei
          田川洋行 Cary-Hiroyuki Tagawa
          马修·麦康纳 Matthew McConaughey
          野路美苗 Minae Noji
          布伦达·瓦卡罗 Brenda Vaccaro
          肯·竹本 Ken Takemoto



    ◎简  介

      《久保与二弦琴》的故事主角是生活在海岸边的男孩久保。当一位来自过去的怨灵将他卷入复仇之中的时候,久保平静低调的生活瞬间掀起巨浪。在神灵与妖怪的追杀之下,久保反败为胜的唯一希望就是寻回父亲生前披戴过的那副拥有法力的盔甲。鼓起勇气的久保就此踏上了奥德赛式的征程,而路上等待他的不仅有埋藏在家族里的秘密,还有为保护这片土地与头顶的星空展开的英勇抗争。


    Video
    ID                                       : 1
    Format                                   : AVC
    Format/Info                              : Advanced Video Codec
    Format profile                           : High@L4.1
    Format settings, CABAC                   : Yes
    Format settings, ReFrames                : 2 frames
    Codec ID                                 : V_MPEG4/ISO/AVC
    Duration                                 : 1h 41mn
    Nominal bit rate                         : 15.0 Mbps
    Width                                    : 1 920 pixels
    Height                                   : 1 080 pixels
    Display aspect ratio                     : 16:9
    Frame rate mode                          : Constant
    Frame rate                               : 23.976 (24000/1001) fps
    Color space                              : YUV
    Chroma subsampling                       : 4:2:0
    Bit depth                                : 8 bits
    Scan type                                : Progressive
    Bits/(Pixel*Frame)                       : 0.302
    Title                                    : Kubo.and.the.Two.Strings.2016.1080p.3D.BluRay.Half-SBS.x264.DTS-HD.MA.5.1-FGT
    Writing library                          : x264 core 142
    Encoding settings                        : cabac=1 / ref=1 / deblock=1:-1:-1 / analyse=0x3:0 / me=hex / subme=5 / psy=0 / mixed_ref=0 / me_range=16 / chroma_me=1 / trellis=0 / 8x8dct=1 / cqm=0 / deadzone=21,11 / fast_pskip=0 / chroma_qp_offset=0 / threads=8 / lookahead_threads=2 / sliced_threads=0 / nr=0 / decimate=1 / interlaced=0 / bluray_compat=0 / constrained_intra=0 / bframes=2 / b_pyramid=0 / b_adapt=1 / b_bias=0 / direct=1 / weightb=0 / open_gop=0 / weightp=0 / keyint=24 / keyint_min=13 / scenecut=40 / intra_refresh=0 / rc=abr / mbtree=0 / bitrate=15000 / ratetol=1.0 / qcomp=0.60 / qpmin=0 / qpmax=69 / qpstep=4 / ip_ratio=1.40 / pb_ratio=1.30 / aq=1:1.00
    Default                                  : Yes
    Forced                                   : No
    Color range                              : Limited
    Color primaries                          : BT.709
    Transfer characteristics                 : BT.709
    Matrix coefficients                      : BT.709

    Audio #1
    ID                                       : 2
    Format                                   : DTS
    Format/Info                              : Digital Theater Systems
    Format profile                           : MA / Core
    Mode                                     : 16
    Format settings, Endianness              : Big
    Codec ID                                 : A_DTS
    Duration                                 : 1h 41mn
    Bit rate mode                            : Variable / Constant
    Bit rate                                 : Unknown / 1 509 Kbps
    Channel(s)                               : 6 channels
    Channel positions                        : Front: L C R, Side: L R, LFE
    Sampling rate                            : 48.0 KHz
    Frame rate                               : 93.750 fps (512 spf)
    Bit depth                                : 24 bits
    Compression mode                         : Lossless / Lossy
    Title                                    : Kubo.and.the.Two.Strings.2016.1080p.3D.BluRay.Half-SBS.x264.DTS-HD.MA.5.1-FGT
    Language                                 : English
    Default                                  : Yes
    Forced                                   : No

    Audio #2
    ID                                       : 3
    Format                                   : DTS
    Format/Info                              : Digital Theater Systems
    Mode                                     : 16
    Format settings, Endianness              : Big
    Codec ID                                 : A_DTS
    Duration                                 : 1h 41mn
    Bit rate mode                            : Constant
    Bit rate                                 : 1 509 Kbps
    Channel(s)                               : 6 channels
    Channel positions                        : Front: L C R, Side: L R, LFE
    Sampling rate                            : 48.0 KHz
    Frame rate                               : 93.750 fps (512 spf)
    Bit depth                                : 24 bits
    Compression mode                         : Lossy
    Stream size                              : 1.07 GiB (7%)
    Title                                    : Kubo.and.the.Two.Strings.2016.1080p.3D.BluRay.Half-SBS.x264.DTS-HD.MA.5.1-FGT
    Language                                 : English
    Default                                  : No
    Forced                                   : No

    Audio #3
    ID                                       : 4
    Format                                   : DTS
    Format/Info                              : Digital Theater Systems
    Mode                                     : 16
    Format settings, Endianness              : Big
    Codec ID                                 : A_DTS
    Duration                                 : 1h 41mn
    Bit rate mode                            : Constant
    Bit rate                                 : 768 Kbps
    Channel(s)                               : 6 channels
    Channel positions                        : Front: L C R, Side: L R, LFE
    Sampling rate                            : 48.0 KHz
    Frame rate                               : 93.750 fps (512 spf)
    Bit depth                                : 24 bits
    Compression mode                         : Lossy
    Stream size                              : 558 MiB (4%)
    Title                                    : Kubo.and.the.Two.Strings.2016.1080p.3D.BluRay.Half-SBS.x264.DTS-HD.MA.5.1-FGT
    Language                                 : Spanish
    Default                                  : No
    Forced                                   : No

    Audio #4
    ID                                       : 5
    Format                                   : AC-3
    Format/Info                              : Audio Coding 3
    Format profile                           : Dolby Digital
    Mode extension                           : CM (complete main)
    Format settings, Endianness              : Big
    Codec ID                                 : A_AC3
    Duration                                 : 1h 41mn
    Bit rate mode                            : Constant
    Bit rate                                 : 192 Kbps
    Channel(s)                               : 2 channels
    Channel positions                        : Front: L R
    Sampling rate                            : 48.0 KHz
    Frame rate                               : 31.250 fps (1536 spf)
    Compression mode                         : Lossy
    Stream size                              : 140 MiB (1%)
    Title                                    : Kubo.and.the.Two.Strings.2016.1080p.3D.BluRay.Half-SBS.x264.DTS-HD.MA.5.1-FGT
    Language                                 : English
    Default                                  : No
    Forced                                   : No

    Audio #5
    ID                                       : 6
    Format                                   : AC-3
    Format/Info                              : Audio Coding 3
    Format profile                           : Dolby Digital
    Mode extension                           : CM (complete main)
    Format settings, Endianness              : Big
    Codec ID                                 : A_AC3
    Duration                                 : 1h 41mn
    Bit rate mode                            : Constant
    Bit rate                                 : 192 Kbps
    Channel(s)                               : 2 channels
    Channel positions                        : Front: L R
    Sampling rate                            : 48.0 KHz
    Frame rate                               : 31.250 fps (1536 spf)
    Compression mode                         : Lossy
    Stream size                              : 140 MiB (1%)
    Title                                    : Kubo.and.the.Two.Strings.2016.1080p.3D.BluRay.Half-SBS.x264.DTS-HD.MA.5.1-FGT
    Language                                 : English
    Default                                  : No
    Forced                                   : No

    Text #1
    ID                                       : 7
    Format                                   : PGS
    Muxing mode                              : zlib
    Codec ID                                 : S_HDMV/PGS
    Codec ID/Info                            : Picture based subtitle format used on BDs/HD-DVDs
    Title                                    : English-PGS
    Language                                 : English
    Default                                  : No
    Forced                                   : No

    Text #2
    ID                                       : 8
    Format                                   : PGS
    Muxing mode                              : zlib
    Codec ID                                 : S_HDMV/PGS
    Codec ID/Info                            : Picture based subtitle format used on BDs/HD-DVDs
    Title                                    : Spanish-PGS
    Language                                 : Spanish
    Default                                  : No
    Forced                                   : No

    Text #3
    ID                                       : 9
    Format                                   : PGS
    Muxing mode                              : zlib
    Codec ID                                 : S_HDMV/PGS
    Codec ID/Info                            : Picture based subtitle format used on BDs/HD-DVDs
    Title                                    : French-PGS
    Language                                 : French
    Default                                  : No
    Forced                                   : No

    Text #4
    ID                                       : 10
    Format                                   : PGS
    Muxing mode                              : zlib
    Codec ID                                 : S_HDMV/PGS
    Codec ID/Info                            : Picture based subtitle format used on BDs/HD-DVDs
    Title                                    : Spanish-FORCED-PGS
    Language                                 : Spanish
    Default                                  : No
    Forced                                   : No







    10832712928933586645_thumb.jpg

    21720073521697140245_thumb.jpg

    22014077502967099248_thumb.jpg

    87146446990549405476_thumb.jpg

    90707979167762471957_thumb.jpg

    98367524866149406292_thumb.jpg




    游客,如果您要查看本帖隐藏内容请回复




    Video
    ID                                       : 1
    Format                                   : AVC
    Format/Info                              : Advanced Video Codec
    Format profile                           : High@L4.1
    Format settings, CABAC                   : Yes
    Format settings, ReFrames                : 2 frames
    Codec ID                                 : V_MPEG4/ISO/AVC
    Duration                                 : 1h 41mn
    Nominal bit rate                         : 16.0 Mbps
    Width                                    : 1 920 pixels
    Height                                   : 1 080 pixels
    Display aspect ratio                     : 16:9
    Frame rate mode                          : Constant
    Frame rate                               : 23.976 (24000/1001) fps
    Color space                              : YUV
    Chroma subsampling                       : 4:2:0
    Bit depth                                : 8 bits
    Scan type                                : Progressive
    Bits/(Pixel*Frame)                       : 0.322
    Title                                    : Kubo.and.the.Two.Strings.2016.1080p.3D.BluRay.Half-OU.x264.DTS-HD.MA.5.1-FGT
    Writing library                          : x264 core 142
    Encoding settings                        : cabac=1 / ref=1 / deblock=1:-1:-1 / analyse=0x3:0 / me=hex / subme=5 / psy=0 / mixed_ref=0 / me_range=16 / chroma_me=1 / trellis=0 / 8x8dct=1 / cqm=0 / deadzone=21,11 / fast_pskip=0 / chroma_qp_offset=0 / threads=8 / lookahead_threads=2 / sliced_threads=0 / nr=0 / decimate=1 / interlaced=0 / bluray_compat=0 / constrained_intra=0 / bframes=2 / b_pyramid=0 / b_adapt=1 / b_bias=0 / direct=1 / weightb=0 / open_gop=0 / weightp=0 / keyint=24 / keyint_min=13 / scenecut=40 / intra_refresh=0 / rc=abr / mbtree=0 / bitrate=16000 / ratetol=1.0 / qcomp=0.60 / qpmin=0 / qpmax=69 / qpstep=4 / ip_ratio=1.40 / pb_ratio=1.30 / aq=1:1.00
    Default                                  : Yes
    Forced                                   : No
    Color range                              : Limited
    Color primaries                          : BT.709
    Transfer characteristics                 : BT.709
    Matrix coefficients                      : BT.709

    Audio #1
    ID                                       : 2
    Format                                   : DTS
    Format/Info                              : Digital Theater Systems
    Format profile                           : MA / Core
    Mode                                     : 16
    Format settings, Endianness              : Big
    Codec ID                                 : A_DTS
    Duration                                 : 1h 41mn
    Bit rate mode                            : Variable / Constant
    Bit rate                                 : Unknown / 1 509 Kbps
    Channel(s)                               : 6 channels
    Channel positions                        : Front: L C R, Side: L R, LFE
    Sampling rate                            : 48.0 KHz
    Frame rate                               : 93.750 fps (512 spf)
    Bit depth                                : 24 bits
    Compression mode                         : Lossless / Lossy
    Title                                    : Kubo.and.the.Two.Strings.2016.1080p.3D.BluRay.Half-OU.x264.DTS-HD.MA.5.1-FGT
    Language                                 : English
    Default                                  : Yes
    Forced                                   : No

    Audio #2
    ID                                       : 3
    Format                                   : DTS
    Format/Info                              : Digital Theater Systems
    Mode                                     : 16
    Format settings, Endianness              : Big
    Codec ID                                 : A_DTS
    Duration                                 : 1h 41mn
    Bit rate mode                            : Constant
    Bit rate                                 : 1 509 Kbps
    Channel(s)                               : 6 channels
    Channel positions                        : Front: L C R, Side: L R, LFE
    Sampling rate                            : 48.0 KHz
    Frame rate                               : 93.750 fps (512 spf)
    Bit depth                                : 24 bits
    Compression mode                         : Lossy
    Stream size                              : 1.07 GiB (7%)
    Title                                    : Kubo.and.the.Two.Strings.2016.1080p.3D.BluRay.Half-OU.x264.DTS-HD.MA.5.1-FGT
    Language                                 : English
    Default                                  : No
    Forced                                   : No

    Audio #3
    ID                                       : 4
    Format                                   : DTS
    Format/Info                              : Digital Theater Systems
    Mode                                     : 16
    Format settings, Endianness              : Big
    Codec ID                                 : A_DTS
    Duration                                 : 1h 41mn
    Bit rate mode                            : Constant
    Bit rate                                 : 768 Kbps
    Channel(s)                               : 6 channels
    Channel positions                        : Front: L C R, Side: L R, LFE
    Sampling rate                            : 48.0 KHz
    Frame rate                               : 93.750 fps (512 spf)
    Bit depth                                : 24 bits
    Compression mode                         : Lossy
    Stream size                              : 558 MiB (3%)
    Title                                    : Kubo.and.the.Two.Strings.2016.1080p.3D.BluRay.Half-OU.x264.DTS-HD.MA.5.1-FGT
    Language                                 : Spanish
    Default                                  : No
    Forced                                   : No

    Audio #4
    ID                                       : 5
    Format                                   : AC-3
    Format/Info                              : Audio Coding 3
    Format profile                           : Dolby Digital
    Mode extension                           : CM (complete main)
    Format settings, Endianness              : Big
    Codec ID                                 : A_AC3
    Duration                                 : 1h 41mn
    Bit rate mode                            : Constant
    Bit rate                                 : 192 Kbps
    Channel(s)                               : 2 channels
    Channel positions                        : Front: L R
    Sampling rate                            : 48.0 KHz
    Frame rate                               : 31.250 fps (1536 spf)
    Compression mode                         : Lossy
    Stream size                              : 140 MiB (1%)
    Title                                    : Kubo.and.the.Two.Strings.2016.1080p.3D.BluRay.Half-OU.x264.DTS-HD.MA.5.1-FGT
    Language                                 : English
    Default                                  : No
    Forced                                   : No

    Audio #5
    ID                                       : 6
    Format                                   : AC-3
    Format/Info                              : Audio Coding 3
    Format profile                           : Dolby Digital
    Mode extension                           : CM (complete main)
    Format settings, Endianness              : Big
    Codec ID                                 : A_AC3
    Duration                                 : 1h 41mn
    Bit rate mode                            : Constant
    Bit rate                                 : 192 Kbps
    Channel(s)                               : 2 channels
    Channel positions                        : Front: L R
    Sampling rate                            : 48.0 KHz
    Frame rate                               : 31.250 fps (1536 spf)
    Compression mode                         : Lossy
    Stream size                              : 140 MiB (1%)
    Title                                    : Kubo.and.the.Two.Strings.2016.1080p.3D.BluRay.Half-OU.x264.DTS-HD.MA.5.1-FGT
    Language                                 : English
    Default                                  : No
    Forced                                   : No

    Text #1
    ID                                       : 7
    Format                                   : PGS
    Muxing mode                              : zlib
    Codec ID                                 : S_HDMV/PGS
    Codec ID/Info                            : Picture based subtitle format used on BDs/HD-DVDs
    Title                                    : English-PGS
    Language                                 : English
    Default                                  : No
    Forced                                   : No

    Text #2
    ID                                       : 8
    Format                                   : PGS
    Muxing mode                              : zlib
    Codec ID                                 : S_HDMV/PGS
    Codec ID/Info                            : Picture based subtitle format used on BDs/HD-DVDs
    Title                                    : Spanish-PGS
    Language                                 : Spanish
    Default                                  : No
    Forced                                   : No

    Text #3
    ID                                       : 9
    Format                                   : PGS
    Muxing mode                              : zlib
    Codec ID                                 : S_HDMV/PGS
    Codec ID/Info                            : Picture based subtitle format used on BDs/HD-DVDs
    Title                                    : French-PGS
    Language                                 : French
    Default                                  : No
    Forced                                   : No

    Text #4
    ID                                       : 10
    Format                                   : PGS
    Muxing mode                              : zlib
    Codec ID                                 : S_HDMV/PGS
    Codec ID/Info                            : Picture based subtitle format used on BDs/HD-DVDs
    Title                                    : Spanish-FORCED-PGS
    Language                                 : Spanish
    Default                                  : No
    Forced                                   : No





    19874449544053920432_thumb.jpg

    27296840012548914434_thumb.jpg

    31163427735602462107_thumb.jpg

    34635426076058939543_thumb.jpg

    57822390839451247434_thumb.jpg

    58296827399134209371_thumb.jpg




    游客,如果您要查看本帖隐藏内容请回复




  • TA的每日心情
    无聊
    2017-3-5 20:36
  • 签到天数: 35 天

    [LV.5]常住居民I

    发表于 2016-11-15 10:51:21 | 显示全部楼层
    感谢楼主无私奉献
    回复 支持 反对

    使用道具 举报

  • TA的每日心情
    开心
    2017-5-9 18:15
  • 签到天数: 60 天

    [LV.6]常住居民II

    发表于 2016-11-15 11:37:59 | 显示全部楼层
    这部动画的评价很高,值得一看,收下了。
    回复 支持 反对

    使用道具 举报

  • TA的每日心情
    奋斗
    2017-5-14 17:43
  • 签到天数: 345 天

    [LV.8]以坛为家III

    发表于 2016-11-15 11:43:21 | 显示全部楼层

    感谢楼主无私奉献
    回复 支持 反对

    使用道具 举报

  • TA的每日心情
    开心
    昨天 11:26
  • 签到天数: 950 天

    [LV.10]以坛为家III

    发表于 2016-11-15 11:52:06 | 显示全部楼层
    谢谢分享,谢谢分享。
    回复 支持 反对

    使用道具 举报

  • TA的每日心情
    开心
    3 天前
  • 签到天数: 231 天

    [LV.7]常住居民III

    发表于 2016-11-15 12:18:01 | 显示全部楼层
    看看诶看看诶看看诶看看诶
    回复 支持 反对

    使用道具 举报

  • TA的每日心情
    郁闷
    2017-2-22 10:32
  • 签到天数: 37 天

    [LV.5]常住居民I

    发表于 2016-11-15 12:34:26 | 显示全部楼层
    下来阿卡耐心啊
    回复 支持 反对

    使用道具 举报

  • TA的每日心情
    郁闷
    2017-3-8 18:31
  • 签到天数: 283 天

    [LV.8]以坛为家III

    发表于 2016-11-15 12:34:58 | 显示全部楼层
    好像還不錯看的樣子 還有大咖女星配音!!

    應該很棒~也看看3D效果如何@@"
    回复 支持 反对

    使用道具 举报

  • TA的每日心情
    郁闷
    2017-2-22 10:32
  • 签到天数: 37 天

    [LV.5]常住居民I

    发表于 2016-11-15 12:48:32 | 显示全部楼层
    下来阿卡耐心啊
    回复 支持 反对

    使用道具 举报

    高级模式
    B Color Image Link Quote Code Smilies

    本版积分规则

    免责申明|小黑屋|手机版|Archiver|网站地图| 3D一族论坛  

    Copyright © 2001-2015 Comsenz Inc.   All Rights Reserved.

    Powered by Discuz! X3.2( 沪ICP备14045620号-1 )

    快速回复 返回顶部 返回列表