请选择 进入手机版 | 继续访问电脑版
 找回密码

3D一族论坛

查看: 1938|回复: 81

[左右半宽] 【上传完成】[久保与二弦琴 3D 2016][合成3D字幕][Kubo and the Two Strings][1080P/H265][英语/AC-3/DTS][MKV/7.12G/百Du]

  [复制链接]
  • TA的每日心情
    擦汗
    2016-12-9 09:49
  • 签到天数: 318 天

    [LV.8]以坛为家III

     成长值: 6905
    发表于 2016-11-17 09:48:05 | 显示全部楼层 |阅读模式
    播播
    本帖最后由 lsjsyp 于 2016-11-17 12:45 编辑



    译  名 久保与二弦琴/魔弦传说/酷宝:魔弦传说(台)/捉妖敢死队(港)/久保与二胡
    片  名 Kubo and the Two Strings
    年  代 2016
    国  家 美国
    类  别 动画/冒险
    语  言 英语

    字      幕   合成3D简体字幕
    上映日期 2016-08-19(美国)
    IMDb评分  8.2/10 from 17,269 users
    IMDb链接  http://www.imdb.com/title/tt4302938/
    豆瓣评分 8.0/10 from 2,535 users
    豆瓣链接 https://movie.douban.com/subject/26287884/
    片  长 101分钟
    导  演 特拉维斯·奈特 Travis Knight
    主  演 查理兹·塞隆 Charlize Theron
         阿特·帕金森 Art Parkinson
         拉尔夫·费因斯 Ralph Fiennes
         鲁妮·玛拉 Rooney Mara
         竹井乔治 George Takei
         田川洋行 Cary-Hiroyuki Tagawa
         马修·麦康纳 Matthew McConaughey
         野路美苗 Minae Noji
         布伦达·瓦卡罗 Brenda Vaccaro
         肯·竹本 Ken Takemoto


    影视简介:

      《久保与二弦琴》的故事主角是生活在海岸边的男孩久保。当一位来自过去的怨灵将他卷入复仇之中的时候,久保平静低调的生活瞬间掀起巨浪。在神灵与妖怪的追杀之下,久保反败为胜的唯一希望就是寻回父亲生前披戴过的那副拥有法力的盔甲。鼓起勇气的久保就此踏上了奥德赛式的征程,而路上等待他的不仅有埋藏在家族里的秘密,还有为保护这片土地与头顶的星空展开的英勇抗争。

    编码信息:

    General
    Unique ID                      : 247515609706777445592876662139652354595 (0xBA35C5BEDFB84A458E2C54FF0A633223)
    Complete name                  : G:\[LYP]Kubo.and.the.Two.Strings.2016.1080p.3D.BluRay.Half-SBS.x264.DTS/AC3 5.1.mkv
    Format                         : Matroska
    Format version                 : Version 4 / Version 2
    File size                      : 7.12 GiB
    Duration                       : 1h 41mn
    Overall bit rate               : 10.0 Mbps
    Encoded date                   : UTC 2016-11-16 23:54:59
    Writing application            : mkvmerge v7.5.0 ('Glass Culture') 32bit built on Jan  4 2015 16:37:25
    Writing library                : libebml v1.3.1 + libmatroska v1.4.2 / ShanaEncoder

    Video
    ID                             : 1
    Format                         : HEVC
    Format/Info                    : High Efficiency Video Coding
    Format profile                 : Main@L4@Main
    Codec ID                       : V_MPEGH/ISO/HEVC
    Duration                       : 1h 41mn
    Bit rate                       : 5 841 Kbps
    Width                          : 1 920 pixels
    Height                         : 1 080 pixels
    Display aspect ratio           : 16:9
    Frame rate mode                : Constant
    Frame rate                     : 23.976 (24000/1001) fps
    Color space                    : YUV
    Chroma subsampling             : 4:2:0
    Bit depth                      : 8 bits
    Bits/(Pixel*Frame)             : 0.117
    Stream size                    : 4.14 GiB (58%)
    Writing library                : x265 1.9+229-a932b4366235:[Windows][GCC 4.9.2][32 bit] 8bit
    Encoding settings              : wpp / ctu=64 / min-cu-size=8 / max-tu-size=32 / tu-intra-depth=1 / tu-inter-depth=1 / me=1 / subme=1 / merange=57 / no-rect / no-amp / max-merge=2 / temporal-mvp / early-skip / rskip / rdpenalty=0 / no-tskip / no-tskip-fast / strong-intra-smoothing / no-lossless / no-cu-lossless / no-constrained-intra / fast-intra / open-gop / no-temporal-layers / interlace=0 / keyint=250 / min-keyint=23 / scenecut=40 / rc-lookahead=15 / lookahead-slices=6 / bframes=4 / bframe-bias=0 / b-adapt=0 / ref=2 / limit-refs=3 / no-limit-modes / weightp / no-weightb / aq-mode=1 / qg-size=32 / aq-strength=1.00 / cbqpoffs=0 / crqpoffs=0 / rd=2 / psy-rd=2.00 / rdoq-level=0 / psy-rdoq=0.00 / no-rd-refine / signhide / deblock=0:0 / sao / no-sao-non-deblock / b-pyramid / cutree / no-intra-refresh / rc=crf / crf=16.0 / qcomp=0.60 / qpmin=0 / qpmax=51 / qpstep=4 / ipratio=1.40 / pbratio=1.30
    Default                        : Yes
    Forced                         : No

    Audio #1
    ID                             : 2
    Format                         : DTS
    Format/Info                    : Digital Theater Systems
    Format profile                 : MA / Core
    Mode                           : 16
    Format settings, Endianness    : Big
    Codec ID                       : A_DTS
    Duration                       : 1h 41mn
    Bit rate mode                  : Variable / Constant
    Bit rate                       : 3 741 Kbps / 1 509 Kbps
    Channel(s)                     : 6 channels
    Channel positions              : Front: L C R, Side: L R, LFE
    Sampling rate                  : 48.0 KHz
    Frame rate                     : 93.750 fps (512 spf)
    Bit depth                      : 24 bits
    Compression mode               : Lossless / Lossy
    Stream size                    : 2.65 GiB (37%)
    Title                          : 英语DTS 5.1
    Language                       : English
    Default                        : Yes
    Forced                         : No

    Audio #2
    ID                             : 3
    Format                         : AC-3
    Format/Info                    : Audio Coding 3
    Mode extension                 : CM (complete main)
    Format settings, Endianness    : Big
    Codec ID                       : A_AC3
    Duration                       : 1h 41mn
    Bit rate mode                  : Constant
    Bit rate                       : 448 Kbps
    Channel(s)                     : 6 channels
    Channel positions              : Front: L C R, Side: L R, LFE
    Sampling rate                  : 48.0 KHz
    Frame rate                     : 31.250 fps (1536 spf)
    Compression mode               : Lossy
    Stream size                    : 326 MiB (4%)
    Title                          : 英语 AC3 5.1
    Language                       : English
    Default                        : No
    Forced                         : No

    QQ截图20161117094258.png

    QQ截图20161117094341.png

    QQ截图20161117094354.png

    开启3D模式
    QQ截图20161117094435.png

    QQ截图20161117094510.png

    QQ截图20161117094557.png



    制作说明:
    1.特效做了两处,基本没啥作用,可以无视。
    2.此视频为H265编码,请一定注意,不支持的会出现没有图像或没有声音的情况。   不支持的请下载论坛H264的版本。
    3.福利----免权下载
    4.已上传.....可以下载
    游客,如果您要查看本帖隐藏内容请回复



    评分

    参与人数 1e币 +10 贡献 +5 收起 理由
    qiangpaomeigui + 10 + 5 更新快 谢谢楼主!最近的外语片都没国语音.

    查看全部评分

    dudu





    合成3D字幕-下载提示


    下载提示:(合3D字幕为本站独有特色版块---回复帖子可见下载地址)


    1. 本版块资源只提供 " 敬畏的寂静 " 及以上用户组的会员下载,其它用户组会员无法下载资源,请努力升级!查看自己所在用户组


    2. 升级太难, 开通   " VIP用户组 "(免权限、免积分、免回复)下载本版块及论坛所有资源,再也不用发愁了!VIP



  • TA的每日心情
    开心
    15 小时前
  • 签到天数: 291 天

    [LV.8]以坛为家III

    发表于 2016-11-17 14:07:48 | 显示全部楼层
    谢谢分享
    回复 支持 反对

    使用道具 举报

  • TA的每日心情
    开心
    昨天 13:15
  • 签到天数: 590 天

    [LV.9]以坛为家II

    发表于 2016-11-17 17:03:04 | 显示全部楼层
    多出点大片的合成啊 总是动画片
    回复 支持 反对

    使用道具 举报

  • TA的每日心情
    奋斗
    2 小时前
  • 签到天数: 1282 天

    [LV.10]以坛为家III

    发表于 2016-11-17 18:16:35 | 显示全部楼层
    谢谢楼主分享!!
    回复 支持 反对

    使用道具 举报

  • TA的每日心情

    2 小时前
  • 签到天数: 360 天

    [LV.8]以坛为家III

    发表于 2016-11-17 19:48:34 | 显示全部楼层
    感谢楼主分享~
    回复 支持 反对

    使用道具 举报

  • TA的每日心情
    开心
    4 小时前
  • 签到天数: 1186 天

    [LV.10]以坛为家III

    发表于 2016-11-17 21:34:24 | 显示全部楼层
    感受H265编码的魅力。感谢楼主提供分享!
    回复 支持 反对

    使用道具 举报

  • TA的每日心情

    22 小时前
  • 签到天数: 1098 天

    [LV.10]以坛为家III

    发表于 2016-11-18 00:16:18 | 显示全部楼层
    感谢你辛勤无私的工作,再接再厉,谢谢。
    回复 支持 反对

    使用道具 举报

  • TA的每日心情
    难过
    2016-12-5 10:47
  • 签到天数: 114 天

    [LV.6]常住居民II

    发表于 2016-11-18 01:23:02 | 显示全部楼层
    下来看看,谢谢分享。
    回复 支持 反对

    使用道具 举报

  • TA的每日心情
    开心
    昨天 05:44
  • 签到天数: 681 天

    [LV.9]以坛为家II

    发表于 2016-11-18 07:44:49 | 显示全部楼层
    多謝樓主的分享。
    回复 支持 反对

    使用道具 举报

  • TA的每日心情
    难过
    2017-2-10 08:03
  • 签到天数: 247 天

    [LV.8]以坛为家III

    发表于 2016-11-18 08:26:59 | 显示全部楼层
    谢谢分享!
    回复 支持 反对

    使用道具 举报

    您需要登录后才可以回帖 登录 | 立即注册

    本版积分规则


    为兴趣而生,为电影疯狂。 立即登录 立即注册

    广告联系|免责申明|小黑屋|手机版|Archiver|网站地图| 3D一族论坛   

    Copyright © 2001-2015 Comsenz Inc.   All Rights Reserved.

    Powered by Discuz! X3.2( 沪ICP备14045620号-1 )

    快速回复 返回顶部 返回列表