请选择 进入手机版 | 继续访问电脑版
 找回密码

3D一族论坛

查看: 4059|回复: 122

[左右] [萨瓦传奇3D A.Warriors.Tail.3D.2015/Savva-Heart of the Warrior 3D 2015][1080p][MKV 5.85G/7.93G][BT]

  [复制链接]
  • TA的每日心情
    开心
    2017-3-15 15:19
  • 签到天数: 1634 天

    [LV.Master]伴坛终老

     成长值: 19905
    发表于 2016-11-20 17:14:59 | 显示全部楼层 |阅读模式
    影片截图:

    data/attachment/forum/201611/20/170641jga844os55g5x44x.jpg

         
      片        名: A Warriors Tail 3D 2015/Savva. Serdtse voina/Savva: Heart of the Warrior
      译        名: 萨瓦传奇3D / 萨瓦:勇者之心
      类        别: 动漫 
      国        家: 欧美
      语        言: 英语
      字        幕: N/A
      集        数:
      文件格式: MKV
      视频尺寸: 1920*1080
      文件大小: 5.85GB/7.93GB
      上映时间:
      影片导演: Maxim Fadeev
      主要演员: 米拉·乔沃维奇 Milla Jovovich
        莎朗·斯通 Sharon Stone
        乔·佩西 Joe Pesci
      推荐等级: ★★★★★
         
    下载地址:
    [下载方式]: bt下载
    [分辨率]: 1080p
    [迅雷地址]:
    [网盘下载]:
    影片简介: fangfang
    一部关于林中小村十岁小子萨瓦的传奇!崇高的白狼曾保护着村子免受敌人入侵。但白狼的突然消失导致残酷的土狼匪帮袭击了村子。萨瓦成功地逃离到森林后,认识了最后一匹白狼安加。安加告诉了萨瓦术师的故事:这位术师魔力无边,他深居山林,有能力帮助萨瓦解放村子,但这座大山却被三头怪邪恶猴王——若比妈妈统领的庞大军团团团围住。克服着沿途重重困难,萨瓦同安加开始了漫漫征程,这征途——危险而又充满神奇,其他旅行者也在途中加入了他们。有普斯科——奇怪的粉红色小毛毛,有自以为是,看着像是法国人,但实际上却是魔法公爵,肩膀上还被迫扛着蚊子之王的法夫尔,还有沼泽部落的南堤公主……
      每个人都有自己拜访术师的原因。漫漫征途,坚守目标,朋友们面临着重重阻碍,揭开一个个那不为人知的可怕秘密,等待他们的,是一场与万恶猴王若斯妈妈千军万马的输死搏斗……那么,他们能成功到达目的地吗?
    本帖最后由 xdwl 于 2016-11-21 10:01 编辑

    2d5cacb4bb3c4d88459ad9a78bc3b24f0d4b37f0.jpg

    15416720.jpg



    ◎译  名 
    萨瓦传奇/萨瓦:勇者之心
    ◎片  名 A Warriors Tail/Savva. Serdtse voina/Savva: Heart of the Warrior
    ◎年  代 2015
    ◎国  家 俄罗斯
    ◎类  别 动画
    ◎语  言 英语
    ◎字  幕 N/A
    ◎IMDb评分  4.2/10 from 486 users
    ◎IMDb链接  http://www.imdb.com/title/tt4075322
    ◎片  长 87min
    ◎导  演 Maxim Fadeev
    ◎主  演 米拉·乔沃维奇 Milla Jovovich
          莎朗·斯通 Sharon Stone
          乔·佩西 Joe Pesci
          乌比·戈德堡 Whoopi Goldberg
          吉姆·库宁斯 Jim Cummings

    ◎简  介

      一部关于林中小村十岁小子萨瓦的传奇!崇高的白狼曾保护着村子免受敌人入侵。但白狼的突然消失导致残酷的土狼匪帮袭击了村子。萨瓦成功地逃离到森林后,认识了最后一匹白狼安加。安加告诉了萨瓦术师的故事:这位术师魔力无边,他深居山林,有能力帮助萨瓦解放村子,但这座大山却被三头怪邪恶猴王——若比妈妈统领的庞大军团团团围住。克服着沿途重重困难,萨瓦同安加开始了漫漫征程,这征途——危险而又充满神奇,其他旅行者也在途中加入了他们。有普斯科——奇怪的粉红色小毛毛,有自以为是,看着像是法国人,但实际上却是魔法公爵,肩膀上还被迫扛着蚊子之王的法夫尔,还有沼泽部落的南堤公主……

      每个人都有自己拜访术师的原因。漫漫征途,坚守目标,朋友们面临着重重阻碍,揭开一个个那不为人知的可怕秘密,等待他们的,是一场与万恶猴王若斯妈妈千军万马的输死搏斗……那么,他们能成功到达目的地吗?


    Video
    ID                                       : 1
    Format                                   : AVC
    Format/Info                              : Advanced Video Codec
    Format profile                           : High@L4.1
    Format settings, CABAC                   : Yes
    Format settings, ReFrames                : 4 frames
    Codec ID                                 : V_MPEG4/ISO/AVC
    Duration                                 : 1h 27mn
    Bit rate mode                            : Variable
    Maximum bit rate                         : 30.0 Mbps
    Width                                    : 1 920 pixels
    Height                                   : 1 080 pixels
    Display aspect ratio                     : 16:9
    Frame rate mode                          : Constant
    Frame rate                               : 23.976 (24000/1001) fps
    Standard                                 : NTSC
    Color space                              : YUV
    Chroma subsampling                       : 4:2:0
    Bit depth                                : 8 bits
    Scan type                                : Progressive
    Title                                    : A.Warriors.Tail.2015.1080p.BluRay.REMUX.AVC.DTS-HD.MA.5.1-FGT
    Language                                 : English
    Default                                  : No
    Forced                                   : No
    Color range                              : Limited
    Color primaries                          : BT.709
    Transfer characteristics                 : BT.709
    Matrix coefficients                      : BT.709

    Audio #1
    ID                                       : 2
    Format                                   : DTS
    Format/Info                              : Digital Theater Systems
    Format profile                           : MA / Core
    Mode                                     : 16
    Format settings, Endianness              : Big
    Codec ID                                 : A_DTS
    Duration                                 : 1h 27mn
    Bit rate mode                            : Variable / Constant
    Bit rate                                 : Unknown / 768 Kbps
    Channel(s)                               : 6 channels
    Channel positions                        : Front: L C R, Side: L R, LFE
    Sampling rate                            : 48.0 KHz
    Frame rate                               : 93.750 fps (512 spf)
    Bit depth                                : 16 bits
    Compression mode                         : Lossless / Lossy
    Title                                    : A.Warriors.Tail.2015.1080p.BluRay.REMUX.AVC.DTS-HD.MA.5.1-FGT
    Language                                 : English
    Default                                  : Yes
    Forced                                   : No

    Audio #2
    ID                                       : 3
    Format                                   : DTS
    Format/Info                              : Digital Theater Systems
    Mode                                     : 16
    Format settings, Endianness              : Big
    Codec ID                                 : A_DTS
    Duration                                 : 1h 27mn
    Bit rate mode                            : Constant
    Bit rate                                 : 768 Kbps
    Channel(s)                               : 6 channels
    Channel positions                        : Front: L C R, Side: L R, LFE
    Sampling rate                            : 48.0 KHz
    Frame rate                               : 93.750 fps (512 spf)
    Bit depth                                : 16 bits
    Compression mode                         : Lossy
    Stream size                              : 481 MiB (4%)
    Title                                    : A.Warriors.Tail.2015.1080p.BluRay.REMUX.AVC.DTS-HD.MA.5.1-FGT
    Language                                 : English
    Default                                  : No
    Forced                                   : No



    96125551284695956440_thumb.jpg


    游客,如果您要查看本帖隐藏内容请回复




    Savva-Heart of the Warrior 3D (2015)-alE13.mkv
    Format                      : Matroska
    Format version              : Version 4 / Version 2
    File size                   : 7.93 GiB
    Duration                    : 1 h 27 min
    Overall bit rate            : 13.0 Mb/s
    Movie name                  : Savva-Heart of the Warrior 3D (2015)-alE13
    Encoded date                : UTC 2016-11-18 14:09:34
    Writing application         : mkvmerge v8.1.0 ('Psychedelic Postcard') 64bit
    Writing library             : libebml v1.3.1 + libmatroska v1.4.2
    Cover                       : Yes
    Attachments                 : cover.jpg

    Video
    ID                          : 1
    Format                      : AVC
    Format/Info                 : Advanced Video Codec
    Format profile              : High@L4.1
    Format settings, CABAC      : Yes
    Format settings, ReFrames   : 2 frames
    Codec ID                    : V_MPEG4/ISO/AVC
    Duration                    : 1 h 27 min
    Bit rate                    : 12.1 Mb/s
    Width                       : 1 920 pixels
    Height                      : 1 080 pixels
    Display aspect ratio        : 16:9
    Frame rate mode             : Constant
    Frame rate                  : 23.976 (23976/1000) FPS
    Original frame rate         : 23.976 (24000/1001) FPS
    Color space                 : YUV
    Chroma subsampling          : 4:2:0
    Bit depth                   : 8 bits
    Scan type                   : Progressive
    Bits/(Pixel*Frame)          : 0.243
    Stream size                 : 7.38 GiB (93%)
    Title                       : Savva-Heart of the Warrior 3D (2015)-alE13
    Writing library             : x264 core 142
    Default                     : Yes
    Forced                      : No
    Color range                 : Limited
    Color primaries             : BT.709
    Transfer characteristics    : BT.709
    Matrix coefficients         : BT.709

    Audio #1
    ID                          : 2
    Format                      : AC-3
    Format/Info                 : Audio Coding 3
    Mode extension              : CM (complete main)
    Format settings, Endianness : Big
    Codec ID                    : A_AC3
    Duration                    : 1 h 27 min
    Bit rate mode               : Constant
    Bit rate                    : 640 kb/s
    Channel(s)                  : 6 channels
    Channel positions           : Front: L C R, Side: L R, LFE
    Sampling rate               : 48.0 kHz
    Frame rate                  : 31.250 FPS (1536 spf)
    Bit depth                   : 16 bits
    Compression mode            : Lossy
    Stream size                 : 400 MiB (5%)
    Title                       : Savva-Heart of the Warrior 3D (2015)-alE13_AC3
    Language                    : English
    Default                     : No
    Forced                      : No

    Audio #2
    ID                          : 3
    Format                      : AC-3
    Format/Info                 : Audio Coding 3
    Mode extension              : CM (complete main)
    Format settings, Endianness : Big
    Codec ID                    : A_AC3
    Duration                    : 1 h 27 min
    Bit rate mode               : Constant
    Bit rate                    : 256 kb/s
    Channel(s)                  : 2 channels
    Channel positions           : Front: L R
    Sampling rate               : 48.0 kHz
    Frame rate                  : 31.250 FPS (1536 spf)
    Bit depth                   : 16 bits
    Compression mode            : Lossy
    Delay relative to video     : 5 s 0 ms
    Stream size                 : 160 MiB (2%)
    Title                       : Savva-Heart of the Warrior 3D (2015)-alE13_AC3
    Default                     : Yes
    Forced                      : No



    IW8lbcJ.jpg

    LVGLZAT.jpg

    PdJIScL.jpg

    lx09bzp.jpg

    游客,如果您要查看本帖隐藏内容请回复


  • TA的每日心情
    开心
    2017-1-26 13:50
  • 签到天数: 665 天

    [LV.9]以坛为家II

    发表于 2016-11-20 18:45:01 | 显示全部楼层
    下载来看看,谢谢了。。。。。
    回复 支持 反对

    使用道具 举报

  • TA的每日心情

    2017-3-6 20:21
  • 签到天数: 178 天

    [LV.7]常住居民III

    发表于 2016-11-20 20:32:29 | 显示全部楼层
    萨瓦传奇3D
    回复 支持 反对

    使用道具 举报

    匿名  发表于 2016-11-21 09:05:21
    谢谢发布新3D
  • TA的每日心情

    2017-3-5 14:27
  • 签到天数: 940 天

    [LV.10]以坛为家III

    发表于 2016-11-21 09:10:10 来自手机 | 显示全部楼层
    这个貌似有中文字幕了
    回复 支持 反对

    使用道具 举报

    该用户从未签到

    发表于 2016-11-21 09:45:54 来自手机 | 显示全部楼层
    好好好好好好好好好好好
    回复 支持 反对

    使用道具 举报

  • TA的每日心情
    擦汗
    昨天 06:59
  • 签到天数: 278 天

    [LV.8]以坛为家III

    发表于 2016-11-21 10:38:32 | 显示全部楼层
    谢谢楼主的分享
    回复 支持 反对

    使用道具 举报

  • TA的每日心情
    开心
    昨天 14:54
  • 签到天数: 945 天

    [LV.10]以坛为家III

    发表于 2016-11-21 11:08:54 | 显示全部楼层
    谢谢分享,谢谢分享。
    回复 支持 反对

    使用道具 举报

  • TA的每日心情
    开心
    昨天 08:20
  • 签到天数: 307 天

    [LV.8]以坛为家III

    发表于 2016-11-21 12:25:15 | 显示全部楼层
    谢谢分享
    回复 支持 反对

    使用道具 举报

  • TA的每日心情
    无聊
    前天 19:37
  • 签到天数: 257 天

    [LV.8]以坛为家III

    发表于 2016-11-21 14:14:43 | 显示全部楼层

    下来看看,谢谢分享
    回复 支持 反对

    使用道具 举报

    高级模式
    B Color Image Link Quote Code Smilies

    本版积分规则

    为兴趣而生,为电影疯狂。 立即登录 立即注册

    QQ| 免责申明|小黑屋|手机版|Archiver|网站地图| 3D一族论坛   

    Copyright © 2001-2015 Comsenz Inc.   All Rights Reserved.

    Powered by Discuz! X3.2( 沪ICP备14045620号-1 )

    快速回复 返回顶部 返回列表