请选择 进入手机版 | 继续访问电脑版
 找回密码

3D一族论坛

查看: 11408|回复: 772

[左右] [佩小姐的奇幻城堡3D Miss.Peregrines.Home.for.Peculiar.Children.2016.3D][1080p][MKV 21.84G/22.35G/9.84G][BT]

  [复制链接]
  • TA的每日心情
    开心
    6 天前
  • 签到天数: 1657 天

    [LV.Master]伴坛终老

    发表于 2016-12-6 11:47:47 | 显示全部楼层 |阅读模式
    影片截图:

    data/attachment/forum/201612/06/114259n7l3c3pzlhnqmqh7.jpg

         
      片        名: Miss.Peregrines.Home.for.Peculiar.Children.2016.3D
      译        名: 佩小姐的奇幻城堡3D//怪屋女孩/怪奇孤儿院/柏鸟小姐的童幻世界/佩瑞格林小姐的特异儿童之家/特异儿童之家/裴小姐的奇幻城堡
      类        别: 冒险 剧情 
      国        家: 欧美
      语        言: 英语
      字        幕: N/A
      集        数:
      文件格式: MKV
      视频尺寸: 1920*1080
      文件大小: 21.84GB/22.35GB/9.84GB
      上映时间: 2016-09-30(美国)/2016-12-02(中国大陆)
      影片导演: 蒂姆·波顿 Tim Burton
      主要演员: 阿萨·巴特菲尔德 Asa Butterfield
        伊娃·格林 Eva Green
        塞缪尔·杰克逊 Samuel L. Jackson
      推荐等级: ★★★★★
         
    下载地址:
    [下载方式]: bt下载
    [分辨率]: 1080p
    [迅雷地址]:
    [网盘下载]:
    影片简介: fangfang
    杰克(阿萨·巴特菲尔德 Asa Butterfield 饰)的爷爷自杰克还小的时候,就会常说床边故事给他听,故事中有许多拥有特殊能力的小孩。爷爷神秘死亡后,留下了关于这个属于另一个时空世界种种谜团的线索,杰克循着这些线索,进入了这个神秘的世界,发现这群奇怪的孩子真实存在,他们住在这里是为了躲避可怕的变异怪兽。随着杰克的到来,危险也同时抵达,杰克需要与这群孩子一起,抵御黑暗力量。
    本帖最后由 xdwl 于 2016-12-9 19:37 编辑

    p2398173791.jpg

    ◎译  名 佩小姐的奇幻城堡/怪屋女孩/怪奇孤儿院/柏鸟小姐的童幻世界/佩瑞格林小姐的特异儿童之家/特异儿童之家/裴小姐的奇幻城堡

    ◎片  名 Miss Peregrine's Home for Peculiar Children
    ◎年  代 2016
    ◎国  家 美国
    ◎类  别 剧情/奇幻/冒险
    ◎语  言 英语
    ◎上映日期 2016-09-30(美国)/2016-12-02(中国大陆)
    ◎IMDb评分  7.0/10 from 41,463 users
    ◎IMDb链接  http://www.imdb.com/title/tt1935859/
    ◎豆瓣评分 7.4/10 from 17,083 users
    ◎豆瓣链接 https://movie.douban.com/subject/7051830/
    ◎片  长 127分钟/126分钟(中国大陆)
    ◎导  演 蒂姆·波顿 Tim Burton
    ◎主  演 阿萨·巴特菲尔德 Asa Butterfield
          伊娃·格林 Eva Green
          塞缪尔·杰克逊 Samuel L. Jackson
          朱迪·丹奇 Judi Dench
          艾拉·珀内尔 Ella Purnell
          克里斯·奥多德 Chris O'Dowd
          金·迪肯斯 Kim Dickens
          艾莉森·珍妮 Allison Janney
          特伦斯·斯坦普 Terence Stamp
          鲁伯特·艾弗雷特 Rupert Everett
          芬利·麦克米伦 Finlay MacMillan
          艾拉·瓦勒斯泰特 Ella Wahlestedt
          米洛·帕克 Milo Parker
          匹克西·戴夫斯 Pixie Davies
          澳澜·琼斯 O-Lan Jones

    ◎简  介

      杰克(阿萨·巴特菲尔德 Asa Butterfield 饰)的爷爷自杰克还小的时候,就会常说床边故事给他听,故事中有许多拥有特殊能力的小孩。爷爷神秘死亡后,留下了关于这个属于另一个时空世界种种谜团的线索,杰克循着这些线索,进入了这个神秘的世界,发现这群奇怪的孩子真实存在,他们住在这里是为了躲避可怕的变异怪兽。随着杰克的到来,危险也同时抵达,杰克需要与这群孩子一起,抵御黑暗力量。

    Video
    ID                                       : 1
    Format                                   : AVC
    Format/Info                              : Advanced Video Codec
    Format profile                           : High@L4.1
    Format settings, CABAC                   : Yes
    Format settings, ReFrames                : 2 frames
    Codec ID                                 : V_MPEG4/ISO/AVC
    Duration                                 : 2h 6mn
    Nominal bit rate                         : 15.5 Mbps
    Width                                    : 1 920 pixels
    Height                                   : 1 080 pixels
    Display aspect ratio                     : 16:9
    Frame rate mode                          : Constant
    Frame rate                               : 23.976 (24000/1001) fps
    Color space                              : YUV
    Chroma subsampling                       : 4:2:0
    Bit depth                                : 8 bits
    Scan type                                : Progressive
    Bits/(Pixel*Frame)                       : 0.312
    Title                                    : Miss.Peregrines.Home.for.Peculiar.Children.2016.1080p.3D.BluRay.Half-SBS.x264.DTS-HD.MA.7.1-FGT
    Writing library                          : x264 core 142
    Encoding settings                        : cabac=1 / ref=1 / deblock=1:-1:-1 / analyse=0x3:0 / me=hex / subme=5 / psy=0 / mixed_ref=0 / me_range=16 / chroma_me=1 / trellis=0 / 8x8dct=1 / cqm=0 / deadzone=21,11 / fast_pskip=0 / chroma_qp_offset=0 / threads=8 / lookahead_threads=2 / sliced_threads=0 / nr=0 / decimate=1 / interlaced=0 / bluray_compat=0 / constrained_intra=0 / bframes=2 / b_pyramid=0 / b_adapt=1 / b_bias=0 / direct=1 / weightb=0 / open_gop=0 / weightp=0 / keyint=24 / keyint_min=13 / scenecut=40 / intra_refresh=0 / rc=abr / mbtree=0 / bitrate=15500 / ratetol=1.0 / qcomp=0.60 / qpmin=0 / qpmax=69 / qpstep=4 / ip_ratio=1.40 / pb_ratio=1.30 / aq=1:1.00
    Default                                  : Yes
    Forced                                   : No
    Color range                              : Limited
    Color primaries                          : BT.709
    Transfer characteristics                 : BT.709
    Matrix coefficients                      : BT.709

    Audio #1
    ID                                       : 2
    Format                                   : DTS
    Format/Info                              : Digital Theater Systems
    Format profile                           : MA / ES Matrix / Core
    Mode                                     : 16
    Format settings, Endianness              : Big
    Codec ID                                 : A_DTS
    Duration                                 : 2h 6mn
    Bit rate mode                            : Variable / Constant / Constant
    Bit rate                                 : Unknown / 1 509 Kbps / 1 509 Kbps
    Channel(s)                               : 8 channels / 7 channels / 6 channels
    Channel positions                        : Front: L C R, Side: L R, Back: L R, LFE / Front: L C R, Side: L R, Back: C, LFE / Front: L C R, Side: L R, LFE
    Sampling rate                            : 48.0 KHz
    Frame rate                               : 93.750 fps (512 spf)
    Bit depth                                : 24 bits
    Compression mode                         : Lossless / Lossy / Lossy
    Title                                    : Miss.Peregrines.Home.for.Peculiar.Children.2016.1080p.3D.BluRay.Half-SBS.x264.DTS-HD.MA.7.1-FGT
    Language                                 : English
    Default                                  : Yes
    Forced                                   : No

    Audio #2
    ID                                       : 3
    Format                                   : DTS
    Format/Info                              : Digital Theater Systems
    Format profile                           : ES Matrix / Core
    Mode                                     : 16
    Format settings, Endianness              : Big
    Codec ID                                 : A_DTS
    Duration                                 : 2h 6mn
    Bit rate mode                            : Constant
    Bit rate                                 : 1 509 Kbps
    Channel(s)                               : 7 channels / 6 channels
    Channel positions                        : Front: L C R, Side: L R, Back: C, LFE / Front: L C R, Side: L R, LFE
    Sampling rate                            : 48.0 KHz
    Frame rate                               : 93.750 fps (512 spf)
    Bit depth                                : 24 bits
    Compression mode                         : Lossy
    Stream size                              : 1.34 GiB (6%)
    Title                                    : Miss.Peregrines.Home.for.Peculiar.Children.2016.1080p.3D.BluRay.Half-SBS.x264.DTS-HD.MA.7.1-FGT
    Language                                 : English
    Default                                  : No
    Forced                                   : No

    Audio #3
    ID                                       : 4
    Format                                   : AC-3
    Format/Info                              : Audio Coding 3
    Mode extension                           : CM (complete main)
    Format settings, Endianness              : Big
    Codec ID                                 : A_AC3
    Duration                                 : 2h 6mn
    Bit rate mode                            : Constant
    Bit rate                                 : 448 Kbps
    Channel(s)                               : 6 channels
    Channel positions                        : Front: L C R, Side: L R, LFE
    Sampling rate                            : 48.0 KHz
    Frame rate                               : 31.250 fps (1536 spf)
    Compression mode                         : Lossy
    Stream size                              : 407 MiB (2%)
    Title                                    : Miss.Peregrines.Home.for.Peculiar.Children.2016.1080p.3D.BluRay.Half-SBS.x264.DTS-HD.MA.7.1-FGT
    Language                                 : English
    Default                                  : No
    Forced                                   : No

    Audio #4
    ID                                       : 5
    Format                                   : AC-3
    Format/Info                              : Audio Coding 3
    Mode extension                           : CM (complete main)
    Format settings, Endianness              : Big
    Codec ID                                 : A_AC3
    Duration                                 : 2h 6mn
    Bit rate mode                            : Constant
    Bit rate                                 : 448 Kbps
    Channel(s)                               : 6 channels
    Channel positions                        : Front: L C R, Side: L R, LFE
    Sampling rate                            : 48.0 KHz
    Frame rate                               : 31.250 fps (1536 spf)
    Compression mode                         : Lossy
    Stream size                              : 407 MiB (2%)
    Title                                    : Miss.Peregrines.Home.for.Peculiar.Children.2016.1080p.3D.BluRay.Half-SBS.x264.DTS-HD.MA.7.1-FGT
    Language                                 : Spanish
    Default                                  : No
    Forced                                   : No

    Audio #5
    ID                                       : 6
    Format                                   : AC-3
    Format/Info                              : Audio Coding 3
    Mode extension                           : CM (complete main)
    Format settings, Endianness              : Big
    Codec ID                                 : A_AC3
    Duration                                 : 2h 6mn
    Bit rate mode                            : Constant
    Bit rate                                 : 448 Kbps
    Channel(s)                               : 6 channels
    Channel positions                        : Front: L C R, Side: L R, LFE
    Sampling rate                            : 48.0 KHz
    Frame rate                               : 31.250 fps (1536 spf)
    Compression mode                         : Lossy
    Stream size                              : 407 MiB (2%)
    Title                                    : Miss.Peregrines.Home.for.Peculiar.Children.2016.1080p.3D.BluRay.Half-SBS.x264.DTS-HD.MA.7.1-FGT
    Language                                 : French
    Default                                  : No
    Forced                                   : No

    Audio #6
    ID                                       : 7
    Format                                   : AC-3
    Format/Info                              : Audio Coding 3
    Mode extension                           : CM (complete main)
    Format settings, Endianness              : Big
    Codec ID                                 : A_AC3
    Duration                                 : 2h 6mn
    Bit rate mode                            : Constant
    Bit rate                                 : 448 Kbps
    Channel(s)                               : 6 channels
    Channel positions                        : Front: L C R, Side: L R, LFE
    Sampling rate                            : 48.0 KHz
    Frame rate                               : 31.250 fps (1536 spf)
    Compression mode                         : Lossy
    Stream size                              : 407 MiB (2%)
    Title                                    : Miss.Peregrines.Home.for.Peculiar.Children.2016.1080p.3D.BluRay.Half-SBS.x264.DTS-HD.MA.7.1-FGT
    Language                                 : Portuguese
    Default                                  : No
    Forced                                   : No

    Audio #7
    ID                                       : 8
    Format                                   : DTS
    Format/Info                              : Digital Theater Systems
    Mode                                     : 16
    Format settings, Endianness              : Big
    Codec ID                                 : A_DTS
    Duration                                 : 2h 6mn
    Bit rate mode                            : Constant
    Bit rate                                 : 768 Kbps
    Channel(s)                               : 6 channels
    Channel positions                        : Front: L C R, Side: L R, LFE
    Sampling rate                            : 48.0 KHz
    Frame rate                               : 93.750 fps (512 spf)
    Bit depth                                : 24 bits
    Compression mode                         : Lossy
    Stream size                              : 697 MiB (3%)
    Title                                    : Miss.Peregrines.Home.for.Peculiar.Children.2016.1080p.3D.BluRay.Half-SBS.x264.DTS-HD.MA.7.1-FGT
    Language                                 : Russian
    Default                                  : No
    Forced                                   : No

    Audio #8
    ID                                       : 9
    Format                                   : AC-3
    Format/Info                              : Audio Coding 3
    Mode extension                           : CM (complete main)
    Format settings, Endianness              : Big
    Codec ID                                 : A_AC3
    Duration                                 : 2h 6mn
    Bit rate mode                            : Constant
    Bit rate                                 : 448 Kbps
    Channel(s)                               : 6 channels
    Channel positions                        : Front: L C R, Side: L R, LFE
    Sampling rate                            : 48.0 KHz
    Frame rate                               : 31.250 fps (1536 spf)
    Compression mode                         : Lossy
    Stream size                              : 407 MiB (2%)
    Title                                    : Miss.Peregrines.Home.for.Peculiar.Children.2016.1080p.3D.BluRay.Half-SBS.x264.DTS-HD.MA.7.1-FGT
    Language                                 : Ukrainian
    Default                                  : No
    Forced                                   : No

    Text #1
    ID                                       : 10
    Format                                   : PGS
    Muxing mode                              : zlib
    Codec ID                                 : S_HDMV/PGS
    Codec ID/Info                            : Picture based subtitle format used on BDs/HD-DVDs
    Title                                    : English-PGS
    Language                                 : English
    Default                                  : No
    Forced                                   : No

    Text #2
    ID                                       : 11
    Format                                   : PGS
    Muxing mode                              : zlib
    Codec ID                                 : S_HDMV/PGS
    Codec ID/Info                            : Picture based subtitle format used on BDs/HD-DVDs
    Title                                    : Spanish-PGS
    Language                                 : Spanish
    Default                                  : No
    Forced                                   : No

    Text #3
    ID                                       : 12
    Format                                   : PGS
    Muxing mode                              : zlib
    Codec ID                                 : S_HDMV/PGS
    Codec ID/Info                            : Picture based subtitle format used on BDs/HD-DVDs
    Title                                    : French-PGS
    Language                                 : French
    Default                                  : No
    Forced                                   : No

    Text #4
    ID                                       : 13
    Format                                   : PGS
    Muxing mode                              : zlib
    Codec ID                                 : S_HDMV/PGS
    Codec ID/Info                            : Picture based subtitle format used on BDs/HD-DVDs
    Title                                    : Danish-PGS
    Language                                 : Danish
    Default                                  : No
    Forced                                   : No

    Text #5
    ID                                       : 14
    Format                                   : PGS
    Muxing mode                              : zlib
    Codec ID                                 : S_HDMV/PGS
    Codec ID/Info                            : Picture based subtitle format used on BDs/HD-DVDs
    Title                                    : Finnish-PGS
    Language                                 : Finnish
    Default                                  : No
    Forced                                   : No

    Text #6
    ID                                       : 15
    Format                                   : PGS
    Muxing mode                              : zlib
    Codec ID                                 : S_HDMV/PGS
    Codec ID/Info                            : Picture based subtitle format used on BDs/HD-DVDs
    Title                                    : Norwegian-PGS
    Language                                 : Norwegian
    Default                                  : No
    Forced                                   : No

    Text #7
    ID                                       : 16
    Format                                   : PGS
    Muxing mode                              : zlib
    Codec ID                                 : S_HDMV/PGS
    Codec ID/Info                            : Picture based subtitle format used on BDs/HD-DVDs
    Title                                    : Portuguese-PGS
    Language                                 : Portuguese
    Default                                  : No
    Forced                                   : No

    Text #8
    ID                                       : 17
    Format                                   : PGS
    Muxing mode                              : zlib
    Codec ID                                 : S_HDMV/PGS
    Codec ID/Info                            : Picture based subtitle format used on BDs/HD-DVDs
    Title                                    : Russian-PGS
    Language                                 : Russian
    Default                                  : No
    Forced                                   : No

    Text #9
    ID                                       : 18
    Format                                   : PGS
    Muxing mode                              : zlib
    Codec ID                                 : S_HDMV/PGS
    Codec ID/Info                            : Picture based subtitle format used on BDs/HD-DVDs
    Title                                    : Swedish-PGS
    Language                                 : Swedish
    Default                                  : No
    Forced                                   : No

    Text #10
    ID                                       : 19
    Format                                   : PGS
    Muxing mode                              : zlib
    Codec ID                                 : S_HDMV/PGS
    Codec ID/Info                            : Picture based subtitle format used on BDs/HD-DVDs
    Title                                    : Estonian-PGS
    Language                                 : Estonian
    Default                                  : No
    Forced                                   : No

    Text #11
    ID                                       : 20
    Format                                   : PGS
    Muxing mode                              : zlib
    Codec ID                                 : S_HDMV/PGS
    Codec ID/Info                            : Picture based subtitle format used on BDs/HD-DVDs
    Title                                    : Latvian-PGS
    Language                                 : Latvian
    Default                                  : No
    Forced                                   : No

    Text #12
    ID                                       : 21
    Format                                   : PGS
    Muxing mode                              : zlib
    Codec ID                                 : S_HDMV/PGS
    Codec ID/Info                            : Picture based subtitle format used on BDs/HD-DVDs
    Title                                    : Lithuanian-PGS
    Language                                 : Lithuanian
    Default                                  : No
    Forced                                   : No

    Text #13
    ID                                       : 22
    Format                                   : PGS
    Muxing mode                              : zlib
    Codec ID                                 : S_HDMV/PGS
    Codec ID/Info                            : Picture based subtitle format used on BDs/HD-DVDs
    Title                                    : Ukrainian-PGS
    Language                                 : Ukrainian
    Default                                  : No
    Forced                                   : No



    13232477363644156989_thumb.jpg

    18504860644144926140_thumb.jpg

    24717938981275507548_thumb.jpg

    40722282449889866497_thumb.jpg

    51882667649217749361_thumb.jpg

    69969966360202562499_thumb.jpg


    游客,如果您要查看本帖隐藏内容请回复


    Video
    ID                                       : 1
    Format                                   : AVC
    Format/Info                              : Advanced Video Codec
    Format profile                           : High@L4.1
    Format settings, CABAC                   : Yes
    Format settings, ReFrames                : 2 frames
    Codec ID                                 : V_MPEG4/ISO/AVC
    Duration                                 : 2h 6mn
    Nominal bit rate                         : 16.0 Mbps
    Width                                    : 1 920 pixels
    Height                                   : 1 080 pixels
    Display aspect ratio                     : 16:9
    Frame rate mode                          : Constant
    Frame rate                               : 23.976 (24000/1001) fps
    Color space                              : YUV
    Chroma subsampling                       : 4:2:0
    Bit depth                                : 8 bits
    Scan type                                : Progressive
    Bits/(Pixel*Frame)                       : 0.322
    Title                                    : Miss.Peregrines.Home.for.Peculiar.Children.2016.1080p.3D.BluRay.Half-OU.x264.DTS-HD.MA.7.1-FGT
    Writing library                          : x264 core 142
    Encoding settings                        : cabac=1 / ref=1 / deblock=1:-1:-1 / analyse=0x3:0 / me=hex / subme=5 / psy=0 / mixed_ref=0 / me_range=16 / chroma_me=1 / trellis=0 / 8x8dct=1 / cqm=0 / deadzone=21,11 / fast_pskip=0 / chroma_qp_offset=0 / threads=8 / lookahead_threads=2 / sliced_threads=0 / nr=0 / decimate=1 / interlaced=0 / bluray_compat=0 / constrained_intra=0 / bframes=2 / b_pyramid=0 / b_adapt=1 / b_bias=0 / direct=1 / weightb=0 / open_gop=0 / weightp=0 / keyint=24 / keyint_min=13 / scenecut=40 / intra_refresh=0 / rc=abr / mbtree=0 / bitrate=16000 / ratetol=1.0 / qcomp=0.60 / qpmin=0 / qpmax=69 / qpstep=4 / ip_ratio=1.40 / pb_ratio=1.30 / aq=1:1.00
    Default                                  : Yes
    Forced                                   : No
    Color range                              : Limited
    Color primaries                          : BT.709
    Transfer characteristics                 : BT.709
    Matrix coefficients                      : BT.709

    Audio #1
    ID                                       : 2
    Format                                   : DTS
    Format/Info                              : Digital Theater Systems
    Format profile                           : MA / ES Matrix / Core
    Mode                                     : 16
    Format settings, Endianness              : Big
    Codec ID                                 : A_DTS
    Duration                                 : 2h 6mn
    Bit rate mode                            : Variable / Constant / Constant
    Bit rate                                 : Unknown / 1 509 Kbps / 1 509 Kbps
    Channel(s)                               : 8 channels / 7 channels / 6 channels
    Channel positions                        : Front: L C R, Side: L R, Back: L R, LFE / Front: L C R, Side: L R, Back: C, LFE / Front: L C R, Side: L R, LFE
    Sampling rate                            : 48.0 KHz
    Frame rate                               : 93.750 fps (512 spf)
    Bit depth                                : 24 bits
    Compression mode                         : Lossless / Lossy / Lossy
    Title                                    : Miss.Peregrines.Home.for.Peculiar.Children.2016.1080p.3D.BluRay.Half-OU.x264.DTS-HD.MA.7.1-FGT
    Language                                 : English
    Default                                  : Yes
    Forced                                   : No

    Audio #2
    ID                                       : 3
    Format                                   : DTS
    Format/Info                              : Digital Theater Systems
    Format profile                           : ES Matrix / Core
    Mode                                     : 16
    Format settings, Endianness              : Big
    Codec ID                                 : A_DTS
    Duration                                 : 2h 6mn
    Bit rate mode                            : Constant
    Bit rate                                 : 1 509 Kbps
    Channel(s)                               : 7 channels / 6 channels
    Channel positions                        : Front: L C R, Side: L R, Back: C, LFE / Front: L C R, Side: L R, LFE
    Sampling rate                            : 48.0 KHz
    Frame rate                               : 93.750 fps (512 spf)
    Bit depth                                : 24 bits
    Compression mode                         : Lossy
    Stream size                              : 1.34 GiB (6%)
    Title                                    : Miss.Peregrines.Home.for.Peculiar.Children.2016.1080p.3D.BluRay.Half-OU.x264.DTS-HD.MA.7.1-FGT
    Language                                 : English
    Default                                  : No
    Forced                                   : No

    Audio #3
    ID                                       : 4
    Format                                   : AC-3
    Format/Info                              : Audio Coding 3
    Mode extension                           : CM (complete main)
    Format settings, Endianness              : Big
    Codec ID                                 : A_AC3
    Duration                                 : 2h 6mn
    Bit rate mode                            : Constant
    Bit rate                                 : 448 Kbps
    Channel(s)                               : 6 channels
    Channel positions                        : Front: L C R, Side: L R, LFE
    Sampling rate                            : 48.0 KHz
    Frame rate                               : 31.250 fps (1536 spf)
    Compression mode                         : Lossy
    Stream size                              : 407 MiB (2%)
    Title                                    : Miss.Peregrines.Home.for.Peculiar.Children.2016.1080p.3D.BluRay.Half-OU.x264.DTS-HD.MA.7.1-FGT
    Language                                 : English
    Default                                  : No
    Forced                                   : No

    Audio #4
    ID                                       : 5
    Format                                   : AC-3
    Format/Info                              : Audio Coding 3
    Mode extension                           : CM (complete main)
    Format settings, Endianness              : Big
    Codec ID                                 : A_AC3
    Duration                                 : 2h 6mn
    Bit rate mode                            : Constant
    Bit rate                                 : 448 Kbps
    Channel(s)                               : 6 channels
    Channel positions                        : Front: L C R, Side: L R, LFE
    Sampling rate                            : 48.0 KHz
    Frame rate                               : 31.250 fps (1536 spf)
    Compression mode                         : Lossy
    Stream size                              : 407 MiB (2%)
    Title                                    : Miss.Peregrines.Home.for.Peculiar.Children.2016.1080p.3D.BluRay.Half-OU.x264.DTS-HD.MA.7.1-FGT
    Language                                 : Spanish
    Default                                  : No
    Forced                                   : No

    Audio #5
    ID                                       : 6
    Format                                   : AC-3
    Format/Info                              : Audio Coding 3
    Mode extension                           : CM (complete main)
    Format settings, Endianness              : Big
    Codec ID                                 : A_AC3
    Duration                                 : 2h 6mn
    Bit rate mode                            : Constant
    Bit rate                                 : 448 Kbps
    Channel(s)                               : 6 channels
    Channel positions                        : Front: L C R, Side: L R, LFE
    Sampling rate                            : 48.0 KHz
    Frame rate                               : 31.250 fps (1536 spf)
    Compression mode                         : Lossy
    Stream size                              : 407 MiB (2%)
    Title                                    : Miss.Peregrines.Home.for.Peculiar.Children.2016.1080p.3D.BluRay.Half-OU.x264.DTS-HD.MA.7.1-FGT
    Language                                 : French
    Default                                  : No
    Forced                                   : No

    Audio #6
    ID                                       : 7
    Format                                   : AC-3
    Format/Info                              : Audio Coding 3
    Mode extension                           : CM (complete main)
    Format settings, Endianness              : Big
    Codec ID                                 : A_AC3
    Duration                                 : 2h 6mn
    Bit rate mode                            : Constant
    Bit rate                                 : 448 Kbps
    Channel(s)                               : 6 channels
    Channel positions                        : Front: L C R, Side: L R, LFE
    Sampling rate                            : 48.0 KHz
    Frame rate                               : 31.250 fps (1536 spf)
    Compression mode                         : Lossy
    Stream size                              : 407 MiB (2%)
    Title                                    : Miss.Peregrines.Home.for.Peculiar.Children.2016.1080p.3D.BluRay.Half-OU.x264.DTS-HD.MA.7.1-FGT
    Language                                 : Portuguese
    Default                                  : No
    Forced                                   : No

    Audio #7
    ID                                       : 8
    Format                                   : DTS
    Format/Info                              : Digital Theater Systems
    Mode                                     : 16
    Format settings, Endianness              : Big
    Codec ID                                 : A_DTS
    Duration                                 : 2h 6mn
    Bit rate mode                            : Constant
    Bit rate                                 : 768 Kbps
    Channel(s)                               : 6 channels
    Channel positions                        : Front: L C R, Side: L R, LFE
    Sampling rate                            : 48.0 KHz
    Frame rate                               : 93.750 fps (512 spf)
    Bit depth                                : 24 bits
    Compression mode                         : Lossy
    Stream size                              : 697 MiB (3%)
    Title                                    : Miss.Peregrines.Home.for.Peculiar.Children.2016.1080p.3D.BluRay.Half-OU.x264.DTS-HD.MA.7.1-FGT
    Language                                 : Russian
    Default                                  : No
    Forced                                   : No

    Audio #8
    ID                                       : 9
    Format                                   : AC-3
    Format/Info                              : Audio Coding 3
    Mode extension                           : CM (complete main)
    Format settings, Endianness              : Big
    Codec ID                                 : A_AC3
    Duration                                 : 2h 6mn
    Bit rate mode                            : Constant
    Bit rate                                 : 448 Kbps
    Channel(s)                               : 6 channels
    Channel positions                        : Front: L C R, Side: L R, LFE
    Sampling rate                            : 48.0 KHz
    Frame rate                               : 31.250 fps (1536 spf)
    Compression mode                         : Lossy
    Stream size                              : 407 MiB (2%)
    Title                                    : Miss.Peregrines.Home.for.Peculiar.Children.2016.1080p.3D.BluRay.Half-OU.x264.DTS-HD.MA.7.1-FGT
    Language                                 : Ukrainian
    Default                                  : No
    Forced                                   : No

    Text #1
    ID                                       : 10
    Format                                   : PGS
    Muxing mode                              : zlib
    Codec ID                                 : S_HDMV/PGS
    Codec ID/Info                            : Picture based subtitle format used on BDs/HD-DVDs
    Title                                    : English-pgs
    Language                                 : English
    Default                                  : No
    Forced                                   : No

    Text #2
    ID                                       : 11
    Format                                   : PGS
    Muxing mode                              : zlib
    Codec ID                                 : S_HDMV/PGS
    Codec ID/Info                            : Picture based subtitle format used on BDs/HD-DVDs
    Title                                    : Spanish-PGS
    Language                                 : Spanish
    Default                                  : No
    Forced                                   : No

    Text #3
    ID                                       : 12
    Format                                   : PGS
    Muxing mode                              : zlib
    Codec ID                                 : S_HDMV/PGS
    Codec ID/Info                            : Picture based subtitle format used on BDs/HD-DVDs
    Title                                    : French-PGS
    Language                                 : French
    Default                                  : No
    Forced                                   : No

    Text #4
    ID                                       : 13
    Format                                   : PGS
    Muxing mode                              : zlib
    Codec ID                                 : S_HDMV/PGS
    Codec ID/Info                            : Picture based subtitle format used on BDs/HD-DVDs
    Title                                    : Danish-PGS
    Language                                 : Danish
    Default                                  : No
    Forced                                   : No

    Text #5
    ID                                       : 14
    Format                                   : PGS
    Muxing mode                              : zlib
    Codec ID                                 : S_HDMV/PGS
    Codec ID/Info                            : Picture based subtitle format used on BDs/HD-DVDs
    Title                                    : Finnish-PGS
    Language                                 : Finnish
    Default                                  : No
    Forced                                   : No

    Text #6
    ID                                       : 15
    Format                                   : PGS
    Muxing mode                              : zlib
    Codec ID                                 : S_HDMV/PGS
    Codec ID/Info                            : Picture based subtitle format used on BDs/HD-DVDs
    Title                                    : Norwegian-PGS
    Language                                 : Norwegian
    Default                                  : No
    Forced                                   : No

    Text #7
    ID                                       : 16
    Format                                   : PGS
    Muxing mode                              : zlib
    Codec ID                                 : S_HDMV/PGS
    Codec ID/Info                            : Picture based subtitle format used on BDs/HD-DVDs
    Title                                    : Portuguese-PGS
    Language                                 : Portuguese
    Default                                  : No
    Forced                                   : No

    Text #8
    ID                                       : 17
    Format                                   : PGS
    Muxing mode                              : zlib
    Codec ID                                 : S_HDMV/PGS
    Codec ID/Info                            : Picture based subtitle format used on BDs/HD-DVDs
    Title                                    : Russian-pgs
    Language                                 : Russian
    Default                                  : No
    Forced                                   : No

    Text #9
    ID                                       : 18
    Format                                   : PGS
    Muxing mode                              : zlib
    Codec ID                                 : S_HDMV/PGS
    Codec ID/Info                            : Picture based subtitle format used on BDs/HD-DVDs
    Title                                    : Swedish-PGS
    Language                                 : Swedish
    Default                                  : No
    Forced                                   : No

    Text #10
    ID                                       : 19
    Format                                   : PGS
    Muxing mode                              : zlib
    Codec ID                                 : S_HDMV/PGS
    Codec ID/Info                            : Picture based subtitle format used on BDs/HD-DVDs
    Title                                    : Estonian-PGS
    Language                                 : Estonian
    Default                                  : No
    Forced                                   : No

    Text #11
    ID                                       : 20
    Format                                   : PGS
    Muxing mode                              : zlib
    Codec ID                                 : S_HDMV/PGS
    Codec ID/Info                            : Picture based subtitle format used on BDs/HD-DVDs
    Title                                    : Latvian-PGS
    Language                                 : Latvian
    Default                                  : No
    Forced                                   : No

    Text #12
    ID                                       : 21
    Format                                   : PGS
    Muxing mode                              : zlib
    Codec ID                                 : S_HDMV/PGS
    Codec ID/Info                            : Picture based subtitle format used on BDs/HD-DVDs
    Title                                    : Lithuanian-PGS
    Language                                 : Lithuanian
    Default                                  : No
    Forced                                   : No

    Text #13
    ID                                       : 22
    Format                                   : PGS
    Muxing mode                              : zlib
    Codec ID                                 : S_HDMV/PGS
    Codec ID/Info                            : Picture based subtitle format used on BDs/HD-DVDs
    Title                                    : Ukrainian-PGS
    Language                                 : Ukrainian
    Default                                  : No
    Forced                                   : No





    09810848969340004376_thumb.jpg

    31790996584496407237_thumb.jpg

    83056119254101483927_thumb.jpg

    84911930838976239467_thumb.jpg

    90701160954062249806_thumb.jpg

    90730188462115446537_thumb.jpg


    游客,如果您要查看本帖隐藏内容请回复




    Video
    ID                                       : 1
    Format                                   : AVC
    Format/Info                              : Advanced Video Codec
    Format profile                           : High@L4.1
    Format settings, CABAC                   : Yes
    Format settings, ReFrames                : 4 frames
    Codec ID                                 : V_MPEG4/ISO/AVC
    Duration                                 : 2h 6mn
    Bit rate                                 : 9 594 Kbps
    Width                                    : 1 920 pixels
    Height                                   : 1 040 pixels
    Display aspect ratio                     : 1.85:1
    Frame rate mode                          : Constant
    Frame rate                               : 23.976 fps
    Color space                              : YUV
    Chroma subsampling                       : 4:2:0
    Bit depth                                : 8 bits
    Scan type                                : Progressive
    Bits/(Pixel*Frame)                       : 0.200
    Stream size                              : 8.50 GiB (86%)
    Writing library                          : x264 core 148 r2705 3f5ed56
    Encoding settings                        : cabac=1 / ref=4 / deblock=1:0:0 / analyse=0x3:0x133 / me=umh / subme=7 / psy=1 / psy_rd=1.00:0.00 / mixed_ref=1 / me_range=16 / chroma_me=1 / trellis=1 / 8x8dct=1 / cqm=0 / deadzone=21,11 / fast_pskip=0 / chroma_qp_offset=-2 / threads=24 / lookahead_threads=4 / sliced_threads=0 / nr=0 / decimate=1 / interlaced=0 / bluray_compat=0 / constrained_intra=0 / bframes=3 / b_pyramid=2 / b_adapt=1 / b_bias=0 / direct=1 / weightb=1 / open_gop=0 / weightp=2 / keyint=250 / keyint_min=23 / scenecut=40 / intra_refresh=0 / rc_lookahead=40 / rc=2pass / mbtree=1 / bitrate=9594 / ratetol=1.0 / qcomp=0.60 / qpmin=0 / qpmax=69 / qpstep=4 / cplxblur=20.0 / qblur=0.5 / ip_ratio=1.40 / aq=1:1.00
    Language                                 : English
    Default                                  : Yes
    Forced                                   : No

    Audio
    ID                                       : 2
    Format                                   : DTS
    Format/Info                              : Digital Theater Systems
    Format profile                           : ES Matrix / Core
    Mode                                     : 16
    Format settings, Endianness              : Big
    Codec ID                                 : A_DTS
    Duration                                 : 2h 6mn
    Bit rate mode                            : Constant
    Bit rate                                 : 1 509 Kbps
    Channel(s)                               : 7 channels / 6 channels
    Channel positions                        : Front: L C R, Side: L R, Back: C, LFE / Front: L C R, Side: L R, LFE
    Sampling rate                            : 48.0 KHz
    Frame rate                               : 93.750 fps (512 spf)
    Bit depth                                : 24 bits
    Compression mode                         : Lossy
    Stream size                              : 1.34 GiB (14%)
    Language                                 : English
    Default                                  : Yes
    Forced                                   : No



    27993757674892040713_thumb.jpg

    游客,如果您要查看本帖隐藏内容请回复




  • TA的每日心情
    开心
    2017-8-30 09:57
  • 签到天数: 56 天

    [LV.5]常住居民I

    发表于 2016-12-6 12:16:37 | 显示全部楼层
    这么快就有了,好惊喜,谢谢楼主
    回复 支持 反对

    使用道具 举报

  • TA的每日心情
    开心
    3 天前
  • 签到天数: 1011 天

    [LV.10]以坛为家III

    发表于 2016-12-6 12:17:19 | 显示全部楼层
    谢谢分享,谢谢分享。
    回复 支持 反对

    使用道具 举报

  • TA的每日心情
    开心
    2017-7-4 12:20
  • 签到天数: 382 天

    [LV.9]以坛为家II

    发表于 2016-12-6 12:17:56 | 显示全部楼层
    这么快就有了
    回复 支持 反对

    使用道具 举报

  • TA的每日心情
    奋斗
    3 天前
  • 签到天数: 859 天

    [LV.10]以坛为家III

    发表于 2016-12-6 12:25:11 | 显示全部楼层
    终于有3D版啦
    回复 支持 反对

    使用道具 举报

  • TA的每日心情
    慵懒
    2017-8-31 20:37
  • 签到天数: 49 天

    [LV.5]常住居民I

    发表于 2016-12-6 12:29:38 | 显示全部楼层
    谢谢楼主分享啦!谢谢
    回复 支持 反对

    使用道具 举报

  • TA的每日心情
    开心
    2017-9-6 17:22
  • 签到天数: 674 天

    [LV.9]以坛为家II

    发表于 2016-12-6 12:35:47 | 显示全部楼层
    谢谢楼主分享
    回复 支持 反对

    使用道具 举报

  • TA的每日心情
    无聊
    2017-9-14 20:09
  • 签到天数: 213 天

    [LV.7]常住居民III

    发表于 2016-12-6 13:08:37 | 显示全部楼层
    很喜欢看奇幻电影
    回复 支持 反对

    使用道具 举报

  • TA的每日心情
    开心
    2017-1-30 09:27
  • 签到天数: 44 天

    [LV.5]常住居民I

    发表于 2016-12-6 13:21:35 | 显示全部楼层
    谢谢楼主分享
    回复 支持 反对

    使用道具 举报

    高级模式
    B Color Image Link Quote Code Smilies

    本版积分规则

    免责申明|小黑屋|手机版|Archiver|网站地图| 3D一族论坛  

    Copyright © 2001-2015 Comsenz Inc.   All Rights Reserved.

    Powered by Discuz! X3.2( 沪ICP备14045620号-1 )

    快速回复 返回顶部 返回列表