请选择 进入手机版 | 继续访问电脑版
 找回密码

3D一族论坛

查看: 2630|回复: 106

[左右半宽] [圆梦巨人 3D 2016][合成3D字幕][The BFG 2016][1080P/H264][英 国语/AC-3/DTS][MKV/14G/百Du]

  [复制链接]
  • TA的每日心情
    擦汗
    2017-8-12 09:35
  • 签到天数: 319 天

    [LV.8]以坛为家III

    发表于 2016-12-9 08:52:01 | 显示全部楼层 |阅读模式
    本帖最后由 lsjsyp 于 2016-12-13 08:04 编辑

    p2386736909.jpg

    导演: 史蒂文·斯皮尔伯格
    编剧: 梅丽莎·马西森 / 罗尔德·达尔
    主演: 鲁比·巴恩希尔 / 马克·里朗斯 / 比尔·哈德尔 / 丽贝卡·豪尔 / 佩内洛普·威尔顿 / [url=]更多...[/url]
    类型: 奇幻 / 冒险
    官方网站: movies.disney.com/the-bfg
    制片国家/地区: 美国 / 英国
    语言: 英语/国语

    字幕:合成3D字幕
    上映日期: 2016-10-14(中国大陆) / 2016-07-01(美国) / 2016-05-14(戛纳电影节)
    片长: 117分钟
    又名: 吹梦巨人(港) / 好心眼儿巨人
    IMDb链接: tt3691740



    圆梦巨人的剧情简介  ·  ·  ·  ·  ·  ·
      孤儿院里一个名叫苏菲(鲁比·巴恩希尔 Ruby Barnhill 饰)的小女孩一天夜里睡不着觉,她在“巫师出没的时刻”看到一个和楼房一样高大的巨人(马克·里朗斯 Mark Rylance 饰)沿街走过来。巨人发现苏菲看见了他,于是便把她拎回了巨人国。
      这个巨人是好心眼儿巨人,好心眼儿巨人专门搜集好梦,把梦分门别类地装在一个个玻璃瓶子里,再挨家挨户地把捕捉来的好梦吹到孩子们睡觉的卧室里。他与其他巨人国中的巨人不一样。其他巨人都吃人,他只吃自己种植的食物。
      为了阻止其他巨人继续吃人,聪明的苏菲她让BFG调制出一个关于巨人吃小孩的噩梦,并想要把这个梦吹到英国女王的卧室里。两人由此开始了一段奇幻的冒险之旅。一路上,他们面临着巨人国吃人巨人们的重重威胁;与此同时,小女孩与好心眼儿巨人也从一开始的彼此不信任,成长出一场非同寻常的友谊。


    编码信息:
    General
    Unique ID                      : 215219397070875122606148079131953978975 (0xA1E9BF864FABC627A2354FE1ECBBDE5F)
    Complete name                  : G:\[LYP]The.BFG.2016.3D.BluRay.1080p.HSBS.x264.mkv
    Format                         : Matroska
    Format version                 : Version 4 / Version 2
    File size                      : 14.0 GiB
    Duration                       : 1h 57mn
    Overall bit rate mode          : Variable
    Overall bit rate               : 17.2 Mbps
    Encoded date                   : UTC 2016-12-08 06:31:14
    Writing application            : mkvmerge v7.5.0 ('Glass Culture') 64bit built on Jan  4 2015 16:48:44
    Writing library                : libebml v1.3.1 + libmatroska v1.4.2 / ShanaEncoder

    Video
    ID                             : 1
    Format                         : AVC
    Format/Info                    : Advanced Video Codec
    Format profile                 : Baseline@L4
    Format settings, CABAC         : No
    Format settings, ReFrames      : 3 frames
    Codec ID                       : V_MPEG4/ISO/AVC
    Duration                       : 1h 57mn
    Bit rate                       : 10.5 Mbps
    Width                          : 1 920 pixels
    Height                         : 1 080 pixels
    Display aspect ratio           : 16:9
    Frame rate mode                : Constant
    Frame rate                     : 23.976 (24000/1001) fps
    Color space                    : YUV
    Chroma subsampling             : 4:2:0
    Bit depth                      : 8 bits
    Scan type                      : Progressive
    Bits/(Pixel*Frame)             : 0.212
    Stream size                    : 8.63 GiB (61%)
    Writing library                : x264 core 148
    Encoding settings              : opencl=1 / cabac=0 / ref=3 / deblock=1:0:0 / analyse=0x1:0x111 / me=hex / subme=7 / psy=1 / psy_rd=1.00:0.00 / mixed_ref=1 / me_range=16 / chroma_me=1 / trellis=1 / 8x8dct=0 / cqm=0 / deadzone=21,11 / fast_pskip=1 / chroma_qp_offset=-2 / threads=12 / lookahead_threads=2 / sliced_threads=0 / nr=0 / decimate=1 / interlaced=0 / bluray_compat=0 / constrained_intra=0 / bframes=0 / weightp=0 / keyint=250 / keyint_min=23 / scenecut=40 / intra_refresh=0 / rc_lookahead=40 / rc=crf / mbtree=1 / crf=16.0 / qcomp=0.60 / qpmin=0 / qpmax=69 / qpstep=4 / ip_ratio=1.40 / aq=1:1.00
    Default                        : Yes
    Forced                         : No

    Audio #1
    ID                             : 2
    Format                         : DTS
    Format/Info                    : Digital Theater Systems
    Mode                           : 16
    Format settings, Endianness    : Big
    Codec ID                       : A_DTS
    Duration                       : 1h 57mn
    Bit rate mode                  : Constant
    Bit rate                       : 1 509 Kbps
    Channel(s)                     : 6 channels
    Channel positions              : Front: L C R, Side: L R, LFE
    Sampling rate                  : 48.0 KHz
    Frame rate                     : 93.750 fps (512 spf)
    Bit depth                      : 16 bits
    Compression mode               : Lossy
    Stream size                    : 1.23 GiB (9%)
    Title                          : 国配 dts
    Language                       : Chinese
    Default                        : No
    Forced                         : No

    Audio #2
    ID                             : 3
    Format                         : Atmos / TrueHD
    Codec ID                       : A_TRUEHD
    Duration                       : 1h 57mn
    Bit rate mode                  : Variable
    Bit rate                       : 4 582 Kbps
    Maximum bit rate               : 7 287 Kbps
    Channel(s)                     : Object Based / 8 channels
    Channel positions              : Object Based / Front: L C R, Side: L R, Back: L R, LFE
    Sampling rate                  :  / 48.0 KHz
    Frame rate                     : 1 200.000 fps (40 spf)
    Compression mode               : Lossless
    Stream size                    : 3.75 GiB (27%)
    Title                          : English THD
    Language                       : English
    Default                        : No
    Forced                         : No

    Audio #3
    ID                             : 4
    Format                         : AC-3
    Format/Info                    : Audio Coding 3
    Mode extension                 : CM (complete main)
    Format settings, Endianness    : Big
    Codec ID                       : A_AC3
    Duration                       : 1h 57mn
    Bit rate mode                  : Constant
    Bit rate                       : 448 Kbps
    Channel(s)                     : 6 channels
    Channel positions              : Front: L C R, Side: L R, LFE
    Sampling rate                  : 48.0 KHz
    Frame rate                     : 31.250 fps (1536 spf)
    Compression mode               : Lossy
    Stream size                    : 375 MiB (3%)
    Title                          : English ac3 7.1
    Language                       : English
    Default                        : No
    Forced                         : No



    QQ拼音截图未命名-0.png
    QQ拼音截图未命名.png

    QQ拼音截图未命名-3.png

    QQ拼音截图未命名1.png
    开启3D模式


    QQ拼音截图未命名-4.png

    QQ拼音截图未命名-5.png


    说明:
    1.国配音轨、字幕,完美匹配。
    2.低调观影,最近查的厉害.....

    3.“流浪的疾风”以上可以下载,截至2016-12-10 17:00。

    游客,如果您要查看本帖隐藏内容请回复






  • TA的每日心情
    开心
    2017-3-9 17:01
  • 签到天数: 595 天

    [LV.9]以坛为家II

    发表于 2016-12-9 09:32:49 | 显示全部楼层
    下载看看 谢谢了哈哈
    回复 支持 反对

    使用道具 举报

  • TA的每日心情
    开心
    2017-3-9 17:01
  • 签到天数: 595 天

    [LV.9]以坛为家II

    发表于 2016-12-9 09:34:25 | 显示全部楼层
    解压密码多少啊。。。

    点评

    谢谢,忘记了。请查看主贴,已更新  发表于 2016-12-9 09:42

    评分

    参与人数 1威望 +2 e币 +10 收起 理由
    lsjsyp + 2 + 10 哥给的不是e币,是寂寞~

    查看全部评分

    回复 支持 反对

    使用道具 举报

  • TA的每日心情
    开心
    2017-3-9 17:01
  • 签到天数: 595 天

    [LV.9]以坛为家II

    发表于 2016-12-9 10:35:45 | 显示全部楼层
    谢谢 开始下载
    回复 支持 反对

    使用道具 举报

  • TA的每日心情
    无聊
    2017-3-17 15:48
  • 签到天数: 317 天

    [LV.8]以坛为家III

    发表于 2016-12-9 11:22:42 | 显示全部楼层
    期待已久,感谢分享!
    回复 支持 反对

    使用道具 举报

  • TA的每日心情
    奋斗
    昨天 05:27
  • 签到天数: 783 天

    [LV.10]以坛为家III

    发表于 2016-12-9 11:43:37 | 显示全部楼层
    謝謝樓主的分享。
    回复 支持 反对

    使用道具 举报

  • TA的每日心情
    难过
    2017-2-25 00:27
  • 签到天数: 12 天

    [LV.3]偶尔看看II

    发表于 2016-12-9 12:28:28 | 显示全部楼层
    xiazaikankan看看看
    回复 支持 反对

    使用道具 举报

  • TA的每日心情
    难过
    2017-2-25 00:27
  • 签到天数: 12 天

    [LV.3]偶尔看看II

    发表于 2016-12-9 12:29:01 | 显示全部楼层
    下载看看
    回复 支持 反对

    使用道具 举报

  • TA的每日心情
    难过
    2017-2-25 00:27
  • 签到天数: 12 天

    [LV.3]偶尔看看II

    发表于 2016-12-9 12:29:44 | 显示全部楼层
    [圆梦巨人 3D 2016][合成3D字幕][The BFG 2016][1080P/H264][英 国语/AC-3/DTS][MKV/14G/百Du]
    回复 支持 反对

    使用道具 举报

  • TA的每日心情
    难过
    2017-2-25 00:27
  • 签到天数: 12 天

    [LV.3]偶尔看看II

    发表于 2016-12-9 12:30:20 | 显示全部楼层
    谢谢分享,谢谢分享
    回复 支持 反对

    使用道具 举报

    您需要登录后才可以回帖 登录 | 立即注册

    本版积分规则

    免责申明|小黑屋|手机版|Archiver|网站地图| 3D一族论坛  

    Copyright © 2001-2015 Comsenz Inc.   All Rights Reserved.

    Powered by Discuz! X3.2( 沪ICP备14045620号-1 )

    快速回复 返回顶部 返回列表