请选择 进入手机版 | 继续访问电脑版
 找回密码

3D一族论坛

查看: 4898|回复: 342

[左右] [逗鸟外传:萌宝满天飞3D Storks.2016.3D][1080p][MKV 13.63G/13.95G/4.37G][BT]

  [复制链接]
  • TA的每日心情
    开心
    2017-5-18 15:17
  • 签到天数: 1636 天

    [LV.Master]伴坛终老

    发表于 2016-12-12 15:36:55 | 显示全部楼层 |阅读模式
    影片截图:

    data/attachment/forum/201612/12/153358dozek94gtgg2kkt1.jpg

         
      片        名: Storks.2016.3D
      译        名: 逗鸟外传:萌宝满天飞3D/送子鸟/BB宅急便/送子鹤/鹳
      类        别: 喜剧 动漫 
      国        家: 欧美
      语        言: 英语
      字        幕: N/A
      集        数:
      文件格式: MKV
      视频尺寸: 1920*1080
      文件大小: 13.63GB/13.95GB/4.37GB
      上映时间: 2016-09-23(中国大陆/美国)
      影片导演: 尼古拉斯·斯托勒 Nicholas Stoller / 道格·斯威特兰德 Doug Sweetland
      主要演员: 安迪·萨姆伯格 Andy Samberg
        凯蒂·克朗 Katie Crown
        凯尔希·格兰莫 Kelsey Grammer
      推荐等级: ★★★★★
         
    下载地址:
    [下载方式]: bt下载
    [分辨率]: 1080p
    [迅雷地址]:
    [网盘下载]:
    影片简介: fangfang
    鹳鸟送子,天经地义……至少以前是这样。现在,他们负责给角落商店送货。朱尼尔(安迪·萨姆伯格 Andy Samberg 配音),是公司里的最佳快递员,即将升职的他在某天值勤时,遇到了宝宝制造厂被意外启动的事件。结果, 一个人见人爱,完全未经授权的宝宝就这样出现了。
      为了不让老板发现这次意外事故,朱尼尔和他的朋友、鹳鸟山上唯一的人类小郁(凯蒂·克朗 Katie Crown 配音),迫不及待地想把宝宝送走,于是匆匆踏上了他们首次快递宝宝的疯狂惊险之旅。不止一个家庭因此享受到天伦之乐,更重要的是,这次任务的胜利完成将让全球的鹳鸟卷土重来,再续送子的光荣使命。
    本帖最后由 xdwl 于 2016-12-15 09:13 编辑

    Storks 3D Blu-ray_front.jpg


    ◎译  名 逗鸟外传:萌宝满天飞/送子鸟/BB宅急便/送子鹤/鹳
    ◎片  名 Storks
    ◎年  代 2016
    ◎国  家 美国
    ◎类  别 喜剧/动画
    ◎语  言 英语
    ◎上映日期 2016-09-23(中国大陆/美国)
    ◎IMDb评分  7.0/10 from 10,769 users
    ◎IMDb链接  http://www.imdb.com/title/tt4624424/
    ◎豆瓣评分 7.6/10 from 9,209 users
    ◎豆瓣链接 https://movie.douban.com/subject/26374205/
    ◎片  长 89分钟/87分钟(中国大陆)
    ◎导  演 尼古拉斯·斯托勒 Nicholas Stoller / 道格·斯威特兰德 Doug Sweetland
    ◎主  演 安迪·萨姆伯格 Andy Samberg
          凯蒂·克朗 Katie Crown
          凯尔希·格兰莫 Kelsey Grammer
          詹妮弗·安妮斯顿 Jennifer Aniston
          泰·布利尔 Ty Burrell
          科甘-迈克尔·凯 Keegan-Michael Key
          乔丹·皮尔 Jordan Peele
          安东·斯塔克曼 Anton Starkman
          丹尼·特雷霍 Danny Trejo
          史蒂芬·克雷默·格利克曼 Stephen Kramer Glickman

    ◎简  介

      鹳鸟送子,天经地义……至少以前是这样。现在,他们负责给角落商店送货。朱尼尔(安迪·萨姆伯格 Andy Samberg 配音),是公司里的最佳快递员,即将升职的他在某天值勤时,遇到了宝宝制造厂被意外启动的事件。结果, 一个人见人爱,完全未经授权的宝宝就这样出现了。
      为了不让老板发现这次意外事故,朱尼尔和他的朋友、鹳鸟山上唯一的人类小郁(凯蒂·克朗 Katie Crown 配音),迫不及待地想把宝宝送走,于是匆匆踏上了他们首次快递宝宝的疯狂惊险之旅。不止一个家庭因此享受到天伦之乐,更重要的是,这次任务的胜利完成将让全球的鹳鸟卷土重来,再续送子的光荣使命。

    ◎获奖情况

      第44届动画安妮奖  (2017)
      最佳配音(提名) 凯蒂·克朗

    Video
    ID                                       : 1
    Format                                   : AVC
    Format/Info                              : Advanced Video Codec
    Format profile                           : High@L4.1
    Format settings, CABAC                   : Yes
    Format settings, ReFrames                : 2 frames
    Format settings, GOP                     : M=3, N=24
    Codec ID                                 : V_MPEG4/ISO/AVC
    Duration                                 : 1h 26mn
    Nominal bit rate                         : 15.5 Mbps
    Width                                    : 1 920 pixels
    Height                                   : 1 080 pixels
    Display aspect ratio                     : 16:9
    Frame rate mode                          : Constant
    Frame rate                               : 23.976 (24000/1001) fps
    Color space                              : YUV
    Chroma subsampling                       : 4:2:0
    Bit depth                                : 8 bits
    Scan type                                : Progressive
    Bits/(Pixel*Frame)                       : 0.312
    Title                                    : Storks.2016.1080p.3D.BluRay.Half-SBS.x264.DTS-HD.MA.7.1-FGT
    Writing library                          : x264 core 142
    Encoding settings                        : cabac=1 / ref=1 / deblock=1:-1:-1 / analyse=0x3:0 / me=hex / subme=5 / psy=0 / mixed_ref=0 / me_range=16 / chroma_me=1 / trellis=0 / 8x8dct=1 / cqm=0 / deadzone=21,11 / fast_pskip=0 / chroma_qp_offset=0 / threads=8 / lookahead_threads=2 / sliced_threads=0 / nr=0 / decimate=1 / interlaced=0 / bluray_compat=0 / constrained_intra=0 / bframes=2 / b_pyramid=0 / b_adapt=1 / b_bias=0 / direct=1 / weightb=0 / open_gop=0 / weightp=0 / keyint=24 / keyint_min=13 / scenecut=40 / intra_refresh=0 / rc=abr / mbtree=0 / bitrate=15500 / ratetol=1.0 / qcomp=0.60 / qpmin=0 / qpmax=69 / qpstep=4 / ip_ratio=1.40 / pb_ratio=1.30 / aq=1:1.00
    Default                                  : Yes
    Forced                                   : No
    Color range                              : Limited
    Color primaries                          : BT.709
    Transfer characteristics                 : BT.709
    Matrix coefficients                      : BT.709

    Audio #1
    ID                                       : 2
    Format                                   : DTS
    Format/Info                              : Digital Theater Systems
    Format profile                           : MA / Core
    Mode                                     : 16
    Format settings, Endianness              : Big
    Codec ID                                 : A_DTS
    Duration                                 : 1h 26mn
    Bit rate mode                            : Variable / Constant
    Bit rate                                 : Unknown / 1 509 Kbps
    Channel(s)                               : 8 channels / 6 channels
    Channel positions                        : Front: L C R, Side: L R, Back: L R, LFE / Front: L C R, Side: L R, LFE
    Sampling rate                            : 48.0 KHz
    Frame rate                               : 93.750 fps (512 spf)
    Bit depth                                : 16 bits
    Compression mode                         : Lossless / Lossy
    Title                                    : Storks.2016.1080p.3D.BluRay.Half-SBS.x264.DTS-HD.MA.7.1-FGT
    Language                                 : English
    Default                                  : Yes
    Forced                                   : No

    Audio #2
    ID                                       : 3
    Format                                   : DTS
    Format/Info                              : Digital Theater Systems
    Mode                                     : 16
    Format settings, Endianness              : Big
    Codec ID                                 : A_DTS
    Duration                                 : 1h 26mn
    Bit rate mode                            : Constant
    Bit rate                                 : 1 509 Kbps
    Channel(s)                               : 6 channels
    Channel positions                        : Front: L C R, Side: L R, LFE
    Sampling rate                            : 48.0 KHz
    Frame rate                               : 93.750 fps (512 spf)
    Bit depth                                : 16 bits
    Compression mode                         : Lossy
    Stream size                              : 939 MiB (7%)
    Title                                    : Storks.2016.1080p.3D.BluRay.Half-SBS.x264.DTS-HD.MA.7.1-FGT
    Language                                 : English
    Default                                  : No
    Forced                                   : No

    Audio #3
    ID                                       : 4
    Format                                   : AC-3
    Format/Info                              : Audio Coding 3
    Mode extension                           : CM (complete main)
    Format settings, Endianness              : Big
    Codec ID                                 : A_AC3
    Duration                                 : 1h 26mn
    Bit rate mode                            : Constant
    Bit rate                                 : 448 Kbps
    Channel(s)                               : 6 channels
    Channel positions                        : Front: L C R, Side: L R, LFE
    Sampling rate                            : 48.0 KHz
    Frame rate                               : 31.250 fps (1536 spf)
    Compression mode                         : Lossy
    Stream size                              : 279 MiB (2%)
    Title                                    : Storks.2016.1080p.3D.BluRay.Half-SBS.x264.DTS-HD.MA.7.1-FGT
    Language                                 : English
    Default                                  : No
    Forced                                   : No

    Audio #4
    ID                                       : 5
    Format                                   : AC-3
    Format/Info                              : Audio Coding 3
    Mode extension                           : CM (complete main)
    Format settings, Endianness              : Big
    Codec ID                                 : A_AC3
    Duration                                 : 1h 26mn
    Bit rate mode                            : Constant
    Bit rate                                 : 448 Kbps
    Channel(s)                               : 6 channels
    Channel positions                        : Front: L C R, Side: L R, LFE
    Sampling rate                            : 48.0 KHz
    Frame rate                               : 31.250 fps (1536 spf)
    Compression mode                         : Lossy
    Stream size                              : 279 MiB (2%)
    Title                                    : Storks.2016.1080p.3D.BluRay.Half-SBS.x264.DTS-HD.MA.7.1-FGT
    Language                                 : French
    Default                                  : No
    Forced                                   : No

    Audio #5
    ID                                       : 6
    Format                                   : AC-3
    Format/Info                              : Audio Coding 3
    Mode extension                           : CM (complete main)
    Format settings, Endianness              : Big
    Codec ID                                 : A_AC3
    Duration                                 : 1h 26mn
    Bit rate mode                            : Constant
    Bit rate                                 : 448 Kbps
    Channel(s)                               : 6 channels
    Channel positions                        : Front: L C R, Side: L R, LFE
    Sampling rate                            : 48.0 KHz
    Frame rate                               : 31.250 fps (1536 spf)
    Compression mode                         : Lossy
    Stream size                              : 279 MiB (2%)
    Title                                    : Storks.2016.1080p.3D.BluRay.Half-SBS.x264.DTS-HD.MA.7.1-FGT
    Language                                 : Spanish
    Default                                  : No
    Forced                                   : No

    Audio #6
    ID                                       : 7
    Format                                   : AC-3
    Format/Info                              : Audio Coding 3
    Mode extension                           : CM (complete main)
    Format settings, Endianness              : Big
    Codec ID                                 : A_AC3
    Duration                                 : 1h 26mn
    Bit rate mode                            : Constant
    Bit rate                                 : 448 Kbps
    Channel(s)                               : 6 channels
    Channel positions                        : Front: L C R, Side: L R, LFE
    Sampling rate                            : 48.0 KHz
    Frame rate                               : 31.250 fps (1536 spf)
    Compression mode                         : Lossy
    Stream size                              : 279 MiB (2%)
    Title                                    : Storks.2016.1080p.3D.BluRay.Half-SBS.x264.DTS-HD.MA.7.1-FGT
    Language                                 : Spanish
    Default                                  : No
    Forced                                   : No

    Audio #7
    ID                                       : 8
    Format                                   : AC-3
    Format/Info                              : Audio Coding 3
    Mode extension                           : CM (complete main)
    Format settings, Endianness              : Big
    Codec ID                                 : A_AC3
    Duration                                 : 1h 26mn
    Bit rate mode                            : Constant
    Bit rate                                 : 448 Kbps
    Channel(s)                               : 6 channels
    Channel positions                        : Front: L C R, Side: L R, LFE
    Sampling rate                            : 48.0 KHz
    Frame rate                               : 31.250 fps (1536 spf)
    Compression mode                         : Lossy
    Stream size                              : 279 MiB (2%)
    Title                                    : Storks.2016.1080p.3D.BluRay.Half-SBS.x264.DTS-HD.MA.7.1-FGT
    Language                                 : Portuguese
    Default                                  : No
    Forced                                   : No

    Text #1
    ID                                       : 9
    Format                                   : PGS
    Muxing mode                              : zlib
    Codec ID                                 : S_HDMV/PGS
    Codec ID/Info                            : Picture based subtitle format used on BDs/HD-DVDs
    Title                                    : English-PGS
    Language                                 : English
    Default                                  : No
    Forced                                   : No

    Text #2
    ID                                       : 10
    Format                                   : PGS
    Muxing mode                              : zlib
    Codec ID                                 : S_HDMV/PGS
    Codec ID/Info                            : Picture based subtitle format used on BDs/HD-DVDs
    Title                                    : French-PGS
    Language                                 : French
    Default                                  : No
    Forced                                   : No

    Text #3
    ID                                       : 11
    Format                                   : PGS
    Muxing mode                              : zlib
    Codec ID                                 : S_HDMV/PGS
    Codec ID/Info                            : Picture based subtitle format used on BDs/HD-DVDs
    Title                                    : Spanish-PGS
    Language                                 : Spanish
    Default                                  : No
    Forced                                   : No

    Text #4
    ID                                       : 12
    Format                                   : PGS
    Muxing mode                              : zlib
    Codec ID                                 : S_HDMV/PGS
    Codec ID/Info                            : Picture based subtitle format used on BDs/HD-DVDs
    Title                                    : Portuguese-PGS
    Language                                 : Portuguese
    Default                                  : No
    Forced                                   : No

    Text #5
    ID                                       : 13
    Format                                   : PGS
    Muxing mode                              : zlib
    Codec ID                                 : S_HDMV/PGS
    Codec ID/Info                            : Picture based subtitle format used on BDs/HD-DVDs
    Title                                    : French-FORCED-PGS
    Language                                 : French
    Default                                  : No
    Forced                                   : No

    Text #6
    ID                                       : 14
    Format                                   : PGS
    Muxing mode                              : zlib
    Codec ID                                 : S_HDMV/PGS
    Codec ID/Info                            : Picture based subtitle format used on BDs/HD-DVDs
    Title                                    : Spanish-FORCED-PGS
    Language                                 : Spanish
    Default                                  : No
    Forced                                   : No

    Text #7
    ID                                       : 15
    Format                                   : PGS
    Muxing mode                              : zlib
    Codec ID                                 : S_HDMV/PGS
    Codec ID/Info                            : Picture based subtitle format used on BDs/HD-DVDs
    Title                                    : Portuguese-FORCED-PGS
    Language                                 : Portuguese
    Default                                  : No
    Forced                                   : No





    22000259465992336260_thumb.jpg

    35769379120965378149_thumb.jpg

    60558560234035406875_thumb.jpg

    92641953657471297863_thumb.jpg

    93850513559592619463_thumb.jpg

    98473579046748384540_thumb.jpg



    游客,如果您要查看本帖隐藏内容请回复





    Video
    ID                                       : 1
    Format                                   : AVC
    Format/Info                              : Advanced Video Codec
    Format profile                           : High@L4.1
    Format settings, CABAC                   : Yes
    Format settings, ReFrames                : 2 frames
    Format settings, GOP                     : M=3, N=24
    Codec ID                                 : V_MPEG4/ISO/AVC
    Duration                                 : 1h 26mn
    Nominal bit rate                         : 16.0 Mbps
    Width                                    : 1 920 pixels
    Height                                   : 1 080 pixels
    Display aspect ratio                     : 16:9
    Frame rate mode                          : Constant
    Frame rate                               : 23.976 (24000/1001) fps
    Color space                              : YUV
    Chroma subsampling                       : 4:2:0
    Bit depth                                : 8 bits
    Scan type                                : Progressive
    Bits/(Pixel*Frame)                       : 0.322
    Title                                    : Storks.2016.1080p.3D.BluRay.Half-OU.x264.DTS-HD.MA.7.1-FGT
    Writing library                          : x264 core 142
    Encoding settings                        : cabac=1 / ref=1 / deblock=1:-1:-1 / analyse=0x3:0 / me=hex / subme=5 / psy=0 / mixed_ref=0 / me_range=16 / chroma_me=1 / trellis=0 / 8x8dct=1 / cqm=0 / deadzone=21,11 / fast_pskip=0 / chroma_qp_offset=0 / threads=8 / lookahead_threads=2 / sliced_threads=0 / nr=0 / decimate=1 / interlaced=0 / bluray_compat=0 / constrained_intra=0 / bframes=2 / b_pyramid=0 / b_adapt=1 / b_bias=0 / direct=1 / weightb=0 / open_gop=0 / weightp=0 / keyint=24 / keyint_min=13 / scenecut=40 / intra_refresh=0 / rc=abr / mbtree=0 / bitrate=16000 / ratetol=1.0 / qcomp=0.60 / qpmin=0 / qpmax=69 / qpstep=4 / ip_ratio=1.40 / pb_ratio=1.30 / aq=1:1.00
    Default                                  : Yes
    Forced                                   : No
    Color range                              : Limited
    Color primaries                          : BT.709
    Transfer characteristics                 : BT.709
    Matrix coefficients                      : BT.709

    Audio #1
    ID                                       : 2
    Format                                   : DTS
    Format/Info                              : Digital Theater Systems
    Format profile                           : MA / Core
    Mode                                     : 16
    Format settings, Endianness              : Big
    Codec ID                                 : A_DTS
    Duration                                 : 1h 26mn
    Bit rate mode                            : Variable / Constant
    Bit rate                                 : Unknown / 1 509 Kbps
    Channel(s)                               : 8 channels / 6 channels
    Channel positions                        : Front: L C R, Side: L R, Back: L R, LFE / Front: L C R, Side: L R, LFE
    Sampling rate                            : 48.0 KHz
    Frame rate                               : 93.750 fps (512 spf)
    Bit depth                                : 16 bits
    Compression mode                         : Lossless / Lossy
    Title                                    : Storks.2016.1080p.3D.BluRay.Half-OU.x264.DTS-HD.MA.7.1-FGT
    Language                                 : English
    Default                                  : Yes
    Forced                                   : No

    Audio #2
    ID                                       : 3
    Format                                   : DTS
    Format/Info                              : Digital Theater Systems
    Mode                                     : 16
    Format settings, Endianness              : Big
    Codec ID                                 : A_DTS
    Duration                                 : 1h 26mn
    Bit rate mode                            : Constant
    Bit rate                                 : 1 509 Kbps
    Channel(s)                               : 6 channels
    Channel positions                        : Front: L C R, Side: L R, LFE
    Sampling rate                            : 48.0 KHz
    Frame rate                               : 93.750 fps (512 spf)
    Bit depth                                : 16 bits
    Compression mode                         : Lossy
    Stream size                              : 939 MiB (7%)
    Title                                    : Storks.2016.1080p.3D.BluRay.Half-OU.x264.DTS-HD.MA.7.1-FGT
    Language                                 : English
    Default                                  : No
    Forced                                   : No

    Audio #3
    ID                                       : 4
    Format                                   : AC-3
    Format/Info                              : Audio Coding 3
    Mode extension                           : CM (complete main)
    Format settings, Endianness              : Big
    Codec ID                                 : A_AC3
    Duration                                 : 1h 26mn
    Bit rate mode                            : Constant
    Bit rate                                 : 448 Kbps
    Channel(s)                               : 6 channels
    Channel positions                        : Front: L C R, Side: L R, LFE
    Sampling rate                            : 48.0 KHz
    Frame rate                               : 31.250 fps (1536 spf)
    Compression mode                         : Lossy
    Stream size                              : 279 MiB (2%)
    Title                                    : Storks.2016.1080p.3D.BluRay.Half-OU.x264.DTS-HD.MA.7.1-FGT
    Language                                 : English
    Default                                  : No
    Forced                                   : No

    Audio #4
    ID                                       : 5
    Format                                   : AC-3
    Format/Info                              : Audio Coding 3
    Mode extension                           : CM (complete main)
    Format settings, Endianness              : Big
    Codec ID                                 : A_AC3
    Duration                                 : 1h 26mn
    Bit rate mode                            : Constant
    Bit rate                                 : 448 Kbps
    Channel(s)                               : 6 channels
    Channel positions                        : Front: L C R, Side: L R, LFE
    Sampling rate                            : 48.0 KHz
    Frame rate                               : 31.250 fps (1536 spf)
    Compression mode                         : Lossy
    Stream size                              : 279 MiB (2%)
    Title                                    : Storks.2016.1080p.3D.BluRay.Half-OU.x264.DTS-HD.MA.7.1-FGT
    Language                                 : French
    Default                                  : No
    Forced                                   : No

    Audio #5
    ID                                       : 6
    Format                                   : AC-3
    Format/Info                              : Audio Coding 3
    Mode extension                           : CM (complete main)
    Format settings, Endianness              : Big
    Codec ID                                 : A_AC3
    Duration                                 : 1h 26mn
    Bit rate mode                            : Constant
    Bit rate                                 : 448 Kbps
    Channel(s)                               : 6 channels
    Channel positions                        : Front: L C R, Side: L R, LFE
    Sampling rate                            : 48.0 KHz
    Frame rate                               : 31.250 fps (1536 spf)
    Compression mode                         : Lossy
    Stream size                              : 279 MiB (2%)
    Title                                    : Storks.2016.1080p.3D.BluRay.Half-OU.x264.DTS-HD.MA.7.1-FGT
    Language                                 : Spanish
    Default                                  : No
    Forced                                   : No

    Audio #6
    ID                                       : 7
    Format                                   : AC-3
    Format/Info                              : Audio Coding 3
    Mode extension                           : CM (complete main)
    Format settings, Endianness              : Big
    Codec ID                                 : A_AC3
    Duration                                 : 1h 26mn
    Bit rate mode                            : Constant
    Bit rate                                 : 448 Kbps
    Channel(s)                               : 6 channels
    Channel positions                        : Front: L C R, Side: L R, LFE
    Sampling rate                            : 48.0 KHz
    Frame rate                               : 31.250 fps (1536 spf)
    Compression mode                         : Lossy
    Stream size                              : 279 MiB (2%)
    Title                                    : Storks.2016.1080p.3D.BluRay.Half-OU.x264.DTS-HD.MA.7.1-FGT
    Language                                 : Spanish
    Default                                  : No
    Forced                                   : No

    Audio #7
    ID                                       : 8
    Format                                   : AC-3
    Format/Info                              : Audio Coding 3
    Mode extension                           : CM (complete main)
    Format settings, Endianness              : Big
    Codec ID                                 : A_AC3
    Duration                                 : 1h 26mn
    Bit rate mode                            : Constant
    Bit rate                                 : 448 Kbps
    Channel(s)                               : 6 channels
    Channel positions                        : Front: L C R, Side: L R, LFE
    Sampling rate                            : 48.0 KHz
    Frame rate                               : 31.250 fps (1536 spf)
    Compression mode                         : Lossy
    Stream size                              : 279 MiB (2%)
    Title                                    : Storks.2016.1080p.3D.BluRay.Half-OU.x264.DTS-HD.MA.7.1-FGT
    Language                                 : Portuguese
    Default                                  : No
    Forced                                   : No

    Text #1
    ID                                       : 9
    Format                                   : PGS
    Muxing mode                              : zlib
    Codec ID                                 : S_HDMV/PGS
    Codec ID/Info                            : Picture based subtitle format used on BDs/HD-DVDs
    Title                                    : English-PGS
    Language                                 : English
    Default                                  : No
    Forced                                   : No

    Text #2
    ID                                       : 10
    Format                                   : PGS
    Muxing mode                              : zlib
    Codec ID                                 : S_HDMV/PGS
    Codec ID/Info                            : Picture based subtitle format used on BDs/HD-DVDs
    Title                                    : French-PGS
    Language                                 : French
    Default                                  : No
    Forced                                   : No

    Text #3
    ID                                       : 11
    Format                                   : PGS
    Muxing mode                              : zlib
    Codec ID                                 : S_HDMV/PGS
    Codec ID/Info                            : Picture based subtitle format used on BDs/HD-DVDs
    Title                                    : Spanish-PGS
    Language                                 : Spanish
    Default                                  : No
    Forced                                   : No

    Text #4
    ID                                       : 12
    Format                                   : PGS
    Muxing mode                              : zlib
    Codec ID                                 : S_HDMV/PGS
    Codec ID/Info                            : Picture based subtitle format used on BDs/HD-DVDs
    Title                                    : Portuguese-PGS
    Language                                 : Portuguese
    Default                                  : No
    Forced                                   : No

    Text #5
    ID                                       : 13
    Format                                   : PGS
    Muxing mode                              : zlib
    Codec ID                                 : S_HDMV/PGS
    Codec ID/Info                            : Picture based subtitle format used on BDs/HD-DVDs
    Title                                    : French-FORCED-PGS
    Language                                 : French
    Default                                  : No
    Forced                                   : No

    Text #6
    ID                                       : 14
    Format                                   : PGS
    Muxing mode                              : zlib
    Codec ID                                 : S_HDMV/PGS
    Codec ID/Info                            : Picture based subtitle format used on BDs/HD-DVDs
    Title                                    : Spanish-FORCED-PGS
    Language                                 : Spanish
    Default                                  : No
    Forced                                   : No

    Text #7
    ID                                       : 15
    Format                                   : PGS
    Muxing mode                              : zlib
    Codec ID                                 : S_HDMV/PGS
    Codec ID/Info                            : Picture based subtitle format used on BDs/HD-DVDs
    Title                                    : Portuguese-FORCED-PGS
    Language                                 : Portuguese
    Default                                  : No
    Forced                                   : No





    08113618437074215273_thumb.jpg

    27514524345479457879_thumb.jpg

    27877977593850058721_thumb.jpg

    59930899559216738832_thumb.jpg

    66668079668950976329_thumb.jpg

    87205498163991312425_thumb.jpg



    游客,如果您要查看本帖隐藏内容请回复




    Video
    ID                                       : 1
    Format                                   : AVC
    Format/Info                              : Advanced Video Codec
    Format profile                           : High@L4.1
    Format settings, CABAC                   : Yes
    Format settings, ReFrames                : 5 frames
    Codec ID                                 : V_MPEG4/ISO/AVC
    Duration                                 : 1h 26mn
    Bit rate                                 : 5 688 Kbps
    Width                                    : 1 920 pixels
    Height                                   : 808 pixels
    Display aspect ratio                     : 2.40:1
    Frame rate mode                          : Constant
    Frame rate                               : 23.976 fps
    Color space                              : YUV
    Chroma subsampling                       : 4:2:0
    Bit depth                                : 8 bits
    Scan type                                : Progressive
    Bits/(Pixel*Frame)                       : 0.153
    Stream size                              : 3.45 GiB (79%)
    Writing library                          : x264 core 148 r2705 3f5ed56
    Encoding settings                        : cabac=1 / ref=5 / deblock=1:0:0 / analyse=0x3:0x133 / me=umh / subme=7 / psy=1 / psy_rd=1.00:0.00 / mixed_ref=1 / me_range=16 / chroma_me=1 / trellis=1 / 8x8dct=1 / cqm=0 / deadzone=21,11 / fast_pskip=0 / chroma_qp_offset=-2 / threads=24 / lookahead_threads=4 / sliced_threads=0 / nr=0 / decimate=1 / interlaced=0 / bluray_compat=0 / constrained_intra=0 / bframes=3 / b_pyramid=2 / b_adapt=1 / b_bias=0 / direct=1 / weightb=1 / open_gop=0 / weightp=2 / keyint=250 / keyint_min=23 / scenecut=40 / intra_refresh=0 / rc_lookahead=40 / rc=2pass / mbtree=1 / bitrate=5688 / ratetol=1.0 / qcomp=0.60 / qpmin=0 / qpmax=69 / qpstep=4 / cplxblur=20.0 / qblur=0.5 / ip_ratio=1.40 / aq=1:1.00
    Language                                 : English
    Default                                  : Yes
    Forced                                   : No

    Audio
    ID                                       : 2
    Format                                   : DTS
    Format/Info                              : Digital Theater Systems
    Mode                                     : 16
    Format settings, Endianness              : Big
    Codec ID                                 : A_DTS
    Duration                                 : 1h 26mn
    Bit rate mode                            : Constant
    Bit rate                                 : 1 509 Kbps
    Channel(s)                               : 6 channels
    Channel positions                        : Front: L C R, Side: L R, LFE
    Sampling rate                            : 48.0 KHz
    Frame rate                               : 93.750 fps (512 spf)
    Bit depth                                : 24 bits
    Compression mode                         : Lossy
    Stream size                              : 939 MiB (21%)
    Language                                 : English
    Default                                  : Yes
    Forced                                   : No



    56306163676166323467_thumb.jpg

    游客,如果您要查看本帖隐藏内容请回复


  • TA的每日心情
    开心
    2017-2-20 15:10
  • 签到天数: 63 天

    [LV.6]常住居民II

    发表于 2016-12-12 16:05:20 | 显示全部楼层
    多谢楼主分享
    回复 支持 反对

    使用道具 举报

  • TA的每日心情
    开心
    2017-3-3 15:30
  • 签到天数: 118 天

    [LV.6]常住居民II

    发表于 2016-12-12 17:09:51 | 显示全部楼层
    xiexiexiexiexiexiexiexiexiexiexie
    回复 支持 反对

    使用道具 举报

  • TA的每日心情
    开心
    2017-3-15 19:58
  • 签到天数: 220 天

    [LV.7]常住居民III

    发表于 2016-12-12 17:28:09 | 显示全部楼层
    逗鸟外传:萌宝满天飞3D Storks.2016.3D][1080p][MKV
    回复 支持 反对

    使用道具 举报

  • TA的每日心情
    郁闷
    2017-3-8 18:31
  • 签到天数: 283 天

    [LV.8]以坛为家III

    发表于 2016-12-12 17:42:05 | 显示全部楼层
    送子鳥~超卡哇伊的!!!
    連小嬰兒都很可愛!!!
    感謝辛苦上傳分享種子
    回复 支持 反对

    使用道具 举报

  • TA的每日心情
    开心
    2017-1-26 13:50
  • 签到天数: 665 天

    [LV.9]以坛为家II

    发表于 2016-12-12 19:30:47 | 显示全部楼层
    下载来看看,谢谢了。。。。。
    回复 支持 反对

    使用道具 举报

  • TA的每日心情
    开心
    2017-3-7 20:36
  • 签到天数: 230 天

    [LV.7]常住居民III

    发表于 2016-12-12 19:40:50 | 显示全部楼层
    dfdfdfghfdhgf gf gfhj 关系固定
    回复 支持 反对

    使用道具 举报

  • TA的每日心情
    擦汗
    昨天 22:33
  • 签到天数: 393 天

    [LV.9]以坛为家II

    发表于 2016-12-12 20:32:10 | 显示全部楼层
    感谢楼主分享,好萌的宝宝啊~
    回复 支持 反对

    使用道具 举报

  • TA的每日心情

    18 小时前
  • 签到天数: 92 天

    [LV.6]常住居民II

    发表于 2016-12-12 20:32:29 | 显示全部楼层
    下载来看看,谢谢了。。。。。
    回复 支持 反对

    使用道具 举报

  • TA的每日心情
    奋斗
    2016-12-29 21:52
  • 签到天数: 23 天

    [LV.4]偶尔看看III

    发表于 2016-12-12 21:02:12 | 显示全部楼层
    下载来看看,谢谢了。。。。。
    回复 支持 反对

    使用道具 举报

    高级模式
    B Color Image Link Quote Code Smilies

    本版积分规则

    免责申明|小黑屋|手机版|Archiver|网站地图| 3D一族论坛  

    Copyright © 2001-2015 Comsenz Inc.   All Rights Reserved.

    Powered by Discuz! X3.2( 沪ICP备14045620号-1 )

    快速回复 返回顶部 返回列表