请选择 进入手机版 | 继续访问电脑版
 找回密码

3D一族论坛

< >
查看: 1020|回复: 52

[左右半宽] [逗鸟外传:萌宝满天飞 3D 2016][合成3D字幕][Storks 2016][1080P/H264][英/AC-3/DTS][MKV/11.7G/百Du]

[复制链接]
  • TA的每日心情
    擦汗
    2016-12-9 09:49
  • 签到天数: 318 天

    [LV.8]以坛为家III

     成长值: 6320
    发表于 2016-12-19 08:12:41 | 显示全部楼层 |阅读模式
    播播
    本帖最后由 lsjsyp 于 2016-12-19 08:18 编辑

    p2378515019.jpg


    导演: 尼古拉斯·斯托勒 / 道格·斯威特兰德
    编剧: 尼古拉斯·斯托勒
    主演: 安迪·萨姆伯格 / 凯蒂·克朗 / 凯尔希·格兰莫 / 詹妮弗·安妮斯顿 / 泰·布利尔
    类型: 喜剧 / 动画
    制片: 国家/地区: 美国
    语言: 英语

    字幕: 合成3D字幕(中字)
    上映日期: 2016-09-23(中国大陆/美国)
    片长: 89分钟 / 87分钟(中国大陆)
    又名: 送子鸟(台) / BB宅急便(港) / 送子鹤 / 鹳
    IMDb链接: tt4624424


    逗鸟外传:萌宝满天飞的剧情简介  ·  ·  ·  ·  ·  ·
      鹳鸟送子,天经地义……至少以前是这样。现在,他们负责给角落商店送货。朱尼尔(安迪·萨姆伯格 Andy Samberg 配音),是公司里的最佳快递员,即将升职的他在某天值勤时,遇到了宝宝制造厂被意外启动的事件。结果, 一个人见人爱,完全未经授权的宝宝就这样出现了。
      为了不让老板发现这次意外事故,朱尼尔和他的朋友、鹳鸟山上唯一的人类小郁(凯蒂·克朗 Katie Crown 配音),迫不及待地想把宝宝送走,于是匆匆踏上了他们首次快递宝宝的疯狂惊险之旅。不止一个家庭因此享受到天伦之乐,更重要的是,这次任务的胜利完成将让全球的鹳鸟卷土重来,再续送子的光荣使命。


    编码信息:
    General
    Unique ID                      : 216173368683871787447762970734902589897 (0xA2A179F4DFC88E1C8966F3CFB85F39C9)
    Complete name                  : G:\[LYP]Storks.2016.1080p.BluRay.x264.DTS-HD.MA.7.1-FGT.mkv
    Format                         : Matroska
    Format version                 : Version 4 / Version 2
    File size                      : 11.7 GiB
    Duration                       : 1h 26mn
    Overall bit rate               : 19.3 Mbps
    Encoded date                   : UTC 2016-12-17 09:07:33
    Writing application            : mkvmerge v7.5.0 ('Glass Culture') 32bit built on Jan  4 2015 16:37:25
    Writing library                : libebml v1.3.1 + libmatroska v1.4.2 / ShanaEncoder

    Video
    ID                             : 1
    Format                         : AVC
    Format/Info                    : Advanced Video Codec
    Format profile                 : Baseline@L4
    Format settings, CABAC         : No
    Format settings, ReFrames      : 1 frame
    Codec ID                       : V_MPEG4/ISO/AVC
    Duration                       : 1h 26mn
    Bit rate                       : 15.9 Mbps
    Width                          : 1 920 pixels
    Height                         : 804 pixels
    Display aspect ratio           : 2.40:1
    Frame rate mode                : Constant
    Frame rate                     : 23.976 (24000/1001) fps
    Color space                    : YUV
    Chroma subsampling             : 4:2:0
    Bit depth                      : 8 bits
    Scan type                      : Progressive
    Bits/(Pixel*Frame)             : 0.431
    Stream size                    : 9.68 GiB (83%)
    Writing library                : x264 core 148 r2705 3f5ed56
    Encoding settings              : opencl=1 / cabac=0 / ref=1 / deblock=1:0:0 / analyse=0x1:0x111 / me=hex / subme=2 / psy=1 / psy_rd=1.00:0.00 / mixed_ref=0 / me_range=16 / chroma_me=1 / trellis=0 / 8x8dct=0 / cqm=0 / deadzone=21,11 / fast_pskip=1 / chroma_qp_offset=0 / threads=6 / lookahead_threads=2 / sliced_threads=0 / nr=0 / decimate=1 / interlaced=0 / bluray_compat=0 / constrained_intra=0 / bframes=0 / weightp=0 / keyint=250 / keyint_min=23 / scenecut=40 / intra_refresh=0 / rc_lookahead=10 / rc=crf / mbtree=1 / crf=15.0 / qcomp=0.60 / qpmin=0 / qpmax=69 / qpstep=4 / ip_ratio=1.40 / aq=1:1.00
    Default                        : Yes
    Forced                         : No

    Audio #1
    ID                             : 2
    Format                         : DTS
    Format/Info                    : Digital Theater Systems
    Format profile                 : MA / Core
    Mode                           : 16
    Format settings, Endianness    : Big
    Codec ID                       : A_DTS
    Duration                       : 1h 26mn
    Bit rate mode                  : Variable / Constant
    Bit rate                       : 2 896 Kbps / 1 509 Kbps
    Channel(s)                     : 8 channels / 6 channels
    Channel positions              : Front: L C R, Side: L R, Back: L R, LFE / Front: L C R, Side: L R, LFE
    Sampling rate                  : 48.0 KHz
    Frame rate                     : 93.750 fps (512 spf)
    Bit depth                      : 16 bits
    Compression mode               : Lossless / Lossy
    Stream size                    : 1.76 GiB (15%)
    Language                       : English
    Default                        : Yes
    Forced                         : No

    Audio #2
    ID                             : 3
    Format                         : AC-3
    Format/Info                    : Audio Coding 3
    Mode extension                 : CM (complete main)
    Format settings, Endianness    : Big
    Codec ID                       : A_AC3
    Duration                       : 1h 26mn
    Bit rate mode                  : Constant
    Bit rate                       : 448 Kbps
    Channel(s)                     : 6 channels
    Channel positions              : Front: L C R, Side: L R, LFE
    Sampling rate                  : 48.0 KHz
    Frame rate                     : 31.250 fps (1536 spf)
    Compression mode               : Lossy
    Stream size                    : 279 MiB (2%)
    Language                       : English
    Default                        : No
    Forced                         : No


    1.png

    2.png

    3.png
    开启3D模式
    4.png

    5.png

    6.png


    说明:
    1.没国配音轨(至少我做的时候没有),故而没有合成。
    2.字幕来源字幕库。

    3.马上能买回家的车票了 “深海的明珠”以上可以下载。
    4.QQ交流群:490621552

    游客,如果您要查看本帖隐藏内容请回复




    dudu





    合成3D字幕-下载提示


    下载提示:(合3D字幕为本站独有特色版块---回复帖子可见下载地址)


    1. 本版块资源只提供 " 敬畏的寂静 " 及以上用户组的会员下载,其它用户组会员无法下载资源,请努力升级!查看自己所在用户组


    2. 升级太难, 开通   " VIP用户组 "(免权限、免积分、免回复)下载本版块及论坛所有资源,再也不用发愁了!VIP



  • TA的每日心情

    昨天 22:08
  • 签到天数: 566 天

    [LV.9]以坛为家II

    发表于 2016-12-19 08:51:06 | 显示全部楼层
    效果好吗

    点评

    剧情不错,效果也很好  发表于 2016-12-19 09:16
    回复 支持 反对

    使用道具 举报

  • TA的每日心情
    开心
    18 分钟前
  • 签到天数: 260 天

    [LV.8]以坛为家III

    发表于 2016-12-19 10:55:22 | 显示全部楼层
    谢谢楼主分享
    回复 支持 反对

    使用道具 举报

  • TA的每日心情
    无聊
    3 天前
  • 签到天数: 670 天

    [LV.9]以坛为家II

    发表于 2016-12-19 14:16:34 | 显示全部楼层
    謝謝樓主的分享。
    回复 支持 反对

    使用道具 举报

  • TA的每日心情
    奋斗
    昨天 17:33
  • 签到天数: 202 天

    [LV.7]常住居民III

    发表于 2016-12-19 15:24:02 | 显示全部楼层
    哈哈我也可以下载,谢谢
    回复 支持 反对

    使用道具 举报

  • TA的每日心情
    郁闷
    2016-12-19 18:20
  • 签到天数: 1 天

    [LV.1]初来乍到

    发表于 2016-12-19 18:24:47 | 显示全部楼层
    很喜欢很喜欢啊
    回复 支持 反对

    使用道具 举报

  • TA的每日心情
    开心
    前天 09:24
  • 签到天数: 580 天

    [LV.9]以坛为家II

    发表于 2016-12-19 19:06:07 | 显示全部楼层
    下载看看 谢谢了
    回复 支持 反对

    使用道具 举报

  • TA的每日心情
    开心
    昨天 10:19
  • 签到天数: 551 天

    [LV.9]以坛为家II

    发表于 2016-12-19 19:59:37 | 显示全部楼层
    很不错的动画佳片
    回复 支持 反对

    使用道具 举报

  • TA的每日心情
    开心
    2016-12-20 20:22
  • 签到天数: 121 天

    [LV.7]常住居民III

    发表于 2016-12-19 20:13:37 | 显示全部楼层
    看看如何
    回复 支持 反对

    使用道具 举报

  • TA的每日心情
    开心
    昨天 21:33
  • 签到天数: 1147 天

    [LV.10]以坛为家III

    发表于 2016-12-19 21:57:33 | 显示全部楼层
    十分可爱Q萌的3D画面
    回复 支持 反对

    使用道具 举报

    您需要登录后才可以回帖 登录 | 立即注册

    本版积分规则


    为兴趣而生,为电影疯狂。 立即登录 立即注册

    广告联系|免责申明|小黑屋|手机版|Archiver|网站地图| 3D一族论坛   

    Copyright © 2001-2015 Comsenz Inc.   All Rights Reserved.

    Powered by Discuz! X3.2( 沪ICP备14045620号-1 )

    快速回复 返回顶部 返回列表