请选择 进入手机版 | 继续访问电脑版
 找回密码

3D一族论坛

查看: 3881|回复: 240

[上下] [冰雪大作战3D La.guerre.des.tuques.3D.2016][1080p 上下半高][MKV 7.82G][BT]

  [复制链接]
  • TA的每日心情
    开心
    2017-5-18 15:17
  • 签到天数: 1636 天

    [LV.Master]伴坛终老

    发表于 2017-1-18 10:54:51 | 显示全部楼层 |阅读模式
    影片截图:

    data/attachment/forum/201701/18/103852mq072sp4x0qpb4un.jpg

         
      片        名: La guerre des tuques 3D / Snowtime!
      译        名: 冰雪大作战3D / 玩雪时间到
      类        别: 喜剧 动漫 
      国        家: 欧美
      语        言: 英语
      字        幕: N/A
      集        数:
      文件格式: MKV
      视频尺寸: 1920*1080
      文件大小: 7.82GB
      上映时间: 2017-02-03(中国大陆) / 2015-11-13(加拿大)
      影片导演: Jean-François Pouliot / François Brisson
      主要演员: Angela Galuppo
        Mariloup Wolfe
        Lucinda Davis
      推荐等级: ★★★★★
         
    下载地址:
    [下载方式]: bt下载
    [分辨率]: 1080p
    [迅雷地址]:
    [网盘下载]:
    影片简介: fangfang
    本片故事取材于1984年加拿大家喻户晓的经典动画《La Guerre des Tuques(阻止战争的狗)》,本片在30年前上映时曾轰动一时,在全球超过125个国家上映,获得18种全球奖项。
    《冰雪大作战》3D动画电影,是首部引入中国的加拿大动画片,同时也是2015年加拿大本土制作的电影票房冠军。本片也是席琳迪翁(Celine Dion)继《My heart will go on(我心永恒)》后,首次为电影开嗓,演唱了主题曲。
      电影讲述一群生活在加拿大小镇的孩子,在寒假来临时,为了打发无聊的时间,小男孩卢克和刚到搬到镇子上的小女孩索菲亚成为对立两派的首领,约定了一场超大规模的雪仗。雪仗的规模在两方孩子们的挑衅、误会等碰撞中不断升级,进而演变成雪堡保卫战,最后导致了意想不到的事情发生。镇上的大狗克莉奥意外死于这场雪仗之中,由于这个变故停止了孩子们的战争。最终孩子们认识到了自己的错误,找到了游戏的真谛,友情和快乐才是游戏的目的,所有的孩子都在这个过程中醒悟并得到成长。
    本帖最后由 xdwl 于 2017-1-18 11:02 编辑

    p2400984573.jpg

    ◎译  名 冰雪大作战3D/玩雪时间到
    ◎片  名  La guerre des tuques 3D / Snowtime!
    ◎年  代 2015
    ◎国  家 加拿大
    ◎类  别 喜剧/动画/家庭
    ◎语  言 英语/法语
    ◎上映日期 2016-02-26
    ◎IMDb评分  6.3/10 from 196 users
    ◎片  长 80分钟
    ◎导  演 Jean-François Pouliot / François Brisson
    ◎主  演 Angela Galuppo
          Mariloup Wolfe
          Lucinda Davis
          Nicholas Savard-L'Herbier
          Sophie Cadieux
          Anne Casabonne
          Hélène Bourgeois Leclerc
          罗斯·林奇 Ross Lynch
          Catherine Trudeau
          Gildor Roy
          André Sauvé
          Sebastién Reding
          Heidi Lynne Weeks
          Hugolin Chevrette-Landesque
          Liz MacRae
    ◎简  介
      电影讲述一群生活在加拿大小镇的孩子,在寒假来临时,为了打发无聊的时间,小男孩卢克和刚到搬到镇子上的小女孩索菲亚成为对立两派的首领,约定了一场超大规模的雪仗。雪仗的规模在两方孩子们的挑衅、误会等碰撞中不断升级,进而演变成雪堡保卫战,最后导致了意想不到的事情发生。镇上的大狗克莉奥意外死于这场雪仗之中,由于这个变故停止了孩子们的战争。最终孩子们认识到了自己的错误,找到了游戏的真谛,友情和快乐才是游戏的目的,所有的孩子都在这个过程中醒悟并得到成长。
    La.guerre.des.tuques.3D.2016.1080p.Zoom.HOU.mkv
          Format : Matroska
          Format version : Version 4 / Version 2
          File size : 7.82 GiB
          Duration : 1h 22mn
          Overall bit rate : 13.6 Mbps
          Movie name : La.guerre.des.tuques.3D.2016.Zoom.HOU
          Encoded date : UTC 2017-01-08 05:32:14
          Writing application : mkvmerge v7.1.0 ('Good Love') 64bit built on Jul 27 2014 13:06:55
          Writing library : libebml v1.3.0 + libmatroska v1.4.1
          DURATION : 01:22:20.288000000
          NUMBER_OF_FRAMES : 154384
          NUMBER_OF_BYTES : 395223040
          _STATISTICS_WRITING_APP : mkvmerge v7.1.0 ('Good Love') 64bit built on Jul 27 2014 13:06:55
          _STATISTICS_WRITING_DATE_UTC : 2017-01-08 05:32:14
          _STATISTICS_TAGS : BPS DURATION NUMBER_OF_FRAMES NUMBER_OF_BYTES
       Video #1
          ID : 1
          Format : AVC
          Format/Info : Advanced Video Codec
          Format profile : High@L4.1
          Format settings, CABAC : Yes
          Format settings, ReFrames : 4 frames
          Codec ID : V_MPEG4/ISO/AVC
          Duration : 1h 22mn
          Bit rate : 11.9 Mbps
          Width : 1 920 pixels
          Height : 1 080 pixels
          Display aspect ratio : 16:9
          Frame rate mode : Constant
          Frame rate : 23.976 fps
          Color space : YUV
          Chroma subsampling : 4:2:0
          Bit depth : 8 bits
          Scan type : Progressive
          Bits/(Pixel*Frame) : 0.240
          Stream size : 6.86 GiB (88%)
          Writing library : x264 core 128 r2216M 198a7ea
          Encoding settings : cabac=1 / ref=4 / deblock=1:-3:-3 / analyse=0x3:0x133 / me=umh / subme=10 / psy=1 / psy_rd=1.00:0.15 / mixed_ref=1 / me_range=64 / chroma_me=1 / trellis=2 / 8x8dct=1 / cqm=0 / deadzone=21,11 / fast_pskip=1 / chroma_qp_offset=-3 / threads=8 / lookahead_threads=1 / sliced_threads=0 / nr=0 / decimate=1 / interlaced=0 / bluray_compat=0 / constrained_intra=0 / bframes=12 / b_pyramid=2 / b_adapt=2 / b_bias=0 / direct=3 / weightb=1 / open_gop=0 / weightp=2 / keyint=230 / keyint_min=23 / scenecut=40 / intra_refresh=0 / rc_lookahead=40 / rc=crf / mbtree=1 / crf=14.0 / qcomp=0.60 / qpmin=10 / qpmax=69 / qpstep=4 / vbv_maxrate=40000 / vbv_bufsize=30000 / crf_max=30.0 / nal_hrd=none / ip_ratio=1.40 / aq=1:0.90
          Language : English
          Default : Yes
          Forced : No
          DURATION : 01:22:20.102000000
          NUMBER_OF_FRAMES : 118444
          NUMBER_OF_BYTES : 7526479756
          _STATISTICS_WRITING_APP : mkvmerge v7.1.0 ('Good Love') 64bit built on Jul 27 2014 13:06:55
          _STATISTICS_WRITING_DATE_UTC : 2017-01-08 05:32:14
          _STATISTICS_TAGS : BPS DURATION NUMBER_OF_FRAMES NUMBER_OF_BYTES
       Audio #2
          ID : 2
          Format : AC-3
          Format/Info : Audio Coding 3
          Mode extension : CM (complete main)
          Format settings, Endianness : Big
          Codec ID : A_AC3
          Duration : 1h 22mn
          Bit rate mode : Constant
          Bit rate : 384 Kbps
          Channel(s) : 6 channels
          Channel positions : Front: L C R, Side: L R, LFE
          Sampling rate : 48.0 KHz
          Bit depth : 16 bits
          Compression mode : Lossy
          Stream size : 226 MiB (3%)
          Title : Дубляж - iTunes
          Language : Russian
          Default : Yes
          Forced : No
       Audio #3
          ID : 3
          Format : AC-3
          Format/Info : Audio Coding 3
          Mode extension : CM (complete main)
          Format settings, Endianness : Big
          Codec ID : A_AC3
          Duration : 1h 22mn
          Bit rate mode : Constant
          Bit rate : 384 Kbps
          Channel(s) : 6 channels
          Channel positions : Front: L C R, Side: L R, LFE
          Sampling rate : 48.0 KHz
          Bit depth : 16 bits
          Compression mode : Lossy
          Stream size : 226 MiB (3%)
          Title : Дубляж - IPTV
          Language : Ukrainian
          Default : No
          Forced : No
       Audio #4
          ID : 4
          Format : AC-3
          Format/Info : Audio Coding 3
          Mode extension : CM (complete main)
          Format settings, Endianness : Big
          Codec ID : A_AC3
          Duration : 1h 22mn
          Bit rate mode : Constant
          Bit rate : 640 Kbps
          Channel(s) : 6 channels
          Channel positions : Front: L C R, Side: L R, LFE
          Sampling rate : 48.0 KHz
          Bit depth : 16 bits
          Compression mode : Lossy
          Stream size : 377 MiB (5%)
          Title : Original
          Language : English
          Default : No
          Forced : No


    La.guerre.des.tuques.3D.2016.1080p.Zoom.HOU_20170118101959.JPG

    La.guerre.des.tuques.3D.2016.1080p.Zoom.HOU_20170118102005.JPG

    La.guerre.des.tuques.3D.2016.1080p.Zoom.HOU_20170118102041.JPG

    La.guerre.des.tuques.3D.2016.1080p.Zoom.HOU_20170118102047.JPG

    La.guerre.des.tuques.3D.2016.1080p.Zoom.HOU_20170118102051.JPG

    La.guerre.des.tuques.3D.2016.1080p.Zoom.HOU_20170118102119.JPG


    PS:祝各位新老会员春节愉快! 身体健康! 万事如意!鸡年大吉!
    【本资源独家首发!节日免费下载!!!】
    游客,如果您要查看本帖隐藏内容请回复





  • TA的每日心情
    开心
    2017-4-27 19:15
  • 签到天数: 279 天

    [LV.8]以坛为家III

    发表于 2017-1-18 11:33:42 | 显示全部楼层
    有没有中文字幕啊
    回复 支持 反对

    使用道具 举报

    匿名  发表于 2017-1-18 12:54:01
    thanks so much
  • TA的每日心情
    奋斗
    2017-3-16 00:25
  • 签到天数: 563 天

    [LV.9]以坛为家II

    发表于 2017-1-18 15:03:38 | 显示全部楼层
    比较少见加拿大的片
    回复 支持 反对

    使用道具 举报

  • TA的每日心情
    开心
    2017-3-4 08:28
  • 签到天数: 208 天

    [LV.7]常住居民III

    发表于 2017-1-18 15:46:25 | 显示全部楼层
    谢谢分享!!!1
    回复 支持 反对

    使用道具 举报

    匿名  发表于 2017-1-18 15:52:24
    谢谢分享
  • TA的每日心情
    开心
    前天 11:16
  • 签到天数: 953 天

    [LV.10]以坛为家III

    发表于 2017-1-18 16:37:58 | 显示全部楼层
    谢谢分享,谢谢分享。
    回复 支持 反对

    使用道具 举报

  • TA的每日心情
    开心
    3 天前
  • 签到天数: 980 天

    [LV.10]以坛为家III

    发表于 2017-1-18 17:04:51 | 显示全部楼层
    3D动画.鸡年贺岁.谢谢分享.
    回复 支持 反对

    使用道具 举报

  • TA的每日心情
    奋斗
    6 天前
  • 签到天数: 347 天

    [LV.8]以坛为家III

    发表于 2017-1-18 17:37:52 | 显示全部楼层
    祝各位春节愉快! 身体健康! 万事如意!鸡年大吉!
    回复 支持 反对

    使用道具 举报

    匿名  发表于 2017-1-18 18:23:21
    多謝分享
    高级模式
    B Color Image Link Quote Code Smilies

    本版积分规则

    免责申明|小黑屋|手机版|Archiver|网站地图| 3D一族论坛  

    Copyright © 2001-2015 Comsenz Inc.   All Rights Reserved.

    Powered by Discuz! X3.2( 沪ICP备14045620号-1 )

    快速回复 返回顶部 返回列表