请选择 进入手机版 | 继续访问电脑版
 找回密码

3D一族论坛

查看: 5359|回复: 382

[左右] [比利·林恩的中场战事3D Billy.Lynns.Long.Halftime.Walk.2016.3D][1080p][MKV 19.89G/20.27G/8.89G][BT][英语中字]

  [复制链接]
  • TA的每日心情
    开心
    2017-10-30 14:49
  • 签到天数: 1666 天

    [LV.Master]伴坛终老

    发表于 2017-2-4 11:59:23 | 显示全部楼层 |阅读模式
    影片截图:

    data/attachment/forum/201702/04/112729v25x400k21kk8xx1.jpg

         
      片        名: Billy.Lynns.Long.Halftime.Walk.2016.3D
      译        名: 比利·林恩的中场战事3D/半场无战事/比利·林恩漫长的中场休息/比利·林漫长的中场行走/中场休息
      类        别: 剧情 战争 
      国        家: 欧美
      语        言: 英语
      字        幕: 中文字幕
      集        数:
      文件格式: MKV
      视频尺寸: 1920*1080
      文件大小: 19.89GB/20.27GB/8.89GB
      上映时间: 2016-10-15(纽约电影节)/2016-11-11(美国/中国大陆)
      影片导演: 李安 Ang Lee
      主要演员: 乔·阿尔文 Joe Alwyn
        加内特·赫德兰 Garrett Hedlund
        克里斯汀·斯图尔特 Kristen Stewart
      推荐等级: ★★★★★
         
    下载地址:
    [下载方式]: bt下载
    [分辨率]: 1080p
    [迅雷地址]:
    [网盘下载]:
    影片简介: fangfang
    伊拉克战争时期,来自美国德州的19岁技术兵比利·林恩(乔·阿尔文 Joe Alwyn 饰)因为一段偶然拍摄的视频而家喻户晓。那是一次规模不大却激烈非常的遭遇战,战斗中林恩所在的B班班长(范·迪塞尔 Vin Diesel 饰)遭到当地武装分子的伏击和劫持,而林恩为了营救班长不惜铤而走险冲锋陷阵。视频公布于世让他成为全美民众所崇拜的英雄,然而却鲜有人理解他和战友们所经历的一切。为了安葬班长,B班得到了短暂的休假,因此他们得以受邀参加一场在德州举行的橄榄球比赛。林恩的姐姐因某事件深感愧疚,她希望弟弟能借此机缘回归普通生活。而周围的经纪人、球迷、大老板、普通民众则对战争、卫国、士兵有着各种各样想当然的理解。球场上的庆典盛大开幕,林恩和战友们的心却愈加沉重与焦躁……
      本片根据作家本·方丹(Ben Fountain)的同名小说改编。
    166477_front.jpg
    ◎译  名 比利·林恩的中场战事/半场无战事/比利·林恩漫长的中场休息/比利·林漫长的中场行走/中场休息
    ◎片  名 Billy Lynn's Long Halftime Walk
    ◎年  代 2016
    ◎国  家 美国/英国/中国大陆
    ◎类  别 剧情/战争
    ◎语  言 英语
    ◎字      幕     中文字幕
    ◎上映日期 2016-10-15(纽约电影节)/2016-11-11(美国/中国大陆)
    ◎IMDb评分  7.1/10 from 5,342 users
    ◎IMDb链接   http://www.imdb.com/title/tt2513074/
    ◎豆瓣评分 8.6/10 from 119,703 users
    ◎豆瓣链接 https://movie.douban.com/subject/25983044/
    ◎片  长 110分钟(中国大陆)/113分钟
    ◎导  演 李安 Ang Lee
    ◎主  演 乔·阿尔文 Joe Alwyn
          加内特·赫德兰 Garrett Hedlund
          克里斯汀·斯图尔特 Kristen Stewart
          范·迪塞尔 Vin Diesel
          李淳 Mason Lee
          麦肯兹·利 Makenzie Leigh
          史蒂夫·马丁 Steve Martin
          克里斯·塔克 Chris Tucker
          本·普拉特 Ben Platt
          阿图罗·卡斯特罗 Arturo Castro
          亚斯特罗 Astro
          博·纳普 Beau Knapp
          伊斯梅尔·克鲁兹 Ismael Cruz
          巴尼·哈里斯 Barney Harris
          布鲁斯·麦金农 Bruce McKinnon
    ◎简  介

      伊拉克战争时期,来自美国德州的19岁技术兵比利·林恩(乔·阿尔文 Joe Alwyn 饰)因为一段偶然拍摄的视频而家喻户晓。那是一次规模不大却激烈非常的遭遇战,战斗中林恩所在的B班班长(范·迪塞尔 Vin Diesel 饰)遭到当地武装分子的伏击和劫持,而林恩为了营救班长不惜铤而走险冲锋陷阵。视频公布于世让他成为全美民众所崇拜的英雄,然而却鲜有人理解他和战友们所经历的一切。为了安葬班长,B班得到了短暂的休假,因此他们得以受邀参加一场在德州举行的橄榄球比赛。林恩的姐姐因某事件深感愧疚,她希望弟弟能借此机缘回归普通生活。而周围的经纪人、球迷、大老板、普通民众则对战争、卫国、士兵有着各种各样想当然的理解。球场上的庆典盛大开幕,林恩和战友们的心却愈加沉重与焦躁……
      本片根据作家本·方丹(Ben Fountain)的同名小说改编。

    ◎获奖情况

      第20届好莱坞电影奖  (2016)
      年度配乐 麦切尔·丹
    Video
    ID                                       : 1
    Format                                   : AVC
    Format/Info                              : Advanced Video Codec
    Format profile                           : High@L4.1
    Format settings, CABAC                   : Yes
    Format settings, ReFrames                : 2 frames
    Codec ID                                 : V_MPEG4/ISO/AVC
    Duration                                 : 1h 52mn
    Nominal bit rate                         : 15.5 Mbps
    Width                                    : 1 920 pixels
    Height                                   : 1 080 pixels
    Display aspect ratio                     : 16:9
    Frame rate mode                          : Constant
    Frame rate                               : 23.976 (24000/1001) fps
    Color space                              : YUV
    Chroma subsampling                       : 4:2:0
    Bit depth                                : 8 bits
    Scan type                                : Progressive
    Bits/(Pixel*Frame)                       : 0.312
    Title                                    : Billy.Lynns.Long.Halftime.Walk.2016.1080p.3D.BluRay.Half-SBS.x264.DTS-HD.MA.5.1-FGT
    Writing library                          : x264 core 142
    Encoding settings                        : cabac=1 / ref=1 / deblock=1:-1:-1 / analyse=0x3:0 / me=hex / subme=5 / psy=0 / mixed_ref=0 / me_range=16 / chroma_me=1 / trellis=0 / 8x8dct=1 / cqm=0 / deadzone=21,11 / fast_pskip=0 / chroma_qp_offset=0 / threads=8 / lookahead_threads=2 / sliced_threads=0 / nr=0 / decimate=1 / interlaced=0 / bluray_compat=0 / constrained_intra=0 / bframes=2 / b_pyramid=0 / b_adapt=1 / b_bias=0 / direct=1 / weightb=0 / open_gop=0 / weightp=0 / keyint=24 / keyint_min=13 / scenecut=40 / intra_refresh=0 / rc=abr / mbtree=0 / bitrate=15500 / ratetol=1.0 / qcomp=0.60 / qpmin=0 / qpmax=69 / qpstep=4 / ip_ratio=1.40 / pb_ratio=1.30 / aq=1:1.00
    Default                                  : Yes
    Forced                                   : No
    Color range                              : Limited
    Color primaries                          : BT.709
    Transfer characteristics                 : BT.709
    Matrix coefficients                      : BT.709

    Audio #1
    ID                                       : 2
    Format                                   : DTS
    Format/Info                              : Digital Theater Systems
    Format profile                           : MA / Core
    Mode                                     : 16
    Format settings, Endianness              : Big
    Codec ID                                 : A_DTS
    Duration                                 : 1h 52mn
    Bit rate mode                            : Variable / Constant
    Bit rate                                 : Unknown / 1 509 Kbps
    Channel(s)                               : 6 channels
    Channel positions                        : Front: L C R, Side: L R, LFE
    Sampling rate                            : 48.0 KHz
    Frame rate                               : 93.750 fps (512 spf)
    Bit depth                                : 16 bits
    Compression mode                         : Lossless / Lossy
    Title                                    : Billy.Lynns.Long.Halftime.Walk.2016.1080p.3D.BluRay.Half-SBS.x264.DTS-HD.MA.5.1-FGT
    Language                                 : English
    Default                                  : Yes
    Forced                                   : No

    Audio #2
    ID                                       : 3
    Format                                   : AC-3
    Format/Info                              : Audio Coding 3
    Mode extension                           : CM (complete main)
    Format settings, Endianness              : Big
    Codec ID                                 : A_AC3
    Duration                                 : 1h 52mn
    Bit rate mode                            : Constant
    Bit rate                                 : 640 Kbps
    Channel(s)                               : 6 channels
    Channel positions                        : Front: L C R, Side: L R, LFE
    Sampling rate                            : 48.0 KHz
    Frame rate                               : 31.250 fps (1536 spf)
    Compression mode                         : Lossy
    Stream size                              : 516 MiB (3%)
    Title                                    : Billy.Lynns.Long.Halftime.Walk.2016.1080p.3D.BluRay.Half-SBS.x264.DTS-HD.MA.5.1-FGT
    Language                                 : English
    Default                                  : No
    Forced                                   : No

    Audio #3
    ID                                       : 4
    Format                                   : AC-3
    Format/Info                              : Audio Coding 3
    Mode extension                           : CM (complete main)
    Format settings, Endianness              : Big
    Codec ID                                 : A_AC3
    Duration                                 : 1h 52mn
    Bit rate mode                            : Constant
    Bit rate                                 : 640 Kbps
    Channel(s)                               : 6 channels
    Channel positions                        : Front: L C R, Side: L R, LFE
    Sampling rate                            : 48.0 KHz
    Frame rate                               : 31.250 fps (1536 spf)
    Compression mode                         : Lossy
    Stream size                              : 516 MiB (3%)
    Title                                    : Billy.Lynns.Long.Halftime.Walk.2016.1080p.3D.BluRay.Half-SBS.x264.DTS-HD.MA.5.1-FGT
    Language                                 : French
    Default                                  : No
    Forced                                   : No

    Audio #4
    ID                                       : 5
    Format                                   : AC-3
    Format/Info                              : Audio Coding 3
    Mode extension                           : CM (complete main)
    Format settings, Endianness              : Big
    Codec ID                                 : A_AC3
    Duration                                 : 1h 52mn
    Bit rate mode                            : Constant
    Bit rate                                 : 448 Kbps
    Channel(s)                               : 6 channels
    Channel positions                        : Front: L C R, Side: L R, LFE
    Sampling rate                            : 48.0 KHz
    Frame rate                               : 31.250 fps (1536 spf)
    Compression mode                         : Lossy
    Stream size                              : 361 MiB (2%)
    Title                                    : Billy.Lynns.Long.Halftime.Walk.2016.1080p.3D.BluRay.Half-SBS.x264.DTS-HD.MA.5.1-FGT
    Language                                 : French
    Default                                  : No
    Forced                                   : No

    Audio #5
    ID                                       : 6
    Format                                   : DTS
    Format/Info                              : Digital Theater Systems
    Format profile                           : MA / Core
    Mode                                     : 16
    Format settings, Endianness              : Big
    Codec ID                                 : A_DTS
    Duration                                 : 1h 52mn
    Bit rate mode                            : Variable / Constant
    Bit rate                                 : Unknown / 1 509 Kbps
    Channel(s)                               : 6 channels
    Channel positions                        : Front: L C R, Side: L R, LFE
    Sampling rate                            : 48.0 KHz
    Frame rate                               : 93.750 fps (512 spf)
    Bit depth                                : 16 bits
    Compression mode                         : Lossless / Lossy
    Title                                    : Billy.Lynns.Long.Halftime.Walk.2016.1080p.3D.BluRay.Half-SBS.x264.DTS-HD.MA.5.1-FGT
    Language                                 : Portuguese
    Default                                  : No
    Forced                                   : No

    Audio #6
    ID                                       : 7
    Format                                   : AC-3
    Format/Info                              : Audio Coding 3
    Mode extension                           : CM (complete main)
    Format settings, Endianness              : Big
    Codec ID                                 : A_AC3
    Duration                                 : 1h 52mn
    Bit rate mode                            : Constant
    Bit rate                                 : 640 Kbps
    Channel(s)                               : 6 channels
    Channel positions                        : Front: L C R, Side: L R, LFE
    Sampling rate                            : 48.0 KHz
    Frame rate                               : 31.250 fps (1536 spf)
    Compression mode                         : Lossy
    Stream size                              : 516 MiB (3%)
    Title                                    : Billy.Lynns.Long.Halftime.Walk.2016.1080p.3D.BluRay.Half-SBS.x264.DTS-HD.MA.5.1-FGT
    Language                                 : Thai
    Default                                  : No
    Forced                                   : No

    Audio #7
    ID                                       : 8
    Format                                   : DTS
    Format/Info                              : Digital Theater Systems
    Mode                                     : 16
    Format settings, Endianness              : Big
    Codec ID                                 : A_DTS
    Duration                                 : 1h 52mn
    Bit rate mode                            : Constant
    Bit rate                                 : 1 509 Kbps
    Channel(s)                               : 6 channels
    Channel positions                        : Front: L C R, Side: L R, LFE
    Sampling rate                            : 48.0 KHz
    Frame rate                               : 93.750 fps (512 spf)
    Bit depth                                : 16 bits
    Compression mode                         : Lossy
    Stream size                              : 1.19 GiB (6%)
    Title                                    : Billy.Lynns.Long.Halftime.Walk.2016.1080p.3D.BluRay.Half-SBS.x264.DTS-HD.MA.5.1-FGT
    Language                                 : English
    Default                                  : No
    Forced                                   : No

    Audio #8
    ID                                       : 9
    Format                                   : DTS
    Format/Info                              : Digital Theater Systems
    Mode                                     : 16
    Format settings, Endianness              : Big
    Codec ID                                 : A_DTS
    Duration                                 : 1h 52mn
    Bit rate mode                            : Constant
    Bit rate                                 : 1 509 Kbps
    Channel(s)                               : 6 channels
    Channel positions                        : Front: L C R, Side: L R, LFE
    Sampling rate                            : 48.0 KHz
    Frame rate                               : 93.750 fps (512 spf)
    Bit depth                                : 16 bits
    Compression mode                         : Lossy
    Stream size                              : 1.19 GiB (6%)
    Title                                    : Billy.Lynns.Long.Halftime.Walk.2016.1080p.3D.BluRay.Half-SBS.x264.DTS-HD.MA.5.1-FGT
    Language                                 : Portuguese
    Default                                  : No
    Forced                                   : No

    Text #1
    ID                                       : 10
    Format                                   : PGS
    Muxing mode                              : zlib
    Codec ID                                 : S_HDMV/PGS
    Codec ID/Info                            : Picture based subtitle format used on BDs/HD-DVDs
    Title                                    : English-PGS
    Language                                 : English
    Default                                  : No
    Forced                                   : No

    Text #2
    ID                                       : 11
    Format                                   : PGS
    Muxing mode                              : zlib
    Codec ID                                 : S_HDMV/PGS
    Codec ID/Info                            : Picture based subtitle format used on BDs/HD-DVDs
    Title                                    : English-SDH-PGS
    Language                                 : English
    Default                                  : No
    Forced                                   : No

    Text #3
    ID                                       : 12
    Format                                   : PGS
    Muxing mode                              : zlib
    Codec ID                                 : S_HDMV/PGS
    Codec ID/Info                            : Picture based subtitle format used on BDs/HD-DVDs
    Title                                    : Chinese-PGS
    Language                                 : Chinese
    Default                                  : No
    Forced                                   : No

    Text #4
    ID                                       : 13
    Format                                   : PGS
    Muxing mode                              : zlib
    Codec ID                                 : S_HDMV/PGS
    Codec ID/Info                            : Picture based subtitle format used on BDs/HD-DVDs
    Title                                    : French-PGS
    Language                                 : French
    Default                                  : No
    Forced                                   : No

    Text #5
    ID                                       : 14
    Format                                   : PGS
    Muxing mode                              : zlib
    Codec ID                                 : S_HDMV/PGS
    Codec ID/Info                            : Picture based subtitle format used on BDs/HD-DVDs
    Title                                    : Indonesian-PGS
    Language                                 : Indonesian
    Default                                  : No
    Forced                                   : No

    Text #6
    ID                                       : 15
    Format                                   : PGS
    Muxing mode                              : zlib
    Codec ID                                 : S_HDMV/PGS
    Codec ID/Info                            : Picture based subtitle format used on BDs/HD-DVDs
    Title                                    : Korean-PGS
    Language                                 : Korean
    Default                                  : No
    Forced                                   : No

    Text #7
    ID                                       : 16
    Format                                   : PGS
    Muxing mode                              : zlib
    Codec ID                                 : S_HDMV/PGS
    Codec ID/Info                            : Picture based subtitle format used on BDs/HD-DVDs
    Title                                    : Portuguese-PGS
    Language                                 : Portuguese
    Default                                  : No
    Forced                                   : No

    Text #8
    ID                                       : 17
    Format                                   : PGS
    Muxing mode                              : zlib
    Codec ID                                 : S_HDMV/PGS
    Codec ID/Info                            : Picture based subtitle format used on BDs/HD-DVDs
    Title                                    : Spanish-PGS
    Language                                 : Spanish
    Default                                  : No
    Forced                                   : No

    Text #9
    ID                                       : 18
    Format                                   : PGS
    Muxing mode                              : zlib
    Codec ID                                 : S_HDMV/PGS
    Codec ID/Info                            : Picture based subtitle format used on BDs/HD-DVDs
    Title                                    : Thai-PGS
    Language                                 : Thai
    Default                                  : No
    Forced                                   : No

    Text #10
    ID                                       : 19
    Format                                   : PGS
    Muxing mode                              : zlib
    Codec ID                                 : S_HDMV/PGS
    Codec ID/Info                            : Picture based subtitle format used on BDs/HD-DVDs
    Title                                    : French-FORCED-PGS
    Language                                 : French
    Default                                  : No
    Forced                                   : No

    02666548139538362199_thumb.jpg

    13449554091914658178_thumb.jpg

    15641921581962819706_thumb.jpg

    33129313671949940318_thumb.jpg

    60712443325249275787_thumb.jpg

    68258777564315297694_thumb.jpg

    游客,如果您要查看本帖隐藏内容请回复


    Video
    ID                                       : 1
    Format                                   : AVC
    Format/Info                              : Advanced Video Codec
    Format profile                           : High@L4.1
    Format settings, CABAC                   : Yes
    Format settings, ReFrames                : 2 frames
    Codec ID                                 : V_MPEG4/ISO/AVC
    Duration                                 : 1h 52mn
    Nominal bit rate                         : 16.0 Mbps
    Width                                    : 1 920 pixels
    Height                                   : 1 080 pixels
    Display aspect ratio                     : 16:9
    Frame rate mode                          : Constant
    Frame rate                               : 23.976 (24000/1001) fps
    Color space                              : YUV
    Chroma subsampling                       : 4:2:0
    Bit depth                                : 8 bits
    Scan type                                : Progressive
    Bits/(Pixel*Frame)                       : 0.322
    Title                                    : Billy.Lynns.Long.Halftime.Walk.2016.1080p.3D.BluRay.Half-OU.x264.DTS-HD.MA.5.1-FGT
    Writing library                          : x264 core 142
    Encoding settings                        : cabac=1 / ref=1 / deblock=1:-1:-1 / analyse=0x3:0 / me=hex / subme=5 / psy=0 / mixed_ref=0 / me_range=16 / chroma_me=1 / trellis=0 / 8x8dct=1 / cqm=0 / deadzone=21,11 / fast_pskip=0 / chroma_qp_offset=0 / threads=8 / lookahead_threads=2 / sliced_threads=0 / nr=0 / decimate=1 / interlaced=0 / bluray_compat=0 / constrained_intra=0 / bframes=2 / b_pyramid=0 / b_adapt=1 / b_bias=0 / direct=1 / weightb=0 / open_gop=0 / weightp=0 / keyint=24 / keyint_min=13 / scenecut=40 / intra_refresh=0 / rc=abr / mbtree=0 / bitrate=16000 / ratetol=1.0 / qcomp=0.60 / qpmin=0 / qpmax=69 / qpstep=4 / ip_ratio=1.40 / pb_ratio=1.30 / aq=1:1.00
    Default                                  : Yes
    Forced                                   : No
    Color range                              : Limited
    Color primaries                          : BT.709
    Transfer characteristics                 : BT.709
    Matrix coefficients                      : BT.709

    Audio #1
    ID                                       : 2
    Format                                   : DTS
    Format/Info                              : Digital Theater Systems
    Format profile                           : MA / Core
    Mode                                     : 16
    Format settings, Endianness              : Big
    Codec ID                                 : A_DTS
    Duration                                 : 1h 52mn
    Bit rate mode                            : Variable / Constant
    Bit rate                                 : Unknown / 1 509 Kbps
    Channel(s)                               : 6 channels
    Channel positions                        : Front: L C R, Side: L R, LFE
    Sampling rate                            : 48.0 KHz
    Frame rate                               : 93.750 fps (512 spf)
    Bit depth                                : 16 bits
    Compression mode                         : Lossless / Lossy
    Title                                    : Billy.Lynns.Long.Halftime.Walk.2016.1080p.3D.BluRay.Half-OU.x264.DTS-HD.MA.5.1-FGT
    Language                                 : English
    Default                                  : Yes
    Forced                                   : No

    Audio #2
    ID                                       : 3
    Format                                   : AC-3
    Format/Info                              : Audio Coding 3
    Mode extension                           : CM (complete main)
    Format settings, Endianness              : Big
    Codec ID                                 : A_AC3
    Duration                                 : 1h 52mn
    Bit rate mode                            : Constant
    Bit rate                                 : 640 Kbps
    Channel(s)                               : 6 channels
    Channel positions                        : Front: L C R, Side: L R, LFE
    Sampling rate                            : 48.0 KHz
    Frame rate                               : 31.250 fps (1536 spf)
    Compression mode                         : Lossy
    Stream size                              : 516 MiB (2%)
    Title                                    : Billy.Lynns.Long.Halftime.Walk.2016.1080p.3D.BluRay.Half-OU.x264.DTS-HD.MA.5.1-FGT
    Language                                 : English
    Default                                  : No
    Forced                                   : No

    Audio #3
    ID                                       : 4
    Format                                   : AC-3
    Format/Info                              : Audio Coding 3
    Mode extension                           : CM (complete main)
    Format settings, Endianness              : Big
    Codec ID                                 : A_AC3
    Duration                                 : 1h 52mn
    Bit rate mode                            : Constant
    Bit rate                                 : 640 Kbps
    Channel(s)                               : 6 channels
    Channel positions                        : Front: L C R, Side: L R, LFE
    Sampling rate                            : 48.0 KHz
    Frame rate                               : 31.250 fps (1536 spf)
    Compression mode                         : Lossy
    Stream size                              : 516 MiB (2%)
    Title                                    : Billy.Lynns.Long.Halftime.Walk.2016.1080p.3D.BluRay.Half-OU.x264.DTS-HD.MA.5.1-FGT
    Language                                 : French
    Default                                  : No
    Forced                                   : No

    Audio #4
    ID                                       : 5
    Format                                   : AC-3
    Format/Info                              : Audio Coding 3
    Mode extension                           : CM (complete main)
    Format settings, Endianness              : Big
    Codec ID                                 : A_AC3
    Duration                                 : 1h 52mn
    Bit rate mode                            : Constant
    Bit rate                                 : 448 Kbps
    Channel(s)                               : 6 channels
    Channel positions                        : Front: L C R, Side: L R, LFE
    Sampling rate                            : 48.0 KHz
    Frame rate                               : 31.250 fps (1536 spf)
    Compression mode                         : Lossy
    Stream size                              : 361 MiB (2%)
    Title                                    : Billy.Lynns.Long.Halftime.Walk.2016.1080p.3D.BluRay.Half-OU.x264.DTS-HD.MA.5.1-FGT
    Language                                 : French
    Default                                  : No
    Forced                                   : No

    Audio #5
    ID                                       : 6
    Format                                   : DTS
    Format/Info                              : Digital Theater Systems
    Format profile                           : MA / Core
    Mode                                     : 16
    Format settings, Endianness              : Big
    Codec ID                                 : A_DTS
    Duration                                 : 1h 52mn
    Bit rate mode                            : Variable / Constant
    Bit rate                                 : Unknown / 1 509 Kbps
    Channel(s)                               : 6 channels
    Channel positions                        : Front: L C R, Side: L R, LFE
    Sampling rate                            : 48.0 KHz
    Frame rate                               : 93.750 fps (512 spf)
    Bit depth                                : 16 bits
    Compression mode                         : Lossless / Lossy
    Title                                    : Billy.Lynns.Long.Halftime.Walk.2016.1080p.3D.BluRay.Half-OU.x264.DTS-HD.MA.5.1-FGT
    Language                                 : Portuguese
    Default                                  : No
    Forced                                   : No

    Audio #6
    ID                                       : 7
    Format                                   : AC-3
    Format/Info                              : Audio Coding 3
    Mode extension                           : CM (complete main)
    Format settings, Endianness              : Big
    Codec ID                                 : A_AC3
    Duration                                 : 1h 52mn
    Bit rate mode                            : Constant
    Bit rate                                 : 640 Kbps
    Channel(s)                               : 6 channels
    Channel positions                        : Front: L C R, Side: L R, LFE
    Sampling rate                            : 48.0 KHz
    Frame rate                               : 31.250 fps (1536 spf)
    Compression mode                         : Lossy
    Stream size                              : 516 MiB (2%)
    Title                                    : Billy.Lynns.Long.Halftime.Walk.2016.1080p.3D.BluRay.Half-OU.x264.DTS-HD.MA.5.1-FGT
    Language                                 : Thai
    Default                                  : No
    Forced                                   : No

    Audio #7
    ID                                       : 8
    Format                                   : DTS
    Format/Info                              : Digital Theater Systems
    Mode                                     : 16
    Format settings, Endianness              : Big
    Codec ID                                 : A_DTS
    Duration                                 : 1h 52mn
    Bit rate mode                            : Constant
    Bit rate                                 : 1 509 Kbps
    Channel(s)                               : 6 channels
    Channel positions                        : Front: L C R, Side: L R, LFE
    Sampling rate                            : 48.0 KHz
    Frame rate                               : 93.750 fps (512 spf)
    Bit depth                                : 16 bits
    Compression mode                         : Lossy
    Stream size                              : 1.19 GiB (6%)
    Title                                    : Billy.Lynns.Long.Halftime.Walk.2016.1080p.3D.BluRay.Half-OU.x264.DTS-HD.MA.5.1-FGT
    Language                                 : English
    Default                                  : No
    Forced                                   : No

    Audio #8
    ID                                       : 9
    Format                                   : DTS
    Format/Info                              : Digital Theater Systems
    Mode                                     : 16
    Format settings, Endianness              : Big
    Codec ID                                 : A_DTS
    Duration                                 : 1h 52mn
    Bit rate mode                            : Constant
    Bit rate                                 : 1 509 Kbps
    Channel(s)                               : 6 channels
    Channel positions                        : Front: L C R, Side: L R, LFE
    Sampling rate                            : 48.0 KHz
    Frame rate                               : 93.750 fps (512 spf)
    Bit depth                                : 16 bits
    Compression mode                         : Lossy
    Stream size                              : 1.19 GiB (6%)
    Title                                    : Billy.Lynns.Long.Halftime.Walk.2016.1080p.3D.BluRay.Half-OU.x264.DTS-HD.MA.5.1-FGT
    Language                                 : Portuguese
    Default                                  : No
    Forced                                   : No

    Text #1
    ID                                       : 10
    Format                                   : PGS
    Muxing mode                              : zlib
    Codec ID                                 : S_HDMV/PGS
    Codec ID/Info                            : Picture based subtitle format used on BDs/HD-DVDs
    Title                                    : English-PGS
    Language                                 : English
    Default                                  : No
    Forced                                   : No

    Text #2
    ID                                       : 11
    Format                                   : PGS
    Muxing mode                              : zlib
    Codec ID                                 : S_HDMV/PGS
    Codec ID/Info                            : Picture based subtitle format used on BDs/HD-DVDs
    Title                                    : English-SDH-PGS
    Language                                 : English
    Default                                  : No
    Forced                                   : No

    Text #3
    ID                                       : 12
    Format                                   : PGS
    Muxing mode                              : zlib
    Codec ID                                 : S_HDMV/PGS
    Codec ID/Info                            : Picture based subtitle format used on BDs/HD-DVDs
    Title                                    : Chinese-PGS
    Language                                 :
    Chinese
    Default                                  : No
    Forced                                   : No

    Text #4
    ID                                       : 13
    Format                                   : PGS
    Muxing mode                              : zlib
    Codec ID                                 : S_HDMV/PGS
    Codec ID/Info                            : Picture based subtitle format used on BDs/HD-DVDs
    Title                                    : French-PGS
    Language                                 : French
    Default                                  : No
    Forced                                   : No

    Text #5
    ID                                       : 14
    Format                                   : PGS
    Muxing mode                              : zlib
    Codec ID                                 : S_HDMV/PGS
    Codec ID/Info                            : Picture based subtitle format used on BDs/HD-DVDs
    Title                                    : Indonesian-PGS
    Language                                 : Indonesian
    Default                                  : No
    Forced                                   : No

    Text #6
    ID                                       : 15
    Format                                   : PGS
    Muxing mode                              : zlib
    Codec ID                                 : S_HDMV/PGS
    Codec ID/Info                            : Picture based subtitle format used on BDs/HD-DVDs
    Title                                    : Korean-PGS
    Language                                 : Korean
    Default                                  : No
    Forced                                   : No

    Text #7
    ID                                       : 16
    Format                                   : PGS
    Muxing mode                              : zlib
    Codec ID                                 : S_HDMV/PGS
    Codec ID/Info                            : Picture based subtitle format used on BDs/HD-DVDs
    Title                                    : Portuguese-PGS
    Language                                 : Portuguese
    Default                                  : No
    Forced                                   : No

    Text #8
    ID                                       : 17
    Format                                   : PGS
    Muxing mode                              : zlib
    Codec ID                                 : S_HDMV/PGS
    Codec ID/Info                            : Picture based subtitle format used on BDs/HD-DVDs
    Title                                    : Spanish-PGS
    Language                                 : Spanish
    Default                                  : No
    Forced                                   : No

    Text #9
    ID                                       : 18
    Format                                   : PGS
    Muxing mode                              : zlib
    Codec ID                                 : S_HDMV/PGS
    Codec ID/Info                            : Picture based subtitle format used on BDs/HD-DVDs
    Title                                    : Thai-PGS
    Language                                 : Thai
    Default                                  : No
    Forced                                   : No

    Text #10
    ID                                       : 19
    Format                                   : PGS
    Muxing mode                              : zlib
    Codec ID                                 : S_HDMV/PGS
    Codec ID/Info                            : Picture based subtitle format used on BDs/HD-DVDs
    Title                                    : French-FORCED-PGS
    Language                                 : French
    Default                                  : No
    Forced                                   : No

    Text #11
    ID                                       : 20
    Format                                   : PGS
    Muxing mode                              : zlib
    Codec ID                                 : S_HDMV/PGS
    Codec ID/Info                            : Picture based subtitle format used on BDs/HD-DVDs
    Title                                    : Chinese-PGS
    Language                                 : Chinese
    Default                                  : No
    Forced                                   : No

    09238078906975843225_thumb.jpg

    46444146224374577182_thumb.jpg

    54085053318370132546_thumb.jpg

    93453597823694459934_thumb.jpg

    21227399634581367837_thumb.jpg


    游客,如果您要查看本帖隐藏内容请回复



    Video
    ID                                       : 1
    Format                                   : AVC
    Format/Info                              : Advanced Video Codec
    Format profile                           : High@L4.1
    MultiView_Count                          : 2
    MultiView_Layout                         : Side by Side (left eye first)
    Format settings, CABAC                   : Yes
    Format settings, ReFrames                : 4 frames
    Codec ID                                 : V_MPEG4/ISO/AVC
    Duration                                 : 1h 52mn
    Bit rate                                 : 9 590 Kbps
    Width                                    : 1 920 pixels
    Height                                   : 1 040 pixels
    Display aspect ratio                     : 1.85:1
    Frame rate mode                          : Constant
    Frame rate                               : 23.976 (24000/1001) fps
    Color space                              : YUV
    Chroma subsampling                       : 4:2:0
    Bit depth                                : 8 bits
    Scan type                                : Progressive
    Bits/(Pixel*Frame)                       : 0.200
    Stream size                              : 7.38 GiB (84%)
    Writing library                          : x264 core 148 r2744 b97ae06
    Encoding settings                        : cabac=1 / ref=4 / deblock=1:-3:-3 / analyse=0x3:0x113 / me=umh / subme=8 / psy=1 / psy_rd=1.00:0.00 / mixed_ref=1 / me_range=32 / chroma_me=1 / trellis=1 / 8x8dct=1 / cqm=0 / deadzone=21,11 / fast_pskip=0 / chroma_qp_offset=-2 / threads=24 / lookahead_threads=4 / sliced_threads=0 / nr=0 / decimate=1 / interlaced=0 / bluray_compat=0 / constrained_intra=0 / bframes=3 / b_pyramid=2 / b_adapt=2 / b_bias=0 / direct=3 / weightb=1 / open_gop=0 / weightp=2 / keyint=240 / keyint_min=24 / scenecut=40 / intra_refresh=0 / rc_lookahead=50 / rc=2pass / mbtree=1 / bitrate=9590 / ratetol=1.0 / qcomp=0.60 / qpmin=0 / qpmax=69 / qpstep=4 / cplxblur=20.0 / qblur=0.5 / frame-packing=3 / ip_ratio=1.40 / aq=3:0.80
    Default                                  : Yes
    Forced                                   : No
    Color range                              : Limited
    Matrix coefficients                      : BT.709
    Statistics Tags Issue                    : no_variable_data 1970-01-01 00:00:00 / no_variable_data 2010-02-22 21:41:29
    FromStats_BitRate                        : 9588489
    FromStats_Duration                       : 01:52:45.759000000
    FromStats_FrameCount                     : 162216
    FromStats_StreamSize                     : 8109176041

    Audio
    ID                                       : 2
    Format                                   : DTS
    Format/Info                              : Digital Theater Systems
    Mode                                     : 16
    Format settings, Endianness              : Big
    Codec ID                                 : A_DTS
    Duration                                 : 1h 52mn
    Bit rate mode                            : Constant
    Bit rate                                 : 1 509 Kbps
    Channel(s)                               : 6 channels
    Channel positions                        : Front: L C R, Side: L R, LFE
    Sampling rate                            : 48.0 KHz
    Frame rate                               : 93.750 fps (512 spf)
    Bit depth                                : 16 bits
    Compression mode                         : Lossy
    Stream size                              : 1.19 GiB (14%)
    Language                                 : English
    Default                                  : Yes
    Forced                                   : No

    71912799576340479664_thumb.jpg


    游客,如果您要查看本帖隐藏内容请回复
  • TA的每日心情
    郁闷
    14 小时前
  • 签到天数: 649 天

    [LV.9]以坛为家II

    发表于 2017-2-4 12:14:03 | 显示全部楼层
    新年好,又一部大片,谢谢楼主分享。
    回复 支持 反对

    使用道具 举报

  • TA的每日心情
    开心
    2017-3-18 00:06
  • 签到天数: 217 天

    [LV.7]常住居民III

    发表于 2017-2-4 12:18:11 | 显示全部楼层
    够快的,感谢分享
    回复 支持 反对

    使用道具 举报

  • TA的每日心情
    开心
    2017-3-18 00:06
  • 签到天数: 217 天

    [LV.7]常住居民III

    发表于 2017-2-4 12:18:43 | 显示全部楼层
    够快的,感谢分享
    回复 支持 反对

    使用道具 举报

    匿名  发表于 2017-2-4 12:19:11
    现在李安的电影几乎可以说是质量的保证了,上部少年派的3D效果应很赞,这部必须下呀,谢谢!
  • TA的每日心情
    开心
    2017-10-13 14:15
  • 签到天数: 1017 天

    [LV.10]以坛为家III

    发表于 2017-2-4 12:50:53 | 显示全部楼层
    谢谢分享,谢谢分享。
    回复 支持 反对

    使用道具 举报

  • TA的每日心情
    开心
    2017-10-13 14:15
  • 签到天数: 1017 天

    [LV.10]以坛为家III

    发表于 2017-2-4 12:54:46 | 显示全部楼层
    谢谢分享,谢谢分享。
    回复 支持 反对

    使用道具 举报

    匿名  发表于 2017-2-4 13:05:28
    xdsddddddddd
  • TA的每日心情
    难过
    14 小时前
  • 签到天数: 1483 天

    [LV.10]以坛为家III

    发表于 2017-2-4 13:47:27 | 显示全部楼层
    good movie keep it up thankz 4 sharing
    回复 支持 反对

    使用道具 举报

  • TA的每日心情
    开心
    2017-6-17 10:33
  • 签到天数: 59 天

    [LV.5]常住居民I

    发表于 2017-2-4 15:04:16 | 显示全部楼层
    现在李安的电影几乎可以说是质量的保证了,上部少年派的3D效果应很赞,这部必须下呀,谢谢!
    回复 支持 反对

    使用道具 举报

    您需要登录后才可以回帖 登录 | 立即注册

    本版积分规则

    免责申明|小黑屋|手机版|Archiver|网站地图| 3D一族论坛  

    Copyright © 2001-2015 Comsenz Inc.   All Rights Reserved.

    Powered by Discuz! X3.2( 沪ICP备14045620号-1 )

    快速回复 返回顶部 返回列表