请选择 进入手机版 | 继续访问电脑版
 找回密码

3D一族论坛

查看: 3413|回复: 341

[上下] [危城3D Call.of.Heroes.2016.3D][1080p 上下半高][MKV 8.64G/9.26G][BT]

  [复制链接]
  • TA的每日心情
    开心
    6 天前
  • 签到天数: 1636 天

    [LV.Master]伴坛终老

    发表于 2017-2-4 12:28:37 | 显示全部楼层 |阅读模式
    影片截图:

    data/attachment/forum/201702/04/122334wtenppaaea1ntpts.jpg

         
      片        名: 危城3D/危城歼霸/夕阳武士
      译        名: Call.of.Heroes.2016.3D / The Deadly Reclaim
      类        别: 动作 剧情 古装 
      国        家: 大陆
      语        言: 粤语
      字        幕: N/A
      集        数:
      文件格式: MKV
      视频尺寸: 1920*1080
      文件大小: 8.64GB/9.26GB
      上映时间: 2016-08-12(中国大陆)
      影片导演: 陈木胜 Benny Chan
      主要演员: 刘青云 Sean Lau
        古天乐 Louis Koo
        彭于晏 Eddie Peng
      推荐等级: ★★★★★
         
    下载地址:
    [下载方式]: bt下载
    [分辨率]: 1080p
    [迅雷地址]:
    [网盘下载]:
    影片简介: fangfang
    时值国家内战、军阀割据的乱世时代,军阀少帅曹少璘(古天乐 饰)因杀害三条人命,被普城保卫团团长杨克难(刘青云 饰) 绳之于法。可曹家财雄势大,以强权震慑居民,曹家上校张亦(吴京 饰)得悉事件后,赶来普城取人,在城中遇上多年不见师弟马锋(彭于晏 饰),马锋是位武功高强的浪人,路见不平欲拔刀相助,可是却面临正义与兄弟情之抉择。
    本帖最后由 xdwl 于 2017-2-6 15:12 编辑

    p2374053428.jpg

    p2374053444.jpg

    p2374053453.jpg

    ◎译  名 Call.of.Heroes
    ◎片  名 危城/危城歼霸/夕阳武士
    ◎年  代 2016
    ◎国  家 中国大陆/香港
    ◎类  别 剧情/动作/犯罪/武侠/古装
    ◎语  言 汉语普通话
    ◎上映日期 2016-08-12(中国大陆)
    ◎IMDb评分  6.2/10 from 283 users
    ◎豆瓣评分 5.6/10 from 23,956 users
    ◎片  长 120分钟
    ◎导  演 陈木胜 Benny Chan
    ◎主  演 刘青云 Sean Lau
          古天乐 Louis Koo
          彭于晏 Eddie Peng
          吴京 Jing Wu
          袁泉 Quan Yuan
          江疏影 Shuying Jiang
          廖启智 Kai Chi Liu
          释行宇 Xingyu Shi
          姜皓文 Philip Keung Ho-Man
          吴廷烨 Berg Ng
          洪天照 Sammy Hung Tin Chiu
    ◎简  介
      时值国家内战、军阀割据的乱世时代,军阀少帅曹少璘(古天乐 饰)因杀害三条人命,被普城保卫团团长杨克难(刘青云 饰) 绳之于法。可曹家财雄势大,以强权震慑居民,曹家上校张亦(吴京 饰)得悉事件后,赶来普城取人,在城中遇上多年不见师弟马锋(彭于晏 饰),马锋是位武功高强的浪人,路见不平欲拔刀相助,可是却面临正义与兄弟情之抉择。

    【以下资源独家首发低调下载!节日期间所发资源全部免费!】


    Call of Heroes 3D (2016)-alE13.mkv
    Format : Matroska
    Format version : Version 4 / Version 2
    File size : 8.64 GiB
    Duration : 1 h 59 min
    Overall bit rate : 10.3 Mb/s
    Movie name : Call of Heroes 3D (2016)-alE13
    Encoded date : UTC 2017-01-30 17:06:42
    Writing application : mkvmerge v8.1.0 ('Psychedelic Postcard') 64bit
    Writing library : libebml v1.3.1 + libmatroska v1.4.2
    Cover : Yes
    Attachments : cover.jpg

    Video
    ID : 1
    Format : AVC
    Format/Info : Advanced Video Codec
    Format profile : [email protected]/* */
    Format settings, CABAC : Yes
    Format settings, ReFrames : 2 frames
    Codec ID : V_MPEG4/ISO/AVC
    Duration : 1 h 59 min
    Bit rate : 8 831 kb/s
    Width : 1 920 pixels
    Height : 816 pixels
    Display aspect ratio : 2.35:1
    Frame rate mode : Constant
    Frame rate : 23.976 (24000/1001) FPS
    Color space : YUV
    Chroma subsampling : 4:2:0
    Bit depth : 8 bits
    Scan type : Progressive
    Bits/(Pixel*Frame) : 0.235
    Stream size : 7.37 GiB (85%)
    Title : Call of Heroes 3D (2016)-alE13
    Writing library : x264 core
    Default : Yes
    Forced : No
    Color range : Limited
    Color primaries : BT.709
    Transfer characteristics : BT.709
    Matrix coefficients : BT.709

    Audio
    ID : 2
    Format : DTS
    Format/Info : Digital Theater Systems
    Mode : 16
    Format settings, Endianness : Big
    Codec ID : A_DTS
    Duration : 1 h 59 min
    Bit rate mode : Constant
    Bit rate : 1 509 kb/s
    Channel(s) : 6 channels
    Channel positions : Front: L C R, Side: L R, LFE
    Sampling rate : 48.0 kHz
    Frame rate : 93.750 FPS (512 spf)
    Bit depth : 24 bits
    Compression mode : Lossy
    Delay relative to video : 10 s 806 ms
    Stream size : 1.26 GiB (15%)
    Title : Call of Heroes 3D (2016)-alE13_DTS
    Language : Chinese
    Default : Yes
    Forced : No

    Text #1
    ID : 3
    Format : VobSub
    Muxing mode : zlib
    Codec ID : S_VOBSUB
    Codec ID/Info : Picture based subtitle format used on DVDs
    Duration : 1 h 52 min
    Bit rate : 5 581 b/s
    Count of elements : 1276
    Stream size : 4.49 MiB (0%)
    Title : Call of Heroes 3D (2016)-alE13
    Language : Polish
    Default : Yes
    Forced : No

    Text #2
    ID : 4
    Format : VobSub
    Muxing mode : zlib
    Codec ID : S_VOBSUB
    Codec ID/Info : Picture based subtitle format used on DVDs
    Duration : 1 h 52 min
    Bit rate : 5 964 b/s
    Count of elements : 1282
    Stream size : 4.79 MiB (0%)
    Title : Call of Heroes 3D (2016)-alE13
    Language : English
    Default : No
    Forced : No

    Call of Heroes 3D (2016)-alE13_20170206145604.JPG


    Call of Heroes 3D (2016)-alE13_20170206145725.JPG


    Call of Heroes 3D (2016)-alE13_20170206145733.JPG


    Call of Heroes 3D (2016)-alE13_20170206145738.JPG


    Call of Heroes 3D (2016)-alE13_20170206145757.JPG


    Call of Heroes 3D (2016)-alE13_20170206145807.JPG


    游客,如果您要查看本帖隐藏内容请回复




    Качество: BDRip (1080p)
    Контейнер: MKV
    Формат 3D: Half OverUnder / Вертикальная анаморфная стереопара
    Порядок ракурсов: левый ракурс первый
    Видео: MPEG-4 AVC, 10700 Кбит/с, 1920x1080, 23.976 кадр/с
    Аудио: Русский (АС3, 2 ch, 192 Кбит/с)



    游客,如果您要查看本帖隐藏内容请回复


  • TA的每日心情
    开心
    昨天 16:43
  • 签到天数: 951 天

    [LV.10]以坛为家III

    发表于 2017-2-4 12:49:55 | 显示全部楼层
    谢谢分享,谢谢分享。
    回复 支持 反对

    使用道具 举报

  • TA的每日心情
    开心
    昨天 16:43
  • 签到天数: 951 天

    [LV.10]以坛为家III

    发表于 2017-2-4 12:52:21 | 显示全部楼层
    谢谢分享,谢谢分享。
    回复 支持 反对

    使用道具 举报

  • TA的每日心情
    开心
    昨天 16:43
  • 签到天数: 951 天

    [LV.10]以坛为家III

    发表于 2017-2-4 12:56:43 | 显示全部楼层
    谢谢分享,谢谢分享。
    回复 支持 反对

    使用道具 举报

  • TA的每日心情
    难过
    6 小时前
  • 签到天数: 1299 天

    [LV.10]以坛为家III

    发表于 2017-2-4 13:43:42 | 显示全部楼层
    omg free to download, thankz 4 sharing, kong hei fat choi
    回复 支持 反对

    使用道具 举报

    匿名  发表于 2017-2-4 15:08:21
    感谢楼主分享
  • TA的每日心情
    开心
    2017-5-11 13:33
  • 签到天数: 721 天

    [LV.9]以坛为家II

    发表于 2017-2-4 15:11:43 | 显示全部楼层
    好看感謝大大分享,春節愉快
    回复 支持 反对

    使用道具 举报

    匿名  发表于 2017-2-4 15:16:45
    thank so much
  • TA的每日心情
    开心
    2017-4-30 09:22
  • 签到天数: 285 天

    [LV.8]以坛为家III

    发表于 2017-2-4 16:14:54 | 显示全部楼层
    好片子就要支持一下。
    回复 支持 反对

    使用道具 举报

  • TA的每日心情
    奋斗
    3 天前
  • 签到天数: 226 天

    [LV.7]常住居民III

    发表于 2017-2-4 16:24:29 来自手机 | 显示全部楼层
    支持楼主,谢谢分享
    回复 支持 反对

    使用道具 举报

    高级模式
    B Color Image Link Quote Code Smilies

    本版积分规则

    免责申明|小黑屋|手机版|Archiver|网站地图| 3D一族论坛  

    Copyright © 2001-2015 Comsenz Inc.   All Rights Reserved.

    Powered by Discuz! X3.2( 沪ICP备14045620号-1 )

    快速回复 返回顶部 返回列表