请选择 进入手机版 | 继续访问电脑版
 找回密码

3D一族论坛

查看: 5492|回复: 659

[左右] [奇异博士3D Doctor.Strange.2016.3D][1080p][MKV 19.07G/19.46G/8.75G/9.06G/9.7G][BT]

  [复制链接]
  • TA的每日心情
    开心
    4 天前
  • 签到天数: 1657 天

    [LV.Master]伴坛终老

    发表于 2017-2-19 10:35:21 | 显示全部楼层 |阅读模式
    影片截图:

    data/attachment/forum/201702/19/101544bczqye51zopm02v5.jpg

         
      片        名: Doctor.Strange.2016.3D
      译        名: 奇异博士3D.2016//斯特兰奇博士/史特兰奇博士/奇怪博士/怪奇医生/奇异医生/史奇医生
      类        别: 动作 科幻 冒险 
      国        家: 欧美
      语        言: 英语
      字        幕: N/A
      集        数:
      文件格式: MKV
      视频尺寸: 1920*1080
      文件大小: 19.07GB/19.46GB/8.75GB/9.06GB/9.7GB
      上映时间: 2016-10-25(英国)/2016-11-04(中国大陆/美国)
      影片导演: 斯科特·德瑞克森 Scott Derrickson
      主要演员: 本尼迪克特·康伯巴奇 Benedict Cumberbatch
        蒂尔达·斯文顿 Tilda Swinton
        麦斯·米科尔森 Mads Mikkelsen
      推荐等级: ★★★★★
         
    下载地址:
    [下载方式]: bt下载
    [分辨率]: 1080p
    [迅雷地址]:
    [网盘下载]:
    影片简介: fangfang
    斯特兰奇博士(本尼迪克特·康伯巴奇 Benedict Cumberbatch 饰)是一名外科手术医生,他拥有着高超的智商和精湛的技艺,是医院乃至整个医学界的传奇人物。某一日,斯特兰奇博士遭遇了一场可怕的车祸,尽管保住了双手,但这双手伤痕累累不住颤抖,这也就意味着,他再也不能拿起手术刀,站在无影灯下了。
      斯特兰奇博士的生活就此失去了意义陷入了绝望之中,他决定远赴尼泊尔,寻找传说中能够治愈他双手的神秘力量。在尼泊尔,风尘仆仆的斯特兰奇博士拜入了神秘的古一法师(蒂尔达·斯文顿 Tilda Swinton 饰)门下,成为了其弟子,与此同时,古一法师曾经的弟子卡西利亚斯(麦斯·米科尔森 饰)亦在虎视眈眈,企图完成他获得永生的大业。
    156248_front.jpg


    ◎译  名 奇异博士/斯特兰奇博士/史特兰奇博士/奇怪博士/怪奇医生/奇异医生/史奇医生

    ◎片  名 Doctor Strange
    ◎年  代 2016
    ◎国  家 美国
    ◎类  别 动作/科幻/奇幻/冒险
    ◎语  言 英语
    ◎上映日期 2016-10-25(英国)/2016-11-04(中国大陆/美国)
    ◎IMDb评分  7.8/10 from 200,150 users
    ◎IMDb链接  http://www.imdb.com/title/tt1211837/
    ◎豆瓣评分 7.8/10 from 184,498 users
    ◎豆瓣链接 https://movie.douban.com/subject/3025375/
    ◎片  长 1h:54m:58s
    ◎导  演 斯科特·德瑞克森 Scott Derrickson
    ◎主  演 本尼迪克特·康伯巴奇 Benedict Cumberbatch
          蒂尔达·斯文顿 Tilda Swinton
          麦斯·米科尔森 Mads Mikkelsen
          切瓦特·埃加福特 Chiwetel Ejiofor
          瑞秋·麦克亚当斯 Rachel McAdams
          迈克尔·斯图巴 Michael Stuhlbarg
          本尼迪克特·王 Benedict Wong
          本杰明·布拉特 Benjamin Bratt
          斯科特·阿金斯 Scott Adkins
          莎拉·费希恩 Zara Phythian
          阿拉·萨菲 Alaa Safi
    ◎简  介
      斯特兰奇博士(本尼迪克特·康伯巴奇 Benedict Cumberbatch 饰)是一名外科手术医生,他拥有着高超的智商和精湛的技艺,是医院乃至整个医学界的传奇人物。某一日,斯特兰奇博士遭遇了一场可怕的车祸,尽管保住了双手,但这双手伤痕累累不住颤抖,这也就意味着,他再也不能拿起手术刀,站在无影灯下了。
      斯特兰奇博士的生活就此失去了意义陷入了绝望之中,他决定远赴尼泊尔,寻找传说中能够治愈他双手的神秘力量。在尼泊尔,风尘仆仆的斯特兰奇博士拜入了神秘的古一法师(蒂尔达·斯文顿 Tilda Swinton 饰)门下,成为了其弟子,与此同时,古一法师曾经的弟子卡西利亚斯(麦斯·米科尔森 饰)亦在虎视眈眈,企图完成他获得永生的大业。

    ◎获奖情况

    第89届奥斯卡金像奖  (2017)
    最佳视觉效果(提名)

    第70届英国电影学院奖  (2017)
    电影奖 最佳化妆/发型(提名)
    电影奖 最佳艺术指导(提名)
    电影奖 最佳特殊视觉效果(提名)

    第44届动画安妮奖  (2017)
    最佳真人电影动画效果

    第23届美国演员工会奖  (2017)
    电影最佳特技群像(提名)
    第21届美国艺术指导工会奖  (2017)
    电影奖 最佳幻想电影艺术指导(提名)
    第15届美国视觉效果协会奖  (2017)
    最佳特效电影视觉效果(提名)
    最佳真人电影CG背景
    最佳电影虚拟摄影(提名)
    最佳真人电影模拟动画效果(提名):
    最佳电影视觉效果合成(提名)

    第22届美国评论家选择电影奖  (2016)
    最佳化妆(提名)
    最佳视觉效果(提名)
    最佳动作片(提名)
    动作片最佳男主角(提名) 本尼迪克特·康伯巴奇
    动作片最佳女主角(提名) 蒂尔达·斯文顿
    最佳科幻/恐怖片(提名)

    第20届好莱坞电影奖  (2016)
    年度视觉效果

    Video
    ID                                       : 1
    Format                                   : AVC
    Format/Info                              : Advanced Video Codec
    Format profile                           : High@L4.1
    Format settings, CABAC                   : Yes
    Format settings, ReFrames                : 2 frames
    Codec ID                                 : V_MPEG4/ISO/AVC
    Duration                                 : 1h 54mn
    Nominal bit rate                         : 15.5 Mbps
    Width                                    : 1 920 pixels
    Height                                   : 1 080 pixels
    Display aspect ratio                     : 16:9
    Frame rate mode                          : Constant
    Frame rate                               : 23.976 (24000/1001) fps
    Color space                              : YUV
    Chroma subsampling                       : 4:2:0
    Bit depth                                : 8 bits
    Scan type                                : Progressive
    Bits/(Pixel*Frame)                       : 0.312
    Title                                    : Doctor.Strange.2016.1080p.3D.BluRay.Half-SBS.x264.DTS-HD.MA.7.1-FGT
    Writing library                          : x264 core 142
    Encoding settings                        : cabac=1 / ref=1 / deblock=1:-1:-1 / analyse=0x3:0 / me=hex / subme=5 / psy=0 / mixed_ref=0 / me_range=16 / chroma_me=1 / trellis=0 / 8x8dct=1 / cqm=0 / deadzone=21,11 / fast_pskip=0 / chroma_qp_offset=0 / threads=8 / lookahead_threads=2 / sliced_threads=0 / nr=0 / decimate=1 / interlaced=0 / bluray_compat=0 / constrained_intra=0 / bframes=2 / b_pyramid=0 / b_adapt=1 / b_bias=0 / direct=1 / weightb=0 / open_gop=0 / weightp=0 / keyint=24 / keyint_min=13 / scenecut=40 / intra_refresh=0 / rc=abr / mbtree=0 / bitrate=15500 / ratetol=1.0 / qcomp=0.60 / qpmin=0 / qpmax=69 / qpstep=4 / ip_ratio=1.40 / pb_ratio=1.30 / aq=1:1.00
    Default                                  : Yes
    Forced                                   : No
    Color range                              : Limited
    Color primaries                          : BT.709
    Transfer characteristics                 : BT.709
    Matrix coefficients                      : BT.709

    Audio #1
    ID                                       : 2
    Format                                   : DTS
    Format/Info                              : Digital Theater Systems
    Format profile                           : MA / Core
    Mode                                     : 16
    Format settings, Endianness              : Big
    Codec ID                                 : A_DTS
    Duration                                 : 1h 54mn
    Bit rate mode                            : Variable / Constant
    Bit rate                                 : Unknown / 1 509 Kbps
    Channel(s)                               : 8 channels / 6 channels
    Channel positions                        : Front: L C R, Side: L R, Back: L R, LFE / Front: L C R, Side: L R, LFE
    Sampling rate                            : 48.0 KHz
    Frame rate                               : 93.750 fps (512 spf)
    Bit depth                                : 24 bits
    Compression mode                         : Lossless / Lossy
    Title                                    : Doctor.Strange.2016.1080p.3D.BluRay.Half-SBS.x264.DTS-HD.MA.7.1-FGT
    Language                                 : English
    Default                                  : Yes
    Forced                                   : No

    Audio #2
    ID                                       : 3
    Format                                   : AC-3
    Format/Info                              : Audio Coding 3
    Mode extension                           : CM (complete main)
    Format settings, Endianness              : Big
    Codec ID                                 : A_AC3
    Duration                                 : 1h 54mn
    Bit rate mode                            : Constant
    Bit rate                                 : 320 Kbps
    Channel(s)                               : 2 channels
    Channel positions                        : Front: L R
    Sampling rate                            : 48.0 KHz
    Frame rate                               : 31.250 fps (1536 spf)
    Compression mode                         : Lossy
    Stream size                              : 263 MiB (1%)
    Title                                    : Doctor.Strange.2016.1080p.3D.BluRay.Half-SBS.x264.DTS-HD.MA.7.1-FGT
    Language                                 : English
    Default                                  : No
    Forced                                   : No

    Audio #3
    ID                                       : 4
    Format                                   : AC-3
    Format/Info                              : Audio Coding 3
    Mode extension                           : CM (complete main)
    Format settings, Endianness              : Big
    Codec ID                                 : A_AC3
    Duration                                 : 1h 54mn
    Bit rate mode                            : Constant
    Bit rate                                 : 640 Kbps
    Channel(s)                               : 6 channels
    Channel positions                        : Front: L C R, Side: L R, LFE
    Sampling rate                            : 48.0 KHz
    Frame rate                               : 31.250 fps (1536 spf)
    Compression mode                         : Lossy
    Stream size                              : 526 MiB (3%)
    Title                                    : Doctor.Strange.2016.1080p.3D.BluRay.Half-SBS.x264.DTS-HD.MA.7.1-FGT
    Language                                 : French
    Default                                  : No
    Forced                                   : No

    Audio #4
    ID                                       : 5
    Format                                   : AC-3
    Format/Info                              : Audio Coding 3
    Mode extension                           : CM (complete main)
    Format settings, Endianness              : Big
    Codec ID                                 : A_AC3
    Duration                                 : 1h 54mn
    Bit rate mode                            : Constant
    Bit rate                                 : 640 Kbps
    Channel(s)                               : 6 channels
    Channel positions                        : Front: L C R, Side: L R, LFE
    Sampling rate                            : 48.0 KHz
    Frame rate                               : 31.250 fps (1536 spf)
    Compression mode                         : Lossy
    Stream size                              : 526 MiB (3%)
    Title                                    : Doctor.Strange.2016.1080p.3D.BluRay.Half-SBS.x264.DTS-HD.MA.7.1-FGT
    Language                                 : Spanish
    Default                                  : No
    Forced                                   : No

    Audio #5
    ID                                       : 6
    Format                                   : DTS
    Format/Info                              : Digital Theater Systems
    Mode                                     : 16
    Format settings, Endianness              : Big
    Codec ID                                 : A_DTS
    Duration                                 : 1h 54mn
    Bit rate mode                            : Constant
    Bit rate                                 : 1 509 Kbps
    Channel(s)                               : 6 channels
    Channel positions                        : Front: L C R, Side: L R, LFE
    Sampling rate                            : 48.0 KHz
    Frame rate                               : 93.750 fps (512 spf)
    Bit depth                                : 24 bits
    Compression mode                         : Lossy
    Stream size                              : 1.21 GiB (6%)
    Title                                    : Doctor.Strange.2016.1080p.3D.BluRay.Half-SBS.x264.DTS-HD.MA.7.1-FGT
    Language                                 : English
    Default                                  : No
    Forced                                   : No

    Text #1
    ID                                       : 7
    Format                                   : PGS
    Muxing mode                              : zlib
    Codec ID                                 : S_HDMV/PGS
    Codec ID/Info                            : Picture based subtitle format used on BDs/HD-DVDs
    Title                                    : English-PGS
    Language                                 : English
    Default                                  : Yes
    Forced                                   : No

    Text #2
    ID                                       : 8
    Format                                   : PGS
    Muxing mode                              : zlib
    Codec ID                                 : S_HDMV/PGS
    Codec ID/Info                            : Picture based subtitle format used on BDs/HD-DVDs
    Title                                    : French-PGS
    Language                                 : French
    Default                                  : No
    Forced                                   : No

    Text #3
    ID                                       : 9
    Format                                   : PGS
    Muxing mode                              : zlib
    Codec ID                                 : S_HDMV/PGS
    Codec ID/Info                            : Picture based subtitle format used on BDs/HD-DVDs
    Title                                    : Spanish-PGS
    Language                                 : Spanish
    Default                                  : No
    Forced                                   : No

    Text #4
    ID                                       : 10
    Format                                   : PGS
    Muxing mode                              : zlib
    Codec ID                                 : S_HDMV/PGS
    Codec ID/Info                            : Picture based subtitle format used on BDs/HD-DVDs
    Title                                    : French-FORCED-PGS
    Language                                 : French
    Default                                  : No
    Forced                                   : No

    Text #5
    ID                                       : 11
    Format                                   : PGS
    Muxing mode                              : zlib
    Codec ID                                 : S_HDMV/PGS
    Codec ID/Info                            : Picture based subtitle format used on BDs/HD-DVDs
    Title                                    : Spanish-FORCED-PGS
    Language                                 : Spanish
    Default                                  : No
    Forced                                   : No





    25995556828114043455_thumb.jpg

    56799630582391810102_thumb.jpg

    57113885394505013731_thumb.jpg

    80756579192187219717_thumb.jpg

    81435515991471120510_thumb.jpg

    90094216132346453046_thumb.jpg




    游客,如果您要查看本帖隐藏内容请回复



    Video
    ID                                       : 1
    Format                                   : AVC
    Format/Info                              : Advanced Video Codec
    Format profile                           : High@L4.1
    Format settings, CABAC                   : Yes
    Format settings, ReFrames                : 2 frames
    Codec ID                                 : V_MPEG4/ISO/AVC
    Duration                                 : 1h 54mn
    Nominal bit rate                         : 16.0 Mbps
    Width                                    : 1 920 pixels
    Height                                   : 1 080 pixels
    Display aspect ratio                     : 16:9
    Frame rate mode                          : Constant
    Frame rate                               : 23.976 (24000/1001) fps
    Color space                              : YUV
    Chroma subsampling                       : 4:2:0
    Bit depth                                : 8 bits
    Scan type                                : Progressive
    Bits/(Pixel*Frame)                       : 0.322
    Title                                    : Doctor.Strange.2016.1080p.3D.BluRay.Half-OU.x264.DTS-HD.MA.7.1-FGT
    Writing library                          : x264 core 142
    Encoding settings                        : cabac=1 / ref=1 / deblock=1:-1:-1 / analyse=0x3:0 / me=hex / subme=5 / psy=0 / mixed_ref=0 / me_range=16 / chroma_me=1 / trellis=0 / 8x8dct=1 / cqm=0 / deadzone=21,11 / fast_pskip=0 / chroma_qp_offset=0 / threads=8 / lookahead_threads=2 / sliced_threads=0 / nr=0 / decimate=1 / interlaced=0 / bluray_compat=0 / constrained_intra=0 / bframes=2 / b_pyramid=0 / b_adapt=1 / b_bias=0 / direct=1 / weightb=0 / open_gop=0 / weightp=0 / keyint=24 / keyint_min=13 / scenecut=40 / intra_refresh=0 / rc=abr / mbtree=0 / bitrate=16000 / ratetol=1.0 / qcomp=0.60 / qpmin=0 / qpmax=69 / qpstep=4 / ip_ratio=1.40 / pb_ratio=1.30 / aq=1:1.00
    Default                                  : Yes
    Forced                                   : No
    Color range                              : Limited
    Color primaries                          : BT.709
    Transfer characteristics                 : BT.709
    Matrix coefficients                      : BT.709

    Audio #1
    ID                                       : 2
    Format                                   : DTS
    Format/Info                              : Digital Theater Systems
    Format profile                           : MA / Core
    Mode                                     : 16
    Format settings, Endianness              : Big
    Codec ID                                 : A_DTS
    Duration                                 : 1h 54mn
    Bit rate mode                            : Variable / Constant
    Bit rate                                 : Unknown / 1 509 Kbps
    Channel(s)                               : 8 channels / 6 channels
    Channel positions                        : Front: L C R, Side: L R, Back: L R, LFE / Front: L C R, Side: L R, LFE
    Sampling rate                            : 48.0 KHz
    Frame rate                               : 93.750 fps (512 spf)
    Bit depth                                : 24 bits
    Compression mode                         : Lossless / Lossy
    Title                                    : Doctor.Strange.2016.1080p.3D.BluRay.Half-OU.x264.DTS-HD.MA.7.1-FGT
    Language                                 : English
    Default                                  : Yes
    Forced                                   : No

    Audio #2
    ID                                       : 3
    Format                                   : DTS
    Format/Info                              : Digital Theater Systems
    Mode                                     : 16
    Format settings, Endianness              : Big
    Codec ID                                 : A_DTS
    Duration                                 : 1h 54mn
    Bit rate mode                            : Constant
    Bit rate                                 : 1 509 Kbps
    Channel(s)                               : 6 channels
    Channel positions                        : Front: L C R, Side: L R, LFE
    Sampling rate                            : 48.0 KHz
    Frame rate                               : 93.750 fps (512 spf)
    Bit depth                                : 24 bits
    Compression mode                         : Lossy
    Stream size                              : 1.21 GiB (6%)
    Title                                    : Doctor.Strange.2016.1080p.3D.BluRay.Half-OU.x264.DTS-HD.MA.7.1-FGT
    Language                                 : English
    Default                                  : No
    Forced                                   : No

    Audio #3
    ID                                       : 4
    Format                                   : AC-3
    Format/Info                              : Audio Coding 3
    Mode extension                           : CM (complete main)
    Format settings, Endianness              : Big
    Codec ID                                 : A_AC3
    Duration                                 : 1h 54mn
    Bit rate mode                            : Constant
    Bit rate                                 : 320 Kbps
    Channel(s)                               : 2 channels
    Channel positions                        : Front: L R
    Sampling rate                            : 48.0 KHz
    Frame rate                               : 31.250 fps (1536 spf)
    Compression mode                         : Lossy
    Stream size                              : 263 MiB (1%)
    Title                                    : Doctor.Strange.2016.1080p.3D.BluRay.Half-OU.x264.DTS-HD.MA.7.1-FGT
    Language                                 : English
    Default                                  : No
    Forced                                   : No

    Audio #4
    ID                                       : 5
    Format                                   : AC-3
    Format/Info                              : Audio Coding 3
    Mode extension                           : CM (complete main)
    Format settings, Endianness              : Big
    Codec ID                                 : A_AC3
    Duration                                 : 1h 54mn
    Bit rate mode                            : Constant
    Bit rate                                 : 640 Kbps
    Channel(s)                               : 6 channels
    Channel positions                        : Front: L C R, Side: L R, LFE
    Sampling rate                            : 48.0 KHz
    Frame rate                               : 31.250 fps (1536 spf)
    Compression mode                         : Lossy
    Stream size                              : 526 MiB (3%)
    Title                                    : Doctor.Strange.2016.1080p.3D.BluRay.Half-OU.x264.DTS-HD.MA.7.1-FGT
    Language                                 : French
    Default                                  : No
    Forced                                   : No

    Audio #5
    ID                                       : 6
    Format                                   : AC-3
    Format/Info                              : Audio Coding 3
    Mode extension                           : CM (complete main)
    Format settings, Endianness              : Big
    Codec ID                                 : A_AC3
    Duration                                 : 1h 54mn
    Bit rate mode                            : Constant
    Bit rate                                 : 640 Kbps
    Channel(s)                               : 6 channels
    Channel positions                        : Front: L C R, Side: L R, LFE
    Sampling rate                            : 48.0 KHz
    Frame rate                               : 31.250 fps (1536 spf)
    Compression mode                         : Lossy
    Stream size                              : 526 MiB (3%)
    Title                                    : Doctor.Strange.2016.1080p.3D.BluRay.Half-OU.x264.DTS-HD.MA.7.1-FGT
    Language                                 : Spanish
    Default                                  : No
    Forced                                   : No

    Text #1
    ID                                       : 7
    Format                                   : PGS
    Muxing mode                              : zlib
    Codec ID                                 : S_HDMV/PGS
    Codec ID/Info                            : Picture based subtitle format used on BDs/HD-DVDs
    Title                                    : English-PGS
    Language                                 : English
    Default                                  : Yes
    Forced                                   : No

    Text #2
    ID                                       : 8
    Format                                   : PGS
    Muxing mode                              : zlib
    Codec ID                                 : S_HDMV/PGS
    Codec ID/Info                            : Picture based subtitle format used on BDs/HD-DVDs
    Title                                    : French-PGS
    Language                                 : French
    Default                                  : No
    Forced                                   : No

    Text #3
    ID                                       : 9
    Format                                   : PGS
    Muxing mode                              : zlib
    Codec ID                                 : S_HDMV/PGS
    Codec ID/Info                            : Picture based subtitle format used on BDs/HD-DVDs
    Title                                    : Spanish-PGS
    Language                                 : Spanish
    Default                                  : No
    Forced                                   : No

    Text #4
    ID                                       : 10
    Format                                   : PGS
    Muxing mode                              : zlib
    Codec ID                                 : S_HDMV/PGS
    Codec ID/Info                            : Picture based subtitle format used on BDs/HD-DVDs
    Title                                    : French-FORCED-PGS
    Language                                 : French
    Default                                  : No
    Forced                                   : No

    Text #5
    ID                                       : 11
    Format                                   : PGS
    Muxing mode                              : zlib
    Codec ID                                 : S_HDMV/PGS
    Codec ID/Info                            : Picture based subtitle format used on BDs/HD-DVDs
    Title                                    : Spanish-PGS
    Language                                 : Spanish
    Default                                  : No
    Forced                                   : No





    14933821010992104537_thumb.jpg

    26177839018785807091_thumb.jpg

    33770581822062218739_thumb.jpg

    51027791397454601084_thumb.jpg

    85562395297641551364_thumb.jpg

    87751059052245541289_thumb.jpg




    游客,如果您要查看本帖隐藏内容请回复




    Video
    ID                                       : 1
    Format                                   : AVC
    Format/Info                              : Advanced Video Codec
    Format profile                           : High@L4.1
    Format settings, CABAC                   : Yes
    Format settings, ReFrames                : 4 frames
    Codec ID                                 : V_MPEG4/ISO/AVC
    Duration                                 : 1h 54mn
    Bit rate                                 : 9 385 Kbps
    Width                                    : 1 920 pixels
    Height                                   : 1 016 pixels
    Display aspect ratio                     : 1.890
    Frame rate mode                          : Constant
    Frame rate                               : 23.976 fps
    Color space                              : YUV
    Chroma subsampling                       : 4:2:0
    Bit depth                                : 8 bits
    Scan type                                : Progressive
    Bits/(Pixel*Frame)                       : 0.201
    Stream size                              : 7.53 GiB (86%)
    Writing library                          : x264 core 148 r2744 b97ae06
    Encoding settings                        : cabac=1 / ref=4 / deblock=1:0:0 / analyse=0x3:0x133 / me=umh / subme=7 / psy=1 / psy_rd=1.00:0.00 / mixed_ref=1 / me_range=16 / chroma_me=1 / trellis=1 / 8x8dct=1 / cqm=0 / deadzone=21,11 / fast_pskip=0 / chroma_qp_offset=-2 / threads=24 / lookahead_threads=4 / sliced_threads=0 / nr=0 / decimate=1 / interlaced=0 / bluray_compat=0 / constrained_intra=0 / bframes=3 / b_pyramid=2 / b_adapt=1 / b_bias=0 / direct=1 / weightb=1 / open_gop=0 / weightp=2 / keyint=250 / keyint_min=23 / scenecut=40 / intra_refresh=0 / rc_lookahead=40 / rc=2pass / mbtree=1 / bitrate=9385 / ratetol=1.0 / qcomp=0.60 / qpmin=0 / qpmax=69 / qpstep=4 / cplxblur=20.0 / qblur=0.5 / ip_ratio=1.40 / aq=1:1.00
    Language                                 : English
    Default                                  : Yes
    Forced                                   : No

    Audio
    ID                                       : 2
    Format                                   : DTS
    Format/Info                              : Digital Theater Systems
    Mode                                     : 16
    Format settings, Endianness              : Big
    Codec ID                                 : A_DTS
    Duration                                 : 1h 54mn
    Bit rate mode                            : Constant
    Bit rate                                 : 1 509 Kbps
    Channel(s)                               : 6 channels
    Channel positions                        : Front: L C R, Side: L R, LFE
    Sampling rate                            : 48.0 KHz
    Frame rate                               : 93.750 fps (512 spf)
    Bit depth                                : 24 bits
    Compression mode                         : Lossy
    Stream size                              : 1.21 GiB (14%)
    Language                                 : English
    Default                                  : Yes
    Forced                                   : No





    64432591768003627986_thumb.jpg


    游客,如果您要查看本帖隐藏内容请回复



    Качество: BDRip (1080p)
    Формат 3D: Half SideBySide / Горизонтальная анаморфная стереопара
    Порядок ракурсов: Левый-первый
    Вид субтитров: отсутствует
    Видео: AVC/H,264, 1920x1016 (2.40:1), 9385 Kbps , 23.976 fps
    Аудио 1: AC3, 6 ch, 384 kbps | русский
    Аудио 2: DTS, 6 ch, 1510 kbps | английский





    游客,如果您要查看本帖隐藏内容请回复



    Формат 3D: Half OverUnder / Вертикальная анаморфная стереопара
    Порядок ракурсов: левый ракурс первый
    Язык субтитров: русские (форсированные, полные), английские (полные)
    Вид субтитров: вшитые отключаемые
    Видео: AVC/H.264, 1920x1080, ~10000 kbps
    Аудио: AC3, 6 ch, 384 kbps - русский
    Аудио: DTS, 6 ch, 1509 kbps - английский



    游客,如果您要查看本帖隐藏内容请回复








  • TA的每日心情
    郁闷
    2017-2-19 10:47
  • 签到天数: 183 天

    [LV.7]常住居民III

    发表于 2017-2-19 10:49:59 | 显示全部楼层
    等了很久了,谢谢LZ分享不知道有没字幕
    回复 支持 反对

    使用道具 举报

  • TA的每日心情
    开心
    昨天 19:33
  • 签到天数: 1346 天

    [LV.10]以坛为家III

    发表于 2017-2-19 10:50:34 | 显示全部楼层
    现在看看现在看看
    回复 支持 反对

    使用道具 举报

  • TA的每日心情
    奋斗
    昨天 08:25
  • 签到天数: 330 天

    [LV.8]以坛为家III

    发表于 2017-2-19 10:51:53 | 显示全部楼层
    终于有了,谢谢楼主分享!!!
    回复 支持 反对

    使用道具 举报

  • TA的每日心情
    奋斗
    昨天 08:25
  • 签到天数: 330 天

    [LV.8]以坛为家III

    发表于 2017-2-19 10:53:16 | 显示全部楼层
    终于有了,谢谢楼主分享!!!
    回复 支持 反对

    使用道具 举报

  • TA的每日心情
    奋斗
    昨天 00:43
  • 签到天数: 190 天

    [LV.7]常住居民III

    发表于 2017-2-19 10:53:58 | 显示全部楼层
    谢谢楼主分享
    回复 支持 反对

    使用道具 举报

  • TA的每日心情
    难过
    昨天 23:31
  • 签到天数: 151 天

    [LV.7]常住居民III

    发表于 2017-2-19 11:15:29 | 显示全部楼层
    终于等到了,好久没3d片了
    回复 支持 反对

    使用道具 举报

  • TA的每日心情
    开心
    2017-8-26 18:45
  • 签到天数: 554 天

    [LV.9]以坛为家II

    发表于 2017-2-19 11:30:20 | 显示全部楼层
    又有新片了!
    回复 支持 反对

    使用道具 举报

  • TA的每日心情
    开心
    昨天 10:07
  • 签到天数: 781 天

    [LV.10]以坛为家III

    发表于 2017-2-19 11:36:57 | 显示全部楼层

    又有新片了!
    回复 支持 反对

    使用道具 举报

    高级模式
    B Color Image Link Quote Code Smilies

    本版积分规则

    免责申明|小黑屋|手机版|Archiver|网站地图| 3D一族论坛  

    Copyright © 2001-2015 Comsenz Inc.   All Rights Reserved.

    Powered by Discuz! X3.2( 沪ICP备14045620号-1 )

    快速回复 返回顶部 返回列表