请选择 进入手机版 | 继续访问电脑版
 找回密码

3D一族论坛

查看: 4777|回复: 487

[左右] [海洋奇缘3D/莫阿娜 Moana.2016.3D][1080p][MKV 17.48G/17.84G/8.14G/5.46G][BT]

  [复制链接]
  • TA的每日心情
    开心
    4 天前
  • 签到天数: 1642 天

    [LV.Master]伴坛终老

    发表于 2017-2-19 11:12:12 | 显示全部楼层 |阅读模式
    影片截图:

    data/attachment/forum/201702/19/110821a5k6rzde0hpd1oe6.jpg

         
      片        名: Moana.2016.3D
      译        名: 海洋奇缘3D / 莫阿娜 / 摩阿娜 / 摩瓦娜
      类        别: 喜剧 冒险 动漫 
      国        家: 欧美
      语        言: 英语
      字        幕: N/A
      集        数:
      文件格式: MKV
      视频尺寸: 1920*1080
      文件大小: 17.48GB/17.84GB/8.14GB/5.46GB
      上映时间: 2016-11-25(中国大陆) / 2016-11-23(美国)
      影片导演: 罗恩·克莱蒙兹 / 约翰·马斯克
      主要演员: 奥丽伊·卡瓦洛 Auli\'i Cravalho
        道恩·强森 Dwayne Johnson
        艾伦·图代克 Alan Tudyk
      推荐等级: ★★★★★
         
    下载地址:
    [下载方式]: bt下载
    [分辨率]: 1080p
    [迅雷地址]:
    [网盘下载]:
    影片简介: fangfang
    故事最早始于住在风和海的半神毛伊(道恩·强森 Dwayne Johnson 配音),他偷走了女神的特菲堤之心,导致岩浆魔鬼厄卡陷入疯狂的状态,南太平洋各小岛也面临着毁灭的威胁。一千多年后,某座小岛上的酋长女儿莫阿娜(奥丽依·卡拉瓦霍 Auli\'i Cravalho 配音)在父母的呵护下渐渐长大,童年时她曾偶然捡到特菲堤之心,亦曾受到大海的召唤,然而父亲却严厉禁止莫阿娜出海,即使小岛正遭受着死亡的威胁。从奶奶那里,莫阿娜知晓了他们这一族人的历史,于是为了拯救小岛,她依然出海去寻找被困在某地的毛伊,好让他归还特菲堤之心。历经千辛万苦,莫阿娜终于见到了这个传说中的高傲自大的半神。而毛伊则担心特菲堤之心带来霉运拒绝前往。  只不过在命运的指引下,毛伊还是随着莫阿娜踏上未知的征途……
    本帖最后由 xdwl 于 2017-2-24 16:41 编辑

    169739_front.jpg

    172007_front.jpg

    ◎译  名 海洋奇缘 / 莫阿娜 / 摩阿娜 / 摩瓦娜

    ◎片  名 海洋奇缘 Moana
    ◎年  代 2016
    ◎国  家 美国
    ◎类  别 喜剧 / 动画 / 歌舞 / 家庭 / 奇幻 / 冒险
    ◎语  言 英语
    ◎上映日期 2016-11-25(中国大陆) / 2016-11-23(美国)
    ◎IMDb评分  7.9/10 from 53,047 users
    ◎IMDb链接  http://www.imdb.com/title/tt3521164/
    ◎豆瓣评分 7.7/10 from 35618 users
    ◎豆瓣链接 https://movie.douban.com/subject/25793398/
    ◎片  长 107分钟
    ◎导  演 罗恩·克莱蒙兹 / 约翰·马斯克
    ◎主  演 奥丽伊·卡瓦洛 Auli'i Cravalho
          道恩·强森 Dwayne Johnson
          艾伦·图代克 Alan Tudyk
          杰梅奈·克莱门特 Jemaine Clement
          尼可·斯彻金格 Nicole Scherzinger
          特穆拉·莫里森 Temuera Morrison
          瑞切尔·豪斯 Rachel House
          奥斯卡·凯特利 Oscar Kightley
          特洛伊·波拉马鲁 Troy Polamalu

    ◎简  介 

      故事最早始于住在风和海的半神毛伊(道恩·强森 Dwayne Johnson 配音),他偷走了女神的特菲堤之心,导致岩浆魔鬼厄卡陷入疯狂的状态,南太平洋各小岛也面临着毁灭的威胁。一千多年后,某座小岛上的酋长女儿莫阿娜(奥丽依·卡拉瓦霍 Auli'i Cravalho 配音)在父母的呵护下渐渐长大,童年时她曾偶然捡到特菲堤之心,亦曾受到大海的召唤,然而父亲却严厉禁止莫阿娜出海,即使小岛正遭受着死亡的威胁。从奶奶那里,莫阿娜知晓了他们这一族人的历史,于是为了拯救小岛,她依然出海去寻找被困在某地的毛伊,好让他归还特菲堤之心。历经千辛万苦,莫阿娜终于见到了这个传说中的高傲自大的半神。而毛伊则担心特菲堤之心带来霉运拒绝前往。  只不过在命运的指引下,毛伊还是随着莫阿娜踏上未知的征途……            


    获奖情况


      第89届奥斯卡金像奖  (2017)
      最佳动画长片(提名)
      最佳原创歌曲(提名)


      第74届金球奖  (2017)
      电影类 最佳动画长片(提名)
      电影类 最佳原创歌曲(提名)


      第70届英国电影学院奖  (2017)
      电影奖 最佳动画片(提名)


      第44届动画安妮奖  (2017)
      最佳动画长片(提名)
      最佳配音 奥丽伊·卡瓦洛
      最佳分镜(提名)
      最佳角色设计(提名)
      最佳剪辑(提名)
      最佳动画效果


      第28届美国制片人工会奖  (2017)
      最佳动画片制片人奖(提名)


      第67届美国剪辑工会奖  (2017)
      动画片最佳剪辑(提名)


      第15届美国视觉效果协会奖  (2017)
      最佳动画电影视觉效果(提名)
      最佳动画电影CG动画角色(提名)
      最佳动画电影CG背景
      最佳动画电影模拟动画效果


      第22届美国评论家选择电影奖  (2016)
      最佳歌曲(提名)
      最佳动画片(提名)


      第15届华盛顿影评人协会奖  (2016)
      最佳动画片(提名)
      最佳配音(提名) 奥丽伊·卡瓦洛


    Video
    ID                                       : 1
    Format                                   : AVC
    Format/Info                              : Advanced Video Codec
    Format profile                           : High@L4.1
    Format settings, CABAC                   : Yes
    Format settings, ReFrames                : 2 frames
    Codec ID                                 : V_MPEG4/ISO/AVC
    Duration                                 : 1h 47mn
    Nominal bit rate                         : 15.5 Mbps
    Width                                    : 1 920 pixels
    Height                                   : 1 080 pixels
    Display aspect ratio                     : 16:9
    Frame rate mode                          : Constant
    Frame rate                               : 23.976 (24000/1001) fps
    Color space                              : YUV
    Chroma subsampling                       : 4:2:0
    Bit depth                                : 8 bits
    Scan type                                : Progressive
    Bits/(Pixel*Frame)                       : 0.312
    Title                                    : Moana.2016.1080p.3D.BluRay.Half-SBS.x264.DTS-HD.MA.7.1-FGT
    Writing library                          : x264 core 142
    Encoding settings                        : cabac=1 / ref=1 / deblock=1:-1:-1 / analyse=0x3:0 / me=hex / subme=5 / psy=0 / mixed_ref=0 / me_range=16 / chroma_me=1 / trellis=0 / 8x8dct=1 / cqm=0 / deadzone=21,11 / fast_pskip=0 / chroma_qp_offset=0 / threads=8 / lookahead_threads=2 / sliced_threads=0 / nr=0 / decimate=1 / interlaced=0 / bluray_compat=0 / constrained_intra=0 / bframes=2 / b_pyramid=0 / b_adapt=1 / b_bias=0 / direct=1 / weightb=0 / open_gop=0 / weightp=0 / keyint=24 / keyint_min=13 / scenecut=40 / intra_refresh=0 / rc=abr / mbtree=0 / bitrate=15500 / ratetol=1.0 / qcomp=0.60 / qpmin=0 / qpmax=69 / qpstep=4 / ip_ratio=1.40 / pb_ratio=1.30 / aq=1:1.00
    Default                                  : Yes
    Forced                                   : No
    Color range                              : Limited
    Color primaries                          : BT.709
    Transfer characteristics                 : BT.709
    Matrix coefficients                      : BT.709

    Audio #1
    ID                                       : 2
    Format                                   : DTS
    Format/Info                              : Digital Theater Systems
    Format profile                           : MA / Core
    Mode                                     : 16
    Format settings, Endianness              : Big
    Codec ID                                 : A_DTS
    Duration                                 : 1h 47mn
    Bit rate mode                            : Variable / Constant
    Bit rate                                 : Unknown / 1 509 Kbps
    Channel(s)                               : 8 channels / 6 channels
    Channel positions                        : Front: L C R, Side: L R, Back: L R, LFE / Front: L C R, Side: L R, LFE
    Sampling rate                            : 48.0 KHz
    Frame rate                               : 93.750 fps (512 spf)
    Bit depth                                : 24 bits
    Compression mode                         : Lossless / Lossy
    Title                                    : Moana.2016.1080p.3D.BluRay.Half-SBS.x264.DTS-HD.MA.7.1-FGT
    Language                                 : English
    Default                                  : Yes
    Forced                                   : No

    Audio #2
    ID                                       : 3
    Format                                   : DTS
    Format/Info                              : Digital Theater Systems
    Mode                                     : 16
    Format settings, Endianness              : Big
    Codec ID                                 : A_DTS
    Duration                                 : 1h 47mn
    Bit rate mode                            : Constant
    Bit rate                                 : 1 509 Kbps
    Channel(s)                               : 6 channels
    Channel positions                        : Front: L C R, Side: L R, LFE
    Sampling rate                            : 48.0 KHz
    Frame rate                               : 93.750 fps (512 spf)
    Bit depth                                : 24 bits
    Compression mode                         : Lossy
    Stream size                              : 1.13 GiB (6%)
    Title                                    : Moana.2016.1080p.3D.BluRay.Half-SBS.x264.DTS-HD.MA.7.1-FGT
    Language                                 : English
    Default                                  : No
    Forced                                   : No

    Audio #3
    ID                                       : 4
    Format                                   : AC-3
    Format/Info                              : Audio Coding 3
    Mode extension                           : CM (complete main)
    Format settings, Endianness              : Big
    Codec ID                                 : A_AC3
    Duration                                 : 1h 47mn
    Bit rate mode                            : Constant
    Bit rate                                 : 320 Kbps
    Channel(s)                               : 2 channels
    Channel positions                        : Front: L R
    Sampling rate                            : 48.0 KHz
    Frame rate                               : 31.250 fps (1536 spf)
    Compression mode                         : Lossy
    Stream size                              : 245 MiB (1%)
    Title                                    : Moana.2016.1080p.3D.BluRay.Half-SBS.x264.DTS-HD.MA.7.1-FGT
    Language                                 : English
    Default                                  : No
    Forced                                   : No

    Audio #4
    ID                                       : 5
    Format                                   : AC-3
    Format/Info                              : Audio Coding 3
    Mode extension                           : CM (complete main)
    Format settings, Endianness              : Big
    Codec ID                                 : A_AC3
    Duration                                 : 1h 47mn
    Bit rate mode                            : Constant
    Bit rate                                 : 640 Kbps
    Channel(s)                               : 6 channels
    Channel positions                        : Front: L C R, Side: L R, LFE
    Sampling rate                            : 48.0 KHz
    Frame rate                               : 31.250 fps (1536 spf)
    Compression mode                         : Lossy
    Stream size                              : 491 MiB (3%)
    Title                                    : Moana.2016.1080p.3D.BluRay.Half-SBS.x264.DTS-HD.MA.7.1-FGT
    Language                                 : French
    Default                                  : No
    Forced                                   : No

    Audio #5
    ID                                       : 6
    Format                                   : AC-3
    Format/Info                              : Audio Coding 3
    Mode extension                           : CM (complete main)
    Format settings, Endianness              : Big
    Codec ID                                 : A_AC3
    Duration                                 : 1h 47mn
    Bit rate mode                            : Constant
    Bit rate                                 : 640 Kbps
    Channel(s)                               : 6 channels
    Channel positions                        : Front: L C R, Side: L R, LFE
    Sampling rate                            : 48.0 KHz
    Frame rate                               : 31.250 fps (1536 spf)
    Compression mode                         : Lossy
    Stream size                              : 491 MiB (3%)
    Title                                    : Moana.2016.1080p.3D.BluRay.Half-SBS.x264.DTS-HD.MA.7.1-FGT
    Language                                 : Spanish
    Default                                  : No
    Forced                                   : No

    Text #1
    ID                                       : 7
    Format                                   : PGS
    Muxing mode                              : zlib
    Codec ID                                 : S_HDMV/PGS
    Codec ID/Info                            : Picture based subtitle format used on BDs/HD-DVDs
    Title                                    : English-PGS
    Language                                 : English
    Default                                  : Yes
    Forced                                   : No

    Text #2
    ID                                       : 8
    Format                                   : PGS
    Muxing mode                              : zlib
    Codec ID                                 : S_HDMV/PGS
    Codec ID/Info                            : Picture based subtitle format used on BDs/HD-DVDs
    Title                                    : English-SDH-PGS
    Language                                 : English
    Default                                  : No
    Forced                                   : No

    Text #3
    ID                                       : 9
    Format                                   : PGS
    Muxing mode                              : zlib
    Codec ID                                 : S_HDMV/PGS
    Codec ID/Info                            : Picture based subtitle format used on BDs/HD-DVDs
    Title                                    : French-PGS
    Language                                 : French
    Default                                  : No
    Forced                                   : No

    Text #4
    ID                                       : 10
    Format                                   : PGS
    Muxing mode                              : zlib
    Codec ID                                 : S_HDMV/PGS
    Codec ID/Info                            : Picture based subtitle format used on BDs/HD-DVDs
    Title                                    : Spanish-PGS
    Language                                 : Spanish
    Default                                  : No
    Forced                                   : No

    Text #5
    ID                                       : 11
    Format                                   : PGS
    Muxing mode                              : zlib
    Codec ID                                 : S_HDMV/PGS
    Codec ID/Info                            : Picture based subtitle format used on BDs/HD-DVDs
    Title                                    : French-FORCED-PGS
    Language                                 : French
    Default                                  : No
    Forced                                   : No

    Text #6
    ID                                       : 12
    Format                                   : PGS
    Muxing mode                              : zlib
    Codec ID                                 : S_HDMV/PGS
    Codec ID/Info                            : Picture based subtitle format used on BDs/HD-DVDs
    Title                                    : Spanish-FORCED-PGS
    Language                                 : Spanish
    Default                                  : No
    Forced                                   : No


    02843466263058405930_thumb.jpg

    17565955598330085031_thumb.jpg

    43014702956502905963_thumb.jpg

    59029817887959272432_thumb.jpg

    74950754308275384469_thumb.jpg

    82151495272421410354_thumb.jpg
    游客,如果您要查看本帖隐藏内容请回复




    Video
    ID                                       : 1
    Format                                   : AVC
    Format/Info                              : Advanced Video Codec
    Format profile                           : High@L4.1
    Format settings, CABAC                   : Yes
    Format settings, ReFrames                : 2 frames
    Codec ID                                 : V_MPEG4/ISO/AVC
    Duration                                 : 1h 47mn
    Nominal bit rate                         : 16.0 Mbps
    Width                                    : 1 920 pixels
    Height                                   : 1 080 pixels
    Display aspect ratio                     : 16:9
    Frame rate mode                          : Constant
    Frame rate                               : 23.976 (24000/1001) fps
    Color space                              : YUV
    Chroma subsampling                       : 4:2:0
    Bit depth                                : 8 bits
    Scan type                                : Progressive
    Bits/(Pixel*Frame)                       : 0.322
    Title                                    : Moana.2016.1080p.3D.BluRay.Half-OU.x264.DTS-HD.MA.7.1-FGT
    Writing library                          : x264 core 142
    Encoding settings                        : cabac=1 / ref=1 / deblock=1:-1:-1 / analyse=0x3:0 / me=hex / subme=5 / psy=0 / mixed_ref=0 / me_range=16 / chroma_me=1 / trellis=0 / 8x8dct=1 / cqm=0 / deadzone=21,11 / fast_pskip=0 / chroma_qp_offset=0 / threads=8 / lookahead_threads=2 / sliced_threads=0 / nr=0 / decimate=1 / interlaced=0 / bluray_compat=0 / constrained_intra=0 / bframes=2 / b_pyramid=0 / b_adapt=1 / b_bias=0 / direct=1 / weightb=0 / open_gop=0 / weightp=0 / keyint=24 / keyint_min=13 / scenecut=40 / intra_refresh=0 / rc=abr / mbtree=0 / bitrate=16000 / ratetol=1.0 / qcomp=0.60 / qpmin=0 / qpmax=69 / qpstep=4 / ip_ratio=1.40 / pb_ratio=1.30 / aq=1:1.00
    Default                                  : Yes
    Forced                                   : No
    Color range                              : Limited
    Color primaries                          : BT.709
    Transfer characteristics                 : BT.709
    Matrix coefficients                      : BT.709

    Audio #1
    ID                                       : 2
    Format                                   : DTS
    Format/Info                              : Digital Theater Systems
    Format profile                           : MA / Core
    Mode                                     : 16
    Format settings, Endianness              : Big
    Codec ID                                 : A_DTS
    Duration                                 : 1h 47mn
    Bit rate mode                            : Variable / Constant
    Bit rate                                 : Unknown / 1 509 Kbps
    Channel(s)                               : 8 channels / 6 channels
    Channel positions                        : Front: L C R, Side: L R, Back: L R, LFE / Front: L C R, Side: L R, LFE
    Sampling rate                            : 48.0 KHz
    Frame rate                               : 93.750 fps (512 spf)
    Bit depth                                : 24 bits
    Compression mode                         : Lossless / Lossy
    Title                                    : Moana.2016.1080p.3D.BluRay.Half-OU.x264.DTS-HD.MA.7.1-FGT
    Language                                 : English
    Default                                  : Yes
    Forced                                   : No

    Audio #2
    ID                                       : 3
    Format                                   : DTS
    Format/Info                              : Digital Theater Systems
    Mode                                     : 16
    Format settings, Endianness              : Big
    Codec ID                                 : A_DTS
    Duration                                 : 1h 47mn
    Bit rate mode                            : Constant
    Bit rate                                 : 1 509 Kbps
    Channel(s)                               : 6 channels
    Channel positions                        : Front: L C R, Side: L R, LFE
    Sampling rate                            : 48.0 KHz
    Frame rate                               : 93.750 fps (512 spf)
    Bit depth                                : 24 bits
    Compression mode                         : Lossy
    Stream size                              : 1.13 GiB (6%)
    Title                                    : Moana.2016.1080p.3D.BluRay.Half-OU.x264.DTS-HD.MA.7.1-FGT
    Language                                 : English
    Default                                  : No
    Forced                                   : No

    Audio #3
    ID                                       : 4
    Format                                   : AC-3
    Format/Info                              : Audio Coding 3
    Mode extension                           : CM (complete main)
    Format settings, Endianness              : Big
    Codec ID                                 : A_AC3
    Duration                                 : 1h 47mn
    Bit rate mode                            : Constant
    Bit rate                                 : 320 Kbps
    Channel(s)                               : 2 channels
    Channel positions                        : Front: L R
    Sampling rate                            : 48.0 KHz
    Frame rate                               : 31.250 fps (1536 spf)
    Compression mode                         : Lossy
    Stream size                              : 245 MiB (1%)
    Title                                    : Moana.2016.1080p.3D.BluRay.Half-OU.x264.DTS-HD.MA.7.1-FGT
    Language                                 : English
    Default                                  : No
    Forced                                   : No

    Audio #4
    ID                                       : 5
    Format                                   : AC-3
    Format/Info                              : Audio Coding 3
    Mode extension                           : CM (complete main)
    Format settings, Endianness              : Big
    Codec ID                                 : A_AC3
    Duration                                 : 1h 47mn
    Bit rate mode                            : Constant
    Bit rate                                 : 640 Kbps
    Channel(s)                               : 6 channels
    Channel positions                        : Front: L C R, Side: L R, LFE
    Sampling rate                            : 48.0 KHz
    Frame rate                               : 31.250 fps (1536 spf)
    Compression mode                         : Lossy
    Stream size                              : 491 MiB (3%)
    Title                                    : Moana.2016.1080p.3D.BluRay.Half-OU.x264.DTS-HD.MA.7.1-FGT
    Language                                 : French
    Default                                  : No
    Forced                                   : No

    Audio #5
    ID                                       : 6
    Format                                   : AC-3
    Format/Info                              : Audio Coding 3
    Mode extension                           : CM (complete main)
    Format settings, Endianness              : Big
    Codec ID                                 : A_AC3
    Duration                                 : 1h 47mn
    Bit rate mode                            : Constant
    Bit rate                                 : 640 Kbps
    Channel(s)                               : 6 channels
    Channel positions                        : Front: L C R, Side: L R, LFE
    Sampling rate                            : 48.0 KHz
    Frame rate                               : 31.250 fps (1536 spf)
    Compression mode                         : Lossy
    Stream size                              : 491 MiB (3%)
    Title                                    : Moana.2016.1080p.3D.BluRay.Half-OU.x264.DTS-HD.MA.7.1-FGT
    Language                                 : Spanish
    Default                                  : No
    Forced                                   : No

    Text #1
    ID                                       : 7
    Format                                   : PGS
    Muxing mode                              : zlib
    Codec ID                                 : S_HDMV/PGS
    Codec ID/Info                            : Picture based subtitle format used on BDs/HD-DVDs
    Title                                    : English-PGS
    Language                                 : English
    Default                                  : No
    Forced                                   : No

    Text #2
    ID                                       : 8
    Format                                   : PGS
    Muxing mode                              : zlib
    Codec ID                                 : S_HDMV/PGS
    Codec ID/Info                            : Picture based subtitle format used on BDs/HD-DVDs
    Title                                    : English-SDH-PGS
    Language                                 : English
    Default                                  : No
    Forced                                   : No

    Text #3
    ID                                       : 9
    Format                                   : PGS
    Muxing mode                              : zlib
    Codec ID                                 : S_HDMV/PGS
    Codec ID/Info                            : Picture based subtitle format used on BDs/HD-DVDs
    Title                                    : French-PGS
    Language                                 : French
    Default                                  : No
    Forced                                   : No

    Text #4
    ID                                       : 10
    Format                                   : PGS
    Muxing mode                              : zlib
    Codec ID                                 : S_HDMV/PGS
    Codec ID/Info                            : Picture based subtitle format used on BDs/HD-DVDs
    Title                                    : Spanish-PGS
    Language                                 : Spanish
    Default                                  : No
    Forced                                   : No

    Text #5
    ID                                       : 11
    Format                                   : PGS
    Muxing mode                              : zlib
    Codec ID                                 : S_HDMV/PGS
    Codec ID/Info                            : Picture based subtitle format used on BDs/HD-DVDs
    Title                                    : French-FORCED-PGS
    Language                                 : French
    Default                                  : No
    Forced                                   : No

    Text #6
    ID                                       : 12
    Format                                   : PGS
    Muxing mode                              : zlib
    Codec ID                                 : S_HDMV/PGS
    Codec ID/Info                            : Picture based subtitle format used on BDs/HD-DVDs
    Title                                    : Spanish-FORCED-PGS
    Language                                 : Spanish
    Default                                  : No
    Forced                                   : No





    28943252690078524656_thumb.jpg

    35970213820223608429_thumb.jpg

    11888746064953693908_thumb.jpg

    15055215327079017550_thumb.jpg

    25929036982647627663_thumb.jpg

    66195909454204331475_thumb.jpg


    游客,如果您要查看本帖隐藏内容请回复



    Moana 3D (2016)-alE13.mkv

    Format : Matroska

    Format version : Version 4 / Version 2

    File size : 8.14 GiB

    Duration : 1 h 47 min

    Overall bit rate : 10.9 Mb/s

    Movie name : Moana 3D (2016)-alE13 (1)

    Encoded date : UTC 2017-02-23 18:20:39

    Writing application : mkvmerge v8.1.0 ('Psychedelic Postcard') 64bit

    Writing library : libebml v1.3.1 + libmatroska v1.4.2

    Cover : Yes

    Attachments : cover.jpg


    Video

    ID : 1

    Format : AVC

    Format/Info : Advanced Video Codec

    Format profile : High@L4.1

    Format settings, CABAC : Yes

    Format settings, ReFrames : 2 frames

    Codec ID : V_MPEG4/ISO/AVC

    Duration : 1 h 47 min

    Bit rate : 10.0 Mb/s

    Width : 1 900 pixels

    Height : 804 pixels

    Display aspect ratio : 2.35:1

    Frame rate mode : Constant

    Frame rate : 23.976 (24000/1001) FPS

    Color space : YUV

    Chroma subsampling : 4:2:0

    Bit depth : 8 bits

    Scan type : Progressive

    Bits/(Pixel*Frame) : 0.274

    Stream size : 7.51 GiB (92%)

    Title : Moana 3D (2016)-alE13

    Writing library : x264 core 142

    Default : Yes

    Forced : No

    Color range : Limited

    Color primaries : BT.709

    Transfer characteristics : BT.709

    Matrix coefficients : BT.709


    Audio #1

    ID : 2

    Format : AC-3

    Format/Info : Audio Coding 3

    Mode extension : CM (complete main)

    Format settings, Endianness : Big

    Codec ID : A_AC3

    Duration : 1 h 47 min

    Bit rate mode : Constant

    Bit rate : 192 kb/s

    Channel(s) : 2 channels

    Channel positions : Front: L R

    Sampling rate : 48.0 kHz

    Frame rate : 31.250 FPS (1536 spf)

    Compression mode : Lossy

    Delay relative to video : 800 ms

    Stream size : 147 MiB (2%)

    Title : Moana 3D (2016)-alE13_AC3_audio kino

    Language : Polish

    Default : Yes

    Forced : No


    Audio #2

    ID : 3

    Format : AC-3

    Format/Info : Audio Coding 3

    Mode extension : CM (complete main)

    Format settings, Endianness : Big

    Codec ID : A_AC3

    Duration : 1 h 47 min

    Bit rate mode : Constant

    Bit rate : 640 kb/s

    Channel(s) : 6 channels

    Channel positions : Front: L C R, Side: L R, LFE

    Sampling rate : 48.0 kHz

    Frame rate : 31.250 FPS (1536 spf)

    Compression mode : Lossy

    Stream size : 491 MiB (6%)

    Title : Moana 3D (2016)-alE13_AC3_5,1 ch

    Default : No

    Forced : No







    8hSiFud.jpg

    HoblWzc.jpg

    qA1TyBi.jpg

    UKmyZKV.jpg




    游客,如果您要查看本帖隐藏内容请回复






    Video
    ID                                       : 1
    Format                                   : AVC
    Format/Info                              : Advanced Video Codec
    Format profile                           : High@L4.1
    Format settings, CABAC                   : Yes
    Format settings, ReFrames                : 5 frames
    Codec ID                                 : V_MPEG4/ISO/AVC
    Duration                                 : 1h 47mn
    Bit rate                                 : 5 790 Kbps
    Width                                    : 1 920 pixels
    Height                                   : 808 pixels
    Display aspect ratio                     : 2.40:1
    Frame rate mode                          : Constant
    Frame rate                               : 23.976 fps
    Color space                              : YUV
    Chroma subsampling                       : 4:2:0
    Bit depth                                : 8 bits
    Scan type                                : Progressive
    Bits/(Pixel*Frame)                       : 0.156
    Stream size                              : 4.33 GiB (79%)
    Writing library                          : x264 core 148 r2744 b97ae06
    Encoding settings                        : cabac=1 / ref=5 / deblock=1:0:0 / analyse=0x3:0x133 / me=umh / subme=7 / psy=1 / psy_rd=1.00:0.00 / mixed_ref=1 / me_range=16 / chroma_me=1 / trellis=1 / 8x8dct=1 / cqm=0 / deadzone=21,11 / fast_pskip=0 / chroma_qp_offset=-2 / threads=24 / lookahead_threads=4 / sliced_threads=0 / nr=0 / decimate=1 / interlaced=0 / bluray_compat=0 / constrained_intra=0 / bframes=3 / b_pyramid=2 / b_adapt=1 / b_bias=0 / direct=1 / weightb=1 / open_gop=0 / weightp=2 / keyint=250 / keyint_min=23 / scenecut=40 / intra_refresh=0 / rc_lookahead=40 / rc=2pass / mbtree=1 / bitrate=5790 / ratetol=1.0 / qcomp=0.60 / qpmin=0 / qpmax=69 / qpstep=4 / cplxblur=20.0 / qblur=0.5 / ip_ratio=1.40 / aq=1:1.00
    Language                                 : English
    Default                                  : Yes
    Forced                                   : No

    Audio
    ID                                       : 2
    Format                                   : DTS
    Format/Info                              : Digital Theater Systems
    Mode                                     : 16
    Format settings, Endianness              : Big
    Codec ID                                 : A_DTS
    Duration                                 : 1h 47mn
    Bit rate mode                            : Constant
    Bit rate                                 : 1 509 Kbps
    Channel(s)                               : 6 channels
    Channel positions                        : Front: L C R, Side: L R, LFE
    Sampling rate                            : 48.0 KHz
    Frame rate                               : 93.750 fps (512 spf)
    Bit depth                                : 24 bits
    Compression mode                         : Lossy
    Stream size                              : 1.13 GiB (21%)
    Language                                 : English
    Default                                  : Yes
    Forced                                   : No



    81010708984886749361_thumb.jpg


    游客,如果您要查看本帖隐藏内容请回复



  • TA的每日心情
    开心
    1 小时前
  • 签到天数: 767 天

    [LV.10]以坛为家III

    发表于 2017-2-19 11:38:24 | 显示全部楼层
    沙发?感谢楼主分享
    回复 支持 反对

    使用道具 举报

  • TA的每日心情
    奋斗
    3 天前
  • 签到天数: 406 天

    [LV.9]以坛为家II

    发表于 2017-2-19 11:41:21 | 显示全部楼层
    非常感谢,谢谢楼主!!
    回复 支持 反对

    使用道具 举报

  • TA的每日心情
    开心
    11 小时前
  • 签到天数: 994 天

    [LV.10]以坛为家III

    发表于 2017-2-19 11:41:36 | 显示全部楼层
    谢谢分享,谢谢分享。
    回复 支持 反对

    使用道具 举报

  • TA的每日心情
    无聊
    2017-6-6 12:15
  • 签到天数: 32 天

    [LV.5]常住居民I

    发表于 2017-2-19 11:50:50 | 显示全部楼层
    非常不错啊,支持了啊
    回复 支持 反对

    使用道具 举报

  • TA的每日心情

    2017-5-14 07:56
  • 签到天数: 252 天

    [LV.8]以坛为家III

    发表于 2017-2-19 12:08:47 | 显示全部楼层
    我想看,感谢分享
    回复 支持 反对

    使用道具 举报

  • TA的每日心情
    郁闷
    15 小时前
  • 签到天数: 670 天

    [LV.9]以坛为家II

    发表于 2017-2-19 12:15:59 | 显示全部楼层
    体积这么小,是3D的吗?
    回复 支持 反对

    使用道具 举报

  • TA的每日心情
    开心
    2017-7-29 15:48
  • 签到天数: 1145 天

    [LV.10]以坛为家III

    发表于 2017-2-19 12:30:16 | 显示全部楼层
    太好了,听说很优秀1
    回复 支持 反对

    使用道具 举报

  • TA的每日心情
    开心
    2017-2-19 12:41
  • 签到天数: 3 天

    [LV.2]偶尔看看I

    发表于 2017-2-19 12:46:37 | 显示全部楼层
    好的电影需要分享,学会分享才能赢得更多!
    回复 支持 反对

    使用道具 举报

  • TA的每日心情
    开心
    2017-7-4 12:20
  • 签到天数: 382 天

    [LV.9]以坛为家II

    发表于 2017-2-19 12:53:44 | 显示全部楼层
    奇异博士3D.2016
    回复 支持 反对

    使用道具 举报

    高级模式
    B Color Image Link Quote Code Smilies

    本版积分规则

    免责申明|小黑屋|手机版|Archiver|网站地图| 3D一族论坛  

    Copyright © 2001-2015 Comsenz Inc.   All Rights Reserved.

    Powered by Discuz! X3.2( 沪ICP备14045620号-1 )

    快速回复 返回顶部 返回列表