请选择 进入手机版 | 继续访问电脑版
 找回密码

3D一族论坛

查看: 4353|回复: 85

[上下] [变身大作战3D VolkiIOvcy.3D.2016/Sheep.and.Wolves.3D.2016][1080p][MKV 8.87G/8.4G/13.65G/6.55G][BT]

  [复制链接]
  • TA的每日心情
    开心
    2017-10-30 14:49
  • 签到天数: 1666 天

    [LV.Master]伴坛终老

    发表于 2017-2-24 17:49:26 | 显示全部楼层 |阅读模式
    影片截图:

    data/attachment/forum/201702/24/171723z5kaeakkh16d1pas.jpg

         
      片        名: VolkiIOvcy.3D.2016 / Volki i ovtsy. Beeezumnoe prevrashchenie / Sheep and Wolves / Sheep & Wolves: A Craaazy Transformation
      译        名: 变身大作战.3D.2016
      类        别: 喜剧 冒险 动漫 
      国        家: 欧美
      语        言: 英语
      字        幕: N/A
      集        数:
      文件格式: MKV
      视频尺寸: 1920*1080
      文件大小: 8.87GB/8.4GB/13.65GB/6.55GB
      上映时间: 2016-04-28(俄罗斯)
      影片导演: Andrey Galat / Maxim Volkov
      主要演员: JB·布兰科 JB Blanc
        汤姆·费尔顿 Tom Felton
        罗斯·马昆德 Ross Marquand
      推荐等级: ★★★★★
         
    下载地址:
    [下载方式]: bt下载
    [分辨率]: 1080p
    [迅雷地址]:
    [网盘下载]:
    影片简介: fangfang
    In a magical faraway land, in a picturesque little village nestled among green meadows and rolling hills, lives a flock of carefree sheep. But their pastoral and stress-free life is interrupted when a pack of wolves sets up camp in the nearby ravine. In accordance with ancient traditions, the retiring pack leader Magra announces that his future successor must prove his right to lead by vanquishing his rivals. When the powerful and blood-thirsty Ragear steps forward, the only wolf brave enough to challenge him is Grey, the pack's favorite, but a hopeless goof ball. To become a leader and win back Bianca's love, Grey goes off into the woods, where he discovers a camp of Gypsy rabbits. The fortune-teller rabbit Mami gives him a magical "transmutation potion." Grey drinks the potion and goes back to the wolves' den, but finds out upon arrival that he has been transformed into... a ram!
    8H7fX5X.jpg


    aa5a90646d1243cc93ebbd525f61d1dfdd6cc876.jpg


    ◎译  名 变身大作战 / Volki i ovtsy. Beeezumnoe prevrashchenie / Sheep and Wolves / Sheep & Wolves: A Craaazy Transformation
    ◎片  名 变身大作战 Волки и овцы. Бееезумное превращение
    ◎年  代 2016
    ◎国  家 俄罗斯
    ◎类  别 喜剧 / 动画 / 家庭 / 奇幻 / 冒险
    ◎语  言 俄语
    ◎上映日期 2016-04-28(俄罗斯)
    ◎IMDb评分  6.2/10 from 460 users
    ◎IMDb链接  http://www.imdb.com/title/tt3746824/
    ◎片  长 93分钟
    ◎导  演 Andrey Galat / Maxim Volkov
    ◎主  演 JB·布兰科 JB Blanc
          汤姆·费尔顿 Tom Felton
          罗斯·马昆德 Ross Marquand
          琪娜·安妮·麦克兰 China Anne McClain
          托马斯·伊恩·尼古拉斯 Thomas Ian Nicholas
          鲁比·罗丝 Ruby Rose
          Alyson Leigh Rosenfeld

    ◎简  介 

      In a magical faraway land, in a picturesque little village nestled among green meadows and rolling hills, lives a flock of carefree sheep. But their pastoral and stress-free life is interrupted when a pack of wolves sets up camp in the nearby ravine. In accordance with ancient traditions, the retiring pack leader Magra announces that his future successor must prove his right to lead by vanquishing his rivals. When the powerful and blood-thirsty Ragear steps forward, the only wolf brave enough to challenge him is Grey, the pack's favorite, but a hopeless goof ball. To become a leader and win back Bianca's love, Grey goes off into the woods, where he discovers a camp of Gypsy rabbits. The fortune-teller rabbit Mami gives him a magical "transmutation potion." Grey drinks the potion and goes back to the wolves' den, but finds out upon arrival that he has been transformed into... a ram!



       General
          Complete name : VolkiIOvcy(2016)3D-halfOU(Ash61)iTunes.mkv
          Format : Matroska
          Format version : Version 2
          File size : 8.87 GiB
          Duration : 1h 24mn
          Overall bit rate : 15.0 Mbps
          Movie name : Волки и овцы: бе-е-е-зумное превращение (2016) в 3Д
          Encoded date : UTC 2017-01-29 16:23:05
          Writing application : mkvmerge v5.8.0 ('No Sleep / Pillow') built on Sep  2 2012 15:37:04
          Writing library : libebml v1.2.3 + libmatroska v1.3.0
       Video #1
          ID : 1
          Format : AVC
          Format/Info : Advanced Video Codec
          Format profile : High@L4.1
          Format settings, CABAC : Yes
          Format settings, ReFrames : 4 frames
          Codec ID : V_MPEG4/ISO/AVC
          Duration : 1h 24mn
          Bit rate : 13.7 Mbps
          Width : 1 920 pixels
          Height : 1 080 pixels
          Display aspect ratio : 16:9
          Frame rate mode : Constant
          Frame rate : 23.976 fps
          Color space : YUV
          Chroma subsampling : 4:2:0
          Bit depth : 8 bits
          Scan type : Progressive
          Bits/(Pixel*Frame) : 0.275
          Stream size : 8.09 GiB (91%)
          Title : BDRip by Ash61
          Writing library : x264 core 146 r2538 121396c
          Encoding settings : cabac=1 / ref=4 / deblock=1:-3:-3 / analyse=0x3:0x113 / me=umh / subme=10 / psy=1 / psy_rd=1.00:0.00 / mixed_ref=1 / me_range=32 / chroma_me=1 / trellis=2 / 8x8dct=1 / cqm=0 / deadzone=21,11 / fast_pskip=1 / chroma_qp_offset=-2 / threads=12 / lookahead_threads=3 / sliced_threads=0 / nr=0 / decimate=1 / interlaced=0 / bluray_compat=0 / constrained_intra=0 / bframes=12 / b_pyramid=2 / b_adapt=2 / b_bias=0 / direct=3 / weightb=1 / open_gop=0 / weightp=2 / keyint=250 / keyint_min=23 / scenecut=40 / intra_refresh=0 / rc_lookahead=60 / rc=crf / mbtree=1 / crf=14.3 / qcomp=0.70 / qpmin=0 / qpmax=69 / qpstep=4 / vbv_maxrate=40000 / vbv_bufsize=30000 / crf_max=0.0 / nal_hrd=none / filler=0 / frame-packing=4 / ip_ratio=1.40 / aq=1:0.70
          Language : Russian
          Default : Yes
          Forced : No
       Audio #2
          ID : 2
          Format : AC-3
          Format/Info : Audio Coding 3
          Mode extension : CM (complete main)
          Format settings, Endianness : Big
          Codec ID : A_AC3
          Duration : 1h 24mn
          Bit rate mode : Constant
          Bit rate : 384 Kbps
          Channel(s) : 6 channels
          Channel positions : Front: L C R, Side: L R, LFE
          Sampling rate : 48.0 KHz
          Bit depth : 16 bits
          Compression mode : Lossy
          Stream size : 233 MiB (3%)
          Title : Оригинал - iTunes
          Language : Russian
          Default : Yes
          Forced : No
       Audio #3
          ID : 3
          Format : AC-3
          Format/Info : Audio Coding 3
          Mode extension : CM (complete main)
          Format settings, Endianness : Big
          Codec ID : A_AC3
          Duration : 1h 24mn
          Bit rate mode : Constant
          Bit rate : 640 Kbps
          Channel(s) : 6 channels
          Channel positions : Front: L C R, Side: L R, LFE
          Sampling rate : 48.0 KHz
          Bit depth : 16 bits
          Compression mode : Lossy
          Stream size : 388 MiB (4%)
          Title : Dubbing
          Language : English
          Default : No
          Forced : No



    VolkiIOvcy(2016)3D-halfOU(Ash61)iTunes_20170224171242.JPG

    VolkiIOvcy(2016)3D-halfOU(Ash61)iTunes_20170224171433.JPG

    VolkiIOvcy(2016)3D-halfOU(Ash61)iTunes_20170224171250.JPG

    VolkiIOvcy(2016)3D-halfOU(Ash61)iTunes_20170224171259.JPG

    VolkiIOvcy(2016)3D-halfOU(Ash61)iTunes_20170224171304.JPG

    VolkiIOvcy(2016)3D-halfOU(Ash61)iTunes_20170224171328.JPG

    VolkiIOvcy(2016)3D-halfOU(Ash61)iTunes_20170224171339.JPG

    VolkiIOvcy(2016)3D-halfOU(Ash61)iTunes_20170224171408.JPG

    游客,如果您要查看本帖隐藏内容请回复

    游客,如果您要查看本帖隐藏内容请回复





    Volki i ovtsy. Beeezumnoe prevrashchenie 3D (2016)-alE13.mkv

    Format : Matroska

    Format version : Version 4 / Version 2

    File size : 13.6 GiB

    Duration : 1 h 24 min

    Overall bit rate : 23.0 Mb/s

    Movie name : Volki i ovtsy. Beeezumnoe prevrashchenie 3D (2016)-alE13

    Encoded date : UTC 2017-02-16 07:13:05

    Writing application : mkvmerge v8.1.0 ('Psychedelic Postcard') 64bit

    Writing library : libebml v1.3.1 + libmatroska v1.4.2

    Cover : Yes

    Attachments : Cover.jpg


    Video

    ID : 1

    Format : AVC

    Format/Info : Advanced Video Codec

    Format profile : High@L4.1

    Format settings, CABAC : Yes

    Format settings, ReFrames : 2 frames

    Codec ID : V_MPEG4/ISO/AVC

    Duration : 1 h 24 min

    Bit rate : 18.4 Mb/s

    Width : 1 920 pixels

    Height : 804 pixels

    Display aspect ratio : 2.40:1

    Frame rate mode : Constant

    Frame rate : 23.976 (24000/1001) FPS

    Color space : YUV

    Chroma subsampling : 4:2:0

    Bit depth : 8 bits

    Scan type : Progressive

    Bits/(Pixel*Frame) : 0.498

    Stream size : 10.9 GiB (80%)

    Title : Volki i ovtsy. Beeezumnoe prevrashchenie 3D (2016)-alE13

    Writing library : x264 core

    Default : Yes

    Forced : No

    Color range : Limited

    Color primaries : BT.709

    Transfer characteristics : BT.709

    Matrix coefficients : BT.709


    Audio #1

    ID : 2

    Format : AC-3

    Format/Info : Audio Coding 3

    Mode extension : CM (complete main)

    Format settings, Endianness : Big

    Codec ID : A_AC3

    Duration : 1 h 24 min

    Bit rate mode : Constant

    Bit rate : 384 kb/s

    Channel(s) : 6 channels

    Channel positions : Front: L C R, Side: L R, LFE

    Sampling rate : 48.0 kHz

    Frame rate : 31.250 FPS (1536 spf)

    Bit depth : 16 bits

    Compression mode : Lossy

    Stream size : 233 MiB (2%)

    Title : Volki i ovtsy. Beeezumnoe prevrashchenie 3D (2016)-alE13_AC3

    Language : Russian

    Default : No

    Forced : No


    Audio #2

    ID : 3

    Format : DTS

    Format/Info : Digital Theater Systems

    Format profile : MA / Core

    Mode : 16

    Format settings, Endianness : Big

    Codec ID : A_DTS

    Duration : 1 h 24 min

    Bit rate mode : Variable / Constant

    Bit rate : 3 982 kb/s / 1 509 kb/s

    Channel(s) : 6 channels

    Channel positions : Front: L C R, Side: L R, LFE

    Sampling rate : 48.0 kHz

    Frame rate : 93.750 FPS (512 spf)

    Bit depth : 24 bits

    Compression mode : Lossless / Lossy

    Stream size : 2.36 GiB (17%)

    Title : Volki i ovtsy. Beeezumnoe prevrashchenie 3D (2016)-alE13_DTS

    Language : English

    Default : No

    Forced : No


    Audio #3

    ID : 4

    Format : AC-3

    Format/Info : Audio Coding 3

    Mode extension : CM (complete main)

    Format settings, Endianness : Big

    Codec ID : A_AC3

    Duration : 1 h 24 min

    Bit rate mode : Constant

    Bit rate : 256 kb/s

    Channel(s) : 2 channels

    Channel positions : Front: L R

    Sampling rate : 48.0 kHz

    Frame rate : 31.250 FPS (1536 spf)

    Bit depth : 16 bits

    Compression mode : Lossy

    Stream size : 155 MiB (1%)

    Title : Volki i ovtsy. Beeezumnoe prevrashchenie 3D (2016)-alE13

    Language : Polish

    Default : Yes

    Forced : No



    bxFQ1EH.jpg

    FMyq5c5.jpg

    qsdxeab.jpg


    游客,如果您要查看本帖隐藏内容请回复



    Video
    ID                                       : 1
    Format                                   : AVC
    Format/Info                              : Advanced Video Codec
    Format profile                           : High@L4.1
    MultiView_Count                          : 2
    MultiView_Layout                         : Side by Side (left eye first)
    Format settings, CABAC                   : Yes
    Format settings, ReFrames                : 5 frames
    Codec ID                                 : V_MPEG4/ISO/AVC
    Duration                                 : 1h 24mn
    Bit rate                                 : 9 554 Kbps
    Width                                    : 1 920 pixels
    Height                                   : 808 pixels
    Display aspect ratio                     : 2.40:1
    Frame rate mode                          : Constant
    Frame rate                               : 23.976 fps
    Color space                              : YUV
    Chroma subsampling                       : 4:2:0
    Bit depth                                : 8 bits
    Scan type                                : Progressive
    Bits/(Pixel*Frame)                       : 0.257
    Stream size                              : 5.66 GiB (86%)
    Writing library                          : x264 core 148 r2744 b97ae06
    Encoding settings                        : cabac=1 / ref=5 / deblock=1:-1:-1 / analyse=0x3:0x133 / me=umh / subme=7 / psy=1 / psy_rd=1.00:0.00 / mixed_ref=1 / me_range=16 / chroma_me=1 / trellis=1 / 8x8dct=1 / cqm=0 / deadzone=21,11 / fast_pskip=0 / chroma_qp_offset=-2 / threads=18 / lookahead_threads=3 / sliced_threads=0 / nr=0 / decimate=1 / interlaced=0 / bluray_compat=0 / constrained_intra=0 / bframes=3 / b_pyramid=2 / b_adapt=1 / b_bias=0 / direct=1 / weightb=1 / open_gop=0 / weightp=2 / keyint=240 / keyint_min=24 / scenecut=40 / intra_refresh=0 / rc_lookahead=40 / rc=2pass / mbtree=1 / bitrate=9554 / ratetol=1.0 / qcomp=0.60 / qpmin=0 / qpmax=69 / qpstep=4 / cplxblur=20.0 / qblur=0.5 / ip_ratio=1.40 / aq=1:1.00
    Language                                 : English
    Default                                  : Yes
    Forced                                   : No

    Audio
    ID                                       : 2
    Format                                   : DTS
    Format/Info                              : Digital Theater Systems
    Mode                                     : 16
    Format settings, Endianness              : Big
    Codec ID                                 : A_DTS
    Duration                                 : 1h 24mn
    Bit rate mode                            : Constant
    Bit rate                                 : 1 509 Kbps
    Channel(s)                               : 6 channels
    Channel positions                        : Front: L C R, Side: L R, LFE
    Sampling rate                            : 48.0 KHz
    Frame rate                               : 93.750 fps (512 spf)
    Bit depth                                : 24 bits
    Compression mode                         : Lossy
    Stream size                              : 915 MiB (14%)
    Language                                 : English
    Default                                  : Yes
    Forced                                   : No





    67456170431878106768_thumb.jpg





    游客,如果您要查看本帖隐藏内容请回复





  • TA的每日心情
    开心
    2017-5-5 00:53
  • 签到天数: 87 天

    [LV.6]常住居民II

    发表于 2017-2-25 00:50:07 | 显示全部楼层
    感谢楼主分享
    回复 支持 0 反对 1

    使用道具 举报

  • TA的每日心情
    开心
    3 天前
  • 签到天数: 229 天

    [LV.7]常住居民III

    发表于 2017-2-24 18:21:33 | 显示全部楼层
    太给力了,力挺你楼主
    回复 支持 反对

    使用道具 举报

  • TA的每日心情
    奋斗
    2017-10-4 09:14
  • 签到天数: 675 天

    [LV.9]以坛为家II

    发表于 2017-2-24 18:28:00 | 显示全部楼层
    感谢楼主分享辛苦啦
    回复 支持 反对

    使用道具 举报

  • TA的每日心情
    开心
    2017-7-29 15:48
  • 签到天数: 1145 天

    [LV.10]以坛为家III

    发表于 2017-2-24 19:19:20 | 显示全部楼层
    看起来像是不错!
    回复 支持 反对

    使用道具 举报

  • TA的每日心情

    3 小时前
  • 签到天数: 581 天

    [LV.9]以坛为家II

    发表于 2017-2-24 20:36:53 | 显示全部楼层
    感谢楼主无私分享影片
    回复 支持 反对

    使用道具 举报

  • TA的每日心情
    奋斗
    前天 21:42
  • 签到天数: 642 天

    [LV.9]以坛为家II

    发表于 2017-2-24 22:52:27 | 显示全部楼层
    看下效果如何
    回复 支持 反对

    使用道具 举报

  • TA的每日心情

    2017-5-14 22:49
  • 签到天数: 179 天

    [LV.7]常住居民III

    发表于 2017-2-24 22:55:07 | 显示全部楼层
    不错了,谢谢了
    回复 支持 反对

    使用道具 举报

  • TA的每日心情
    擦汗
    6 小时前
  • 签到天数: 238 天

    [LV.7]常住居民III

    发表于 2017-2-24 23:28:46 | 显示全部楼层
    谢谢楼主辛苦分享,造福会员
    回复 支持 反对

    使用道具 举报

  • TA的每日心情

    22 小时前
  • 签到天数: 1335 天

    [LV.10]以坛为家III

    发表于 2017-2-25 00:21:32 | 显示全部楼层
    楼主辛苦了,谢谢楼主分享!
    回复 支持 反对

    使用道具 举报

    您需要登录后才可以回帖 登录 | 立即注册

    本版积分规则

    免责申明|小黑屋|手机版|Archiver|网站地图| 3D一族论坛  

    Copyright © 2001-2015 Comsenz Inc.   All Rights Reserved.

    Powered by Discuz! X3.2( 沪ICP备14045620号-1 )

    快速回复 返回顶部 返回列表