请选择 进入手机版 | 继续访问电脑版
 找回密码

3D一族论坛

查看: 4058|回复: 139

[左右半宽] [海洋奇缘 3D 2016][合成3D字幕][Moana 2016][1080P/H264][英 DTS/国 AC-3][MKV/9.76G/百Du]

  [复制链接]
  • TA的每日心情
    擦汗
    2017-8-12 09:35
  • 签到天数: 319 天

    [LV.8]以坛为家III

    发表于 2017-2-26 16:49:20 | 显示全部楼层 |阅读模式
    本帖最后由 lsjsyp 于 2017-2-26 16:52 编辑

    p2397960879.jpg

    导演: 罗恩·克莱蒙兹 / 约翰·马斯克
    编剧: 罗恩·克莱蒙兹 / 约翰·马斯克 / 塔伊加·维迪提 / 杰拉德·布什
    主演: 奥丽伊·卡瓦洛 / 道恩·强森 / 艾伦·图代克 /杰梅奈·克莱门特 / 尼可·斯彻金格 / 更多...
    类型: 喜剧 / 动画 / 歌舞 / 家庭 / 奇幻 / 冒险
    制片国家/地区: 美国
    语言: 英语
    上映日期: 2016-11-25(中国大陆) / 2016-11-23(美国)
    片长: 107分钟
    又名: 莫阿娜 / 摩阿娜 / 摩瓦娜
    IMDb链接: tt3521164
    海洋奇缘的剧情简介  ·  ·  ·  ·  ·  ·  


         故事最早始于住在风和海的半神毛伊(道恩·强森 Dwayne Johnson 配音),他偷走了女神的特菲堤之心,导致岩浆魔鬼厄卡陷入疯狂的状态,南太平洋各小岛也面临着毁灭的威胁。一千多年后,某座小岛上的酋长女儿莫阿娜(奥丽依·卡拉瓦霍 Auli'i Cravalho 配音)在父母的呵护下渐渐长大,童年时她曾偶然捡到特菲堤之心,亦曾受到大海的召唤,然而父亲却严厉禁止莫阿娜出海,即使小岛正遭受着死亡的威胁。从奶奶那里,莫阿娜知晓了他们这一族人的历史,于是为了拯救小岛,她依然出海去寻找被困在某地的毛伊,好让他归还特菲堤之心。历经千辛万苦,莫阿娜终于见到了这个传说中的高傲自大的半神。而毛伊则担心特菲堤之心带来霉运拒绝前往。
      只不过在命运的指引下,毛伊还是随着莫阿娜踏上未知的征途……


    编码信息:
    General
    Unique ID                      : 191145576746082036183036667638727094970 (0x8FCD4C8B36E9E6B28C5C31898610B2BA)
    Complete name                  : F:\[LYP]Moana.2016.1080p.3D.BluRay.Half-SBS.x264.DTS AC3.mkv
    Format                         : Matroska
    Format version                 : Version 4 / Version 2
    File size                      : 9.76 GiB
    Duration                       : 1h 47mn
    Overall bit rate               : 13.0 Mbps
    Encoded date                   : UTC 2017-02-25 11:14:19
    Writing application            : mkvmerge v7.5.0 ('Glass Culture') 32bit built on Jan  4 2015 16:37:25
    Writing library                : libebml v1.3.1 + libmatroska v1.4.2 / ShanaEncoder

    Video
    ID                             : 1
    Format                         : AVC
    Format/Info                    : Advanced Video Codec
    Format profile                 : Baseline@L4
    Format settings, CABAC         : No
    Format settings, ReFrames      : 1 frame
    Codec ID                       : V_MPEG4/ISO/AVC
    Duration                       : 1h 47mn
    Bit rate                       : 8 104 Kbps
    Width                          : 1 920 pixels
    Height                         : 1 080 pixels
    Display aspect ratio           : 16:9
    Frame rate mode                : Constant
    Frame rate                     : 23.976 (24000/1001) fps
    Color space                    : YUV
    Chroma subsampling             : 4:2:0
    Bit depth                      : 8 bits
    Scan type                      : Progressive
    Bits/(Pixel*Frame)             : 0.163
    Stream size                    : 6.07 GiB (62%)
    Writing library                : x264 core 148 r2744 b97ae06
    Encoding settings              : opencl=1 / cabac=0 / ref=1 / deblock=1:0:0 / analyse=0x1:0x111 / me=hex / subme=2 / psy=1 / psy_rd=1.00:0.00 / mixed_ref=0 / me_range=16 / chroma_me=1 / trellis=0 / 8x8dct=0 / cqm=0 / deadzone=21,11 / fast_pskip=1 / chroma_qp_offset=0 / threads=6 / lookahead_threads=2 / sliced_threads=0 / nr=0 / decimate=1 / interlaced=0 / bluray_compat=0 / constrained_intra=0 / bframes=0 / weightp=0 / keyint=250 / keyint_min=23 / scenecut=40 / intra_refresh=0 / rc_lookahead=10 / rc=crf / mbtree=1 / crf=20.0 / qcomp=0.60 / qpmin=0 / qpmax=69 / qpstep=4 / ip_ratio=1.40 / aq=1:1.00
    Default                        : Yes
    Forced                         : No

    Audio #1
    ID                             : 2
    Format                         : DTS
    Format/Info                    : Digital Theater Systems
    Format profile                 : MA / Core
    Mode                           : 16
    Format settings, Endianness    : Big
    Codec ID                       : A_DTS
    Duration                       : 1h 47mn
    Bit rate mode                  : Variable / Constant
    Bit rate                       : 4 730 Kbps / 1 509 Kbps
    Channel(s)                     : 8 channels / 6 channels
    Channel positions              : Front: L C R, Side: L R, Back: L R, LFE / Front: L C R, Side: L R, LFE
    Sampling rate                  : 48.0 KHz
    Frame rate                     : 93.750 fps (512 spf)
    Bit depth                      : 24 bits
    Compression mode               : Lossless / Lossy
    Stream size                    : 3.54 GiB (36%)
    Title                          : English DTS7.1
    Language                       : English
    Default                        : No
    Forced                         : No

    Audio #2
    ID                             : 3
    Format                         : AC-3
    Format/Info                    : Audio Coding 3
    Mode extension                 : CM (complete main)
    Format settings, Endianness    : Big
    Codec ID                       : A_AC3
    Duration                       : 1h 47mn
    Bit rate mode                  : Constant
    Bit rate                       : 192 Kbps
    Channel(s)                     : 2 channels
    Channel positions              : Front: L R
    Sampling rate                  : 48.0 KHz
    Frame rate                     : 31.250 fps (1536 spf)
    Compression mode               : Lossy
    Stream size                    : 147 MiB (1%)
    Title                          : Chinese AC3
    Language                       : Chinese
    Default                        : Yes
    Forced                         : No















    制作说明:
    1.国英双语。
    2.字幕匹配国语音轨。

    3.字幕音轨来源于网络。


    游客,如果您要查看本帖隐藏内容请回复



  • TA的每日心情
    开心
    2017-3-8 19:54
  • 签到天数: 906 天

    [LV.10]以坛为家III

    发表于 2017-2-26 17:39:28 | 显示全部楼层
    谢谢楼主分享
    回复 支持 反对

    使用道具 举报

  • TA的每日心情

    3 天前
  • 签到天数: 1331 天

    [LV.10]以坛为家III

    发表于 2017-2-26 20:15:19 | 显示全部楼层
    谢谢楼主分享

    点评

    在线观看视频,投注,娱乐应有尽有 1946weide18.com 在线观看视频,投注,娱乐应有尽有 1946weide18.com  发表于 2017-7-11 17:43
    回复 支持 反对

    使用道具 举报

  • TA的每日心情
    开心
    2017-3-3 22:59
  • 签到天数: 7 天

    [LV.3]偶尔看看II

    发表于 2017-2-26 20:41:41 | 显示全部楼层
    非常感谢楼主分享资源。
    回复 支持 反对

    使用道具 举报

  • TA的每日心情
    奋斗
    2 小时前
  • 签到天数: 477 天

    [LV.9]以坛为家II

    发表于 2017-2-26 21:17:17 | 显示全部楼层
    感谢楼主分享合成3D字幕片源
    回复 支持 反对

    使用道具 举报

  • TA的每日心情
    奋斗
    21 小时前
  • 签到天数: 397 天

    [LV.9]以坛为家II

    发表于 2017-2-26 21:30:54 | 显示全部楼层
    感謝分享資源.努力往上爬當中(爬啊爬~
    回复 支持 反对

    使用道具 举报

  • TA的每日心情
    开心
    2017-5-1 22:12
  • 签到天数: 85 天

    [LV.6]常住居民II

    发表于 2017-2-26 21:57:05 | 显示全部楼层
    真是不错的电影。。谢谢
    回复 支持 反对

    使用道具 举报

  • TA的每日心情
    开心
    12 分钟前
  • 签到天数: 1312 天

    [LV.10]以坛为家III

    发表于 2017-2-26 22:31:59 | 显示全部楼层
    最后一部迪士尼动画长片
    回复 支持 反对

    使用道具 举报

  • TA的每日心情
    开心
    12 分钟前
  • 签到天数: 1312 天

    [LV.10]以坛为家III

    发表于 2017-2-26 22:32:48 | 显示全部楼层
    最后一部迪士尼动画长片

    回复 支持 反对

    使用道具 举报

  • TA的每日心情
    开心
    11 小时前
  • 签到天数: 368 天

    [LV.9]以坛为家II

    发表于 2017-2-26 23:13:04 | 显示全部楼层
    谢谢楼主分享
    回复 支持 反对

    使用道具 举报

    您需要登录后才可以回帖 登录 | 立即注册

    本版积分规则

    免责申明|小黑屋|手机版|Archiver|网站地图| 3D一族论坛  

    Copyright © 2001-2015 Comsenz Inc.   All Rights Reserved.

    Powered by Discuz! X3.2( 沪ICP备14045620号-1 )

    快速回复 返回顶部 返回列表