请选择 进入手机版 | 继续访问电脑版
 找回密码

3D一族论坛

查看: 1362|回复: 269

[左右] [太空旅客3D Passengers.2016.3D][1080p][MKV 22.16G/22.48G/13.41G/13.76G/7.82G/8.95G/8.75G][BT][简繁字幕]

  [复制链接]
  • TA的每日心情
    开心
    2017-3-15 15:19
  • 签到天数: 1634 天

    [LV.Master]伴坛终老

    发表于 2017-3-4 23:09:49 | 显示全部楼层 |阅读模式
    影片截图:

    data/attachment/forum/201703/04/224348cbhipihi4u14bz9f.jpg

         
      片        名: Passengers.2016.3D
      译        名: 太空旅客3D / 太空潜航者 / 星际过客 / 旅客 / 乘客
      类        别: 科幻 冒险 
      国        家: 欧美
      语        言: 英语
      字        幕: 中文字幕
      集        数:
      文件格式: MKV
      视频尺寸: 1920*1080
      文件大小: 22.16GB/22.48GB/13.41GB/13.76GB/7.82GB/8.95GB/8.75GB
      上映时间: 2017-01-13(中国大陆) / 2016-12-21(美国)
      影片导演: 莫滕·泰杜姆
      主要演员: 詹妮弗·劳伦斯 Jennifer Lawrence
        克里斯·普拉特 Chris Pratt
        麦克·辛 Michael Sheen
      推荐等级: ★★★★★
         
    下载地址:
    [下载方式]: bt下载
    [分辨率]: 1080p
    [迅雷地址]:
    [网盘下载]:
    影片简介: fangfang
    吉姆(克里斯·普拉特 Chris Pratt 饰)是阿瓦隆号飞船上的一位工薪阶层旅客,在飞船前往太空殖民地家园2号的120年旅途中,因一次意外,他从冷冻睡眠中醒来。发现自己有可能要在这艘巨船上独自度过89年,吉姆试着重新入睡,但最终只能在安置了5000个同行人员的睡眠舱中孤独生活,处于自杀边缘的吉姆绝望中孤注一掷,于是,他唤醒了一名女乘客奥罗拉(詹妮弗·劳伦斯 Jennifer Lawrence 饰),两人在相处的期间产生了爱情的火花。而当飞船的操作系统瘫痪,这对情侣面临着更大的问题,生命受到威胁的不仅仅是他们自己,也包括同行的旅伴,和航行本身。
    170451_front.jpg


    ◎译  名 太空旅客 / 太空潜航者 / 星际过客 / 旅客 / 乘客

    ◎片  名 Passengers
    ◎年  代 2016
    ◎国  家 美国
    ◎类  别 科幻 / 冒险
    ◎语  言 英语
    ◎上映日期 2017-01-13(中国大陆) / 2016-12-21(美国)
    ◎IMDb评分  7.0/10 from 112,050 users
    ◎IMDb链接  http://www.imdb.com/title/tt1355644/
    ◎豆瓣评分 6.9/10 from 71693 users
    ◎豆瓣链接 https://movie.douban.com/subject/3434070/
    ◎片  长 116分钟
    ◎导  演 莫滕·泰杜姆
    ◎主  演 詹妮弗·劳伦斯 Jennifer Lawrence
          克里斯·普拉特 Chris Pratt
          麦克·辛 Michael Sheen
          劳伦斯·菲什伯恩 Laurence Fishburne
          安迪·加西亚 Andy Garcia
          因德尔·库马尔 Inder Kumar
          奥罗拉·佩里纽 Aurora Perrineau

    ◎简  介 

      未来人类乘坐“阿瓦隆”号太空飞船进行星际旅行,准备前往另一颗星球,每位旅客都需要沉睡120年,电脑的一个小故障却让男女主角“意外”早醒了90年。孤独的太空旅行中,两位孤独的乘客开始相识相爱,但之后他们发现乘坐的飞船出现故障,而拯救5000名乘客的任务就落到他们二人肩上。

    花絮

    .影片剧本在好莱坞备受争抢,编剧乔.斯派茨的创作脚本入选电影工业最佳未拍摄剧本清单。

    .导演泰杜姆表示,从一开始他就认为詹妮弗·劳伦斯和克里斯·帕拉特是奥罗拉和吉姆的不二人选。

    .迈克·辛的成功表演一部分得益于真实的肢体变化。拍摄现场的特效团队设计了一架装备,能够使他平滑无阻地在吧台内移动,而辛则是跪坐在装备里。

    .为了让吉姆看起来处于失重状态,特技指导加勒特.沃伦打造了一个连接着速度滑轨的旋转环,背后配有平衡块。克里斯.帕拉特可以自由移动,加勒特的特技团队用绞盘让克里斯前后移动。

    .在拍摄最繁忙的时段,《太空旅客》位于亚特兰大松林制片厂的场景数量达到了七个之多,再加上另一个同样位于亚特兰大占地四万平方英尺的EUE幕宝摄影棚。

    .艺术指导戴斯的团队为实拍打造了32个休眠舱,其中有一些细节刻画十分精细。

    .在休眠舱部分的拍摄中,背景还有30余个群众演员躺在舱内扮演休眠的旅客们,舱内垫有泡沫包装材料让演员们更舒适一些。后期视觉特效团队又将场景复制扩大为无数倍,舱室中包含了几百个休眠舱。

    .戴斯和摄影指导罗德里格.普雷多都赞同在室内的墙壁上加入发光体,这样旅客和建筑之间就产生了互动感。发光面板闪耀着金黄色的灯光,让宽广的空间更加蠢蠢欲动。

    ◎获奖情况 
      第89届奥斯卡金像奖 (2017)
      最佳艺术指导(提名) Guy Hendrix Dyas /  Gene Serdena
      最佳原创配乐(提名) 托马斯·纽曼
      第21届美国艺术指导工会奖 (2017)
      电影奖 最佳幻想电影艺术指导



    Video
    ID                                       : 1
    Format                                   : AVC
    Format/Info                              : Advanced Video Codec
    Format profile                           : High@L4.1
    Format settings, CABAC                   : Yes
    Format settings, ReFrames                : 2 frames
    Codec ID                                 : V_MPEG4/ISO/AVC
    Duration                                 : 1h 56mn
    Nominal bit rate                         : 15.5 Mbps
    Width                                    : 1 920 pixels
    Height                                   : 1 080 pixels
    Display aspect ratio                     : 16:9
    Frame rate mode                          : Constant
    Frame rate                               : 23.976 (24000/1001) fps
    Color space                              : YUV
    Chroma subsampling                       : 4:2:0
    Bit depth                                : 8 bits
    Scan type                                : Progressive
    Bits/(Pixel*Frame)                       : 0.312
    Title                                    : Passengers.2016.1080p.3D.BluRay.Half-SBS.x264.DTS-HD.MA.5.1-FGT
    Writing library                          : x264 core 142
    Encoding settings                        : cabac=1 / ref=1 / deblock=1:-1:-1 / analyse=0x3:0 / me=hex / subme=5 / psy=0 / mixed_ref=0 / me_range=16 / chroma_me=1 / trellis=0 / 8x8dct=1 / cqm=0 / deadzone=21,11 / fast_pskip=0 / chroma_qp_offset=0 / threads=8 / lookahead_threads=2 / sliced_threads=0 / nr=0 / decimate=1 / interlaced=0 / bluray_compat=0 / constrained_intra=0 / bframes=2 / b_pyramid=0 / b_adapt=1 / b_bias=0 / direct=1 / weightb=0 / open_gop=0 / weightp=0 / keyint=24 / keyint_min=13 / scenecut=40 / intra_refresh=0 / rc=2pass / mbtree=0 / bitrate=15500 / ratetol=1.0 / qcomp=0.60 / qpmin=0 / qpmax=69 / qpstep=4 / cplxblur=20.0 / qblur=0.5 / ip_ratio=1.40 / pb_ratio=1.30 / aq=1:1.00
    Default                                  : Yes
    Forced                                   : No
    Color range                              : Limited
    Color primaries                          : BT.709
    Transfer characteristics                 : BT.709
    Matrix coefficients                      : BT.709

    Audio #1
    ID                                       : 2
    Format                                   : DTS
    Format/Info                              : Digital Theater Systems
    Format profile                           : MA / Core
    Mode                                     : 16
    Format settings, Endianness              : Big
    Codec ID                                 : A_DTS
    Duration                                 : 1h 56mn
    Bit rate mode                            : Variable / Constant
    Bit rate                                 : Unknown / 1 509 Kbps
    Channel(s)                               : 6 channels
    Channel positions                        : Front: L C R, Side: L R, LFE
    Sampling rate                            : 48.0 KHz
    Frame rate                               : 93.750 fps (512 spf)
    Bit depth                                : 16 bits
    Compression mode                         : Lossless / Lossy
    Title                                    : Passengers.2016.1080p.3D.BluRay.Half-SBS.x264.DTS-HD.MA.5.1-FGT
    Language                                 : English
    Default                                  : Yes
    Forced                                   : No

    Audio #2
    ID                                       : 3
    Format                                   : DTS
    Format/Info                              : Digital Theater Systems
    Mode                                     : 16
    Format settings, Endianness              : Big
    Codec ID                                 : A_DTS
    Duration                                 : 1h 56mn
    Bit rate mode                            : Constant
    Bit rate                                 : 1 509 Kbps
    Channel(s)                               : 6 channels
    Channel positions                        : Front: L C R, Side: L R, LFE
    Sampling rate                            : 48.0 KHz
    Frame rate                               : 93.750 fps (512 spf)
    Bit depth                                : 16 bits
    Compression mode                         : Lossy
    Stream size                              : 1.22 GiB (6%)
    Title                                    : Passengers.2016.1080p.3D.BluRay.Half-SBS.x264.DTS-HD.MA.5.1-FGT
    Language                                 : English
    Default                                  : No
    Forced                                   : No

    Audio #3
    ID                                       : 4
    Format                                   : AC-3
    Format/Info                              : Audio Coding 3
    Mode extension                           : CM (complete main)
    Format settings, Endianness              : Big
    Codec ID                                 : A_AC3
    Duration                                 : 1h 56mn
    Bit rate mode                            : Constant
    Bit rate                                 : 640 Kbps
    Channel(s)                               : 6 channels
    Channel positions                        : Front: L C R, Side: L R, LFE
    Sampling rate                            : 48.0 KHz
    Frame rate                               : 31.250 fps (1536 spf)
    Compression mode                         : Lossy
    Stream size                              : 532 MiB (2%)
    Title                                    : Passengers.2016.1080p.3D.BluRay.Half-SBS.x264.DTS-HD.MA.5.1-FGT
    Language                                 : English
    Default                                  : No
    Forced                                   : No

    Audio #4
    ID                                       : 5
    Format                                   : DTS
    Format/Info                              : Digital Theater Systems
    Format profile                           : MA / Core
    Mode                                     : 16
    Format settings, Endianness              : Big
    Codec ID                                 : A_DTS
    Duration                                 : 1h 56mn
    Bit rate mode                            : Variable / Constant
    Bit rate                                 : Unknown / 1 509 Kbps
    Channel(s)                               : 6 channels
    Channel positions                        : Front: L C R, Side: L R, LFE
    Sampling rate                            : 48.0 KHz
    Frame rate                               : 93.750 fps (512 spf)
    Bit depth                                : 16 bits
    Compression mode                         : Lossless / Lossy
    Title                                    : Passengers.2016.1080p.3D.BluRay.Half-SBS.x264.DTS-HD.MA.5.1-FGT
    Language                                 : French
    Default                                  : No
    Forced                                   : No

    Audio #5
    ID                                       : 6
    Format                                   : DTS
    Format/Info                              : Digital Theater Systems
    Format profile                           : MA / Core
    Mode                                     : 16
    Format settings, Endianness              : Big
    Codec ID                                 : A_DTS
    Duration                                 : 1h 56mn
    Bit rate mode                            : Variable / Constant
    Bit rate                                 : Unknown / 1 509 Kbps
    Channel(s)                               : 6 channels
    Channel positions                        : Front: L C R, Side: L R, LFE
    Sampling rate                            : 48.0 KHz
    Frame rate                               : 93.750 fps (512 spf)
    Bit depth                                : 16 bits
    Compression mode                         : Lossless / Lossy
    Title                                    : Passengers.2016.1080p.3D.BluRay.Half-SBS.x264.DTS-HD.MA.5.1-FGT
    Language                                 : Portuguese
    Default                                  : No
    Forced                                   : No

    Audio #6
    ID                                       : 7
    Format                                   : DTS
    Format/Info                              : Digital Theater Systems
    Mode                                     : 16
    Format settings, Endianness              : Big
    Codec ID                                 : A_DTS
    Duration                                 : 1h 56mn
    Bit rate mode                            : Constant
    Bit rate                                 : 1 509 Kbps
    Channel(s)                               : 6 channels
    Channel positions                        : Front: L C R, Side: L R, LFE
    Sampling rate                            : 48.0 KHz
    Frame rate                               : 93.750 fps (512 spf)
    Bit depth                                : 16 bits
    Compression mode                         : Lossy
    Stream size                              : 1.22 GiB (6%)
    Title                                    : Passengers.2016.1080p.3D.BluRay.Half-SBS.x264.DTS-HD.MA.5.1-FGT
    Language                                 : French
    Default                                  : No
    Forced                                   : No

    Audio #7
    ID                                       : 8
    Format                                   : DTS
    Format/Info                              : Digital Theater Systems
    Mode                                     : 16
    Format settings, Endianness              : Big
    Codec ID                                 : A_DTS
    Duration                                 : 1h 56mn
    Bit rate mode                            : Constant
    Bit rate                                 : 1 509 Kbps
    Channel(s)                               : 6 channels
    Channel positions                        : Front: L C R, Side: L R, LFE
    Sampling rate                            : 48.0 KHz
    Frame rate                               : 93.750 fps (512 spf)
    Bit depth                                : 16 bits
    Compression mode                         : Lossy
    Stream size                              : 1.22 GiB (6%)
    Title                                    : Passengers.2016.1080p.3D.BluRay.Half-SBS.x264.DTS-HD.MA.5.1-FGT
    Language                                 : Portuguese
    Default                                  : No
    Forced                                   : No

    Text #1
    ID                                       : 9
    Format                                   : PGS
    Muxing mode                              : zlib
    Codec ID                                 : S_HDMV/PGS
    Codec ID/Info                            : Picture based subtitle format used on BDs/HD-DVDs
    Title                                    : English-PGS
    Language                                 : English
    Default                                  : Yes
    Forced                                   : No

    Text #2
    ID                                       : 10
    Format                                   : PGS
    Muxing mode                              : zlib
    Codec ID                                 : S_HDMV/PGS
    Codec ID/Info                            : Picture based subtitle format used on BDs/HD-DVDs
    Title                                    : English-SDH-PGS
    Language                                 : English
    Default                                  : No
    Forced                                   : No

    Text #3
    ID                                       : 11
    Format                                   : PGS
    Muxing mode                              : zlib
    Codec ID                                 : S_HDMV/PGS
    Codec ID/Info                            : Picture based subtitle format used on BDs/HD-DVDs
    Title                                    : Chinese-PGS
    Language                                 : Chinese
    Default                                  : No
    Forced                                   : No

    Text #4
    ID                                       : 12
    Format                                   : PGS
    Muxing mode                              : zlib
    Codec ID                                 : S_HDMV/PGS
    Codec ID/Info                            : Picture based subtitle format used on BDs/HD-DVDs
    Title                                    : Chinese-PGS
    Language                                 : Chinese
    Default                                  : No
    Forced                                   : No

    Text #5
    ID                                       : 13
    Format                                   : PGS
    Muxing mode                              : zlib
    Codec ID                                 : S_HDMV/PGS
    Codec ID/Info                            : Picture based subtitle format used on BDs/HD-DVDs
    Title                                    : Chinese-PGS
    Language                                 : Chinese
    Default                                  : No
    Forced                                   : No

    Text #6
    ID                                       : 14
    Format                                   : PGS
    Muxing mode                              : zlib
    Codec ID                                 : S_HDMV/PGS
    Codec ID/Info                            : Picture based subtitle format used on BDs/HD-DVDs
    Title                                    : French-PGS
    Language                                 : French
    Default                                  : No
    Forced                                   : No

    Text #7
    ID                                       : 15
    Format                                   : PGS
    Muxing mode                              : zlib
    Codec ID                                 : S_HDMV/PGS
    Codec ID/Info                            : Picture based subtitle format used on BDs/HD-DVDs
    Title                                    : Indonesian-PGS
    Language                                 : Indonesian
    Default                                  : No
    Forced                                   : No

    Text #8
    ID                                       : 16
    Format                                   : PGS
    Muxing mode                              : zlib
    Codec ID                                 : S_HDMV/PGS
    Codec ID/Info                            : Picture based subtitle format used on BDs/HD-DVDs
    Title                                    : Korean-pgs
    Language                                 : Korean
    Default                                  : No
    Forced                                   : No

    Text #9
    ID                                       : 17
    Format                                   : PGS
    Muxing mode                              : zlib
    Codec ID                                 : S_HDMV/PGS
    Codec ID/Info                            : Picture based subtitle format used on BDs/HD-DVDs
    Title                                    : Malay-PGS
    Language                                 : Malay
    Default                                  : No
    Forced                                   : No

    Text #10
    ID                                       : 18
    Format                                   : PGS
    Muxing mode                              : zlib
    Codec ID                                 : S_HDMV/PGS
    Codec ID/Info                            : Picture based subtitle format used on BDs/HD-DVDs
    Title                                    : Portuguese-PGS
    Language                                 : Portuguese
    Default                                  : No
    Forced                                   : No

    Text #11
    ID                                       : 19
    Format                                   : PGS
    Muxing mode                              : zlib
    Codec ID                                 : S_HDMV/PGS
    Codec ID/Info                            : Picture based subtitle format used on BDs/HD-DVDs
    Title                                    : Spanish-PGS
    Language                                 : Spanish
    Default                                  : No
    Forced                                   : No

    Text #12
    ID                                       : 20
    Format                                   : PGS
    Muxing mode                              : zlib
    Codec ID                                 : S_HDMV/PGS
    Codec ID/Info                            : Picture based subtitle format used on BDs/HD-DVDs
    Title                                    : Thai-PGS
    Language                                 : Thai
    Default                                  : No
    Forced                                   : No

    Text #13
    ID                                       : 21
    Format                                   : PGS
    Muxing mode                              : zlib
    Codec ID                                 : S_HDMV/PGS
    Codec ID/Info                            : Picture based subtitle format used on BDs/HD-DVDs
    Title                                    : Vietnamese-PGS
    Language                                 : Vietnamese
    Default                                  : No
    Forced                                   : No

    Text #14
    ID                                       : 22
    Format                                   : PGS
    Muxing mode                              : zlib
    Codec ID                                 : S_HDMV/PGS
    Codec ID/Info                            : Picture based subtitle format used on BDs/HD-DVDs
    Title                                    : French-PGS
    Language                                 : French
    Default                                  : No
    Forced                                   : No





    07541007039500464574_thumb.jpg

    19829934241781821346_thumb.jpg

    28754003748288857668_thumb.jpg

    32684052674671302872_thumb.jpg

    58482536291545869260_thumb.jpg

    87921444431027438730_thumb.jpg



    游客,如果您要查看本帖隐藏内容请回复







    Video
    ID                                       : 1
    Format                                   : AVC
    Format/Info                              : Advanced Video Codec
    Format profile                           : High@L4.1
    Format settings, CABAC                   : Yes
    Format settings, ReFrames                : 2 frames
    Codec ID                                 : V_MPEG4/ISO/AVC
    Duration                                 : 1h 56mn
    Nominal bit rate                         : 16.0 Mbps
    Width                                    : 1 920 pixels
    Height                                   : 1 080 pixels
    Display aspect ratio                     : 16:9
    Frame rate mode                          : Constant
    Frame rate                               : 23.976 (24000/1001) fps
    Color space                              : YUV
    Chroma subsampling                       : 4:2:0
    Bit depth                                : 8 bits
    Scan type                                : Progressive
    Bits/(Pixel*Frame)                       : 0.322
    Title                                    : Passengers.2016.1080p.3D.BluRay.Half-OU.x264.DTS-HD.MA.5.1-FGT
    Writing library                          : x264 core 142
    Encoding settings                        : cabac=1 / ref=1 / deblock=1:-1:-1 / analyse=0x3:0 / me=hex / subme=5 / psy=0 / mixed_ref=0 / me_range=16 / chroma_me=1 / trellis=0 / 8x8dct=1 / cqm=0 / deadzone=21,11 / fast_pskip=0 / chroma_qp_offset=0 / threads=8 / lookahead_threads=2 / sliced_threads=0 / nr=0 / decimate=1 / interlaced=0 / bluray_compat=0 / constrained_intra=0 / bframes=2 / b_pyramid=0 / b_adapt=1 / b_bias=0 / direct=1 / weightb=0 / open_gop=0 / weightp=0 / keyint=24 / keyint_min=13 / scenecut=40 / intra_refresh=0 / rc=abr / mbtree=0 / bitrate=16000 / ratetol=1.0 / qcomp=0.60 / qpmin=0 / qpmax=69 / qpstep=4 / ip_ratio=1.40 / pb_ratio=1.30 / aq=1:1.00
    Default                                  : Yes
    Forced                                   : No
    Color range                              : Limited
    Color primaries                          : BT.709
    Transfer characteristics                 : BT.709
    Matrix coefficients                      : BT.709

    Audio #1
    ID                                       : 2
    Format                                   : DTS
    Format/Info                              : Digital Theater Systems
    Format profile                           : MA / Core
    Mode                                     : 16
    Format settings, Endianness              : Big
    Codec ID                                 : A_DTS
    Duration                                 : 1h 56mn
    Bit rate mode                            : Variable / Constant
    Bit rate                                 : Unknown / 1 509 Kbps
    Channel(s)                               : 6 channels
    Channel positions                        : Front: L C R, Side: L R, LFE
    Sampling rate                            : 48.0 KHz
    Frame rate                               : 93.750 fps (512 spf)
    Bit depth                                : 16 bits
    Compression mode                         : Lossless / Lossy
    Title                                    : Passengers.2016.1080p.3D.BluRay.Half-OU.x264.DTS-HD.MA.5.1-FGT
    Language                                 : English
    Default                                  : Yes
    Forced                                   : No

    Audio #2
    ID                                       : 3
    Format                                   : DTS
    Format/Info                              : Digital Theater Systems
    Mode                                     : 16
    Format settings, Endianness              : Big
    Codec ID                                 : A_DTS
    Duration                                 : 1h 56mn
    Bit rate mode                            : Constant
    Bit rate                                 : 1 509 Kbps
    Channel(s)                               : 6 channels
    Channel positions                        : Front: L C R, Side: L R, LFE
    Sampling rate                            : 48.0 KHz
    Frame rate                               : 93.750 fps (512 spf)
    Bit depth                                : 16 bits
    Compression mode                         : Lossy
    Stream size                              : 1.22 GiB (5%)
    Title                                    : Passengers.2016.1080p.3D.BluRay.Half-OU.x264.DTS-HD.MA.5.1-FGT
    Language                                 : English
    Default                                  : No
    Forced                                   : No

    Audio #3
    ID                                       : 4
    Format                                   : AC-3
    Format/Info                              : Audio Coding 3
    Mode extension                           : CM (complete main)
    Format settings, Endianness              : Big
    Codec ID                                 : A_AC3
    Duration                                 : 1h 56mn
    Bit rate mode                            : Constant
    Bit rate                                 : 640 Kbps
    Channel(s)                               : 6 channels
    Channel positions                        : Front: L C R, Side: L R, LFE
    Sampling rate                            : 48.0 KHz
    Frame rate                               : 31.250 fps (1536 spf)
    Compression mode                         : Lossy
    Stream size                              : 532 MiB (2%)
    Title                                    : Passengers.2016.1080p.3D.BluRay.Half-OU.x264.DTS-HD.MA.5.1-FGT
    Language                                 : English
    Default                                  : No
    Forced                                   : No

    Audio #4
    ID                                       : 5
    Format                                   : DTS
    Format/Info                              : Digital Theater Systems
    Format profile                           : MA / Core
    Mode                                     : 16
    Format settings, Endianness              : Big
    Codec ID                                 : A_DTS
    Duration                                 : 1h 56mn
    Bit rate mode                            : Variable / Constant
    Bit rate                                 : Unknown / 1 509 Kbps
    Channel(s)                               : 6 channels
    Channel positions                        : Front: L C R, Side: L R, LFE
    Sampling rate                            : 48.0 KHz
    Frame rate                               : 93.750 fps (512 spf)
    Bit depth                                : 16 bits
    Compression mode                         : Lossless / Lossy
    Title                                    : Passengers.2016.1080p.3D.BluRay.Half-OU.x264.DTS-HD.MA.5.1-FGT
    Language                                 : French
    Default                                  : No
    Forced                                   : No

    Audio #5
    ID                                       : 6
    Format                                   : DTS
    Format/Info                              : Digital Theater Systems
    Format profile                           : MA / Core
    Mode                                     : 16
    Format settings, Endianness              : Big
    Codec ID                                 : A_DTS
    Duration                                 : 1h 56mn
    Bit rate mode                            : Variable / Constant
    Bit rate                                 : Unknown / 1 509 Kbps
    Channel(s)                               : 6 channels
    Channel positions                        : Front: L C R, Side: L R, LFE
    Sampling rate                            : 48.0 KHz
    Frame rate                               : 93.750 fps (512 spf)
    Bit depth                                : 16 bits
    Compression mode                         : Lossless / Lossy
    Title                                    : Passengers.2016.1080p.3D.BluRay.Half-OU.x264.DTS-HD.MA.5.1-FGT
    Language                                 : Portuguese
    Default                                  : No
    Forced                                   : No

    Audio #6
    ID                                       : 7
    Format                                   : DTS
    Format/Info                              : Digital Theater Systems
    Mode                                     : 16
    Format settings, Endianness              : Big
    Codec ID                                 : A_DTS
    Duration                                 : 1h 56mn
    Bit rate mode                            : Constant
    Bit rate                                 : 1 509 Kbps
    Channel(s)                               : 6 channels
    Channel positions                        : Front: L C R, Side: L R, LFE
    Sampling rate                            : 48.0 KHz
    Frame rate                               : 93.750 fps (512 spf)
    Bit depth                                : 16 bits
    Compression mode                         : Lossy
    Stream size                              : 1.22 GiB (5%)
    Title                                    : Passengers.2016.1080p.3D.BluRay.Half-OU.x264.DTS-HD.MA.5.1-FGT
    Language                                 : French
    Default                                  : No
    Forced                                   : No

    Audio #7
    ID                                       : 8
    Format                                   : DTS
    Format/Info                              : Digital Theater Systems
    Mode                                     : 16
    Format settings, Endianness              : Big
    Codec ID                                 : A_DTS
    Duration                                 : 1h 56mn
    Bit rate mode                            : Constant
    Bit rate                                 : 1 509 Kbps
    Channel(s)                               : 6 channels
    Channel positions                        : Front: L C R, Side: L R, LFE
    Sampling rate                            : 48.0 KHz
    Frame rate                               : 93.750 fps (512 spf)
    Bit depth                                : 16 bits
    Compression mode                         : Lossy
    Stream size                              : 1.22 GiB (5%)
    Title                                    : Passengers.2016.1080p.3D.BluRay.Half-OU.x264.DTS-HD.MA.5.1-FGT
    Language                                 : Portuguese
    Default                                  : No
    Forced                                   : No

    Text #1
    ID                                       : 9
    Format                                   : PGS
    Muxing mode                              : zlib
    Codec ID                                 : S_HDMV/PGS
    Codec ID/Info                            : Picture based subtitle format used on BDs/HD-DVDs
    Title                                    : English-PGS
    Language                                 : English
    Default                                  : No
    Forced                                   : No

    Text #2
    ID                                       : 10
    Format                                   : PGS
    Muxing mode                              : zlib
    Codec ID                                 : S_HDMV/PGS
    Codec ID/Info                            : Picture based subtitle format used on BDs/HD-DVDs
    Title                                    : English-SDH-PGS
    Language                                 : English
    Default                                  : No
    Forced                                   : No

    Text #3
    ID                                       : 11
    Format                                   : PGS
    Muxing mode                              : zlib
    Codec ID                                 : S_HDMV/PGS
    Codec ID/Info                            : Picture based subtitle format used on BDs/HD-DVDs
    Title                                    : Chinese-PGS
    Language                                 : Chinese
    Default                                  : No
    Forced                                   : No

    Text #4
    ID                                       : 12
    Format                                   : PGS
    Muxing mode                              : zlib
    Codec ID                                 : S_HDMV/PGS
    Codec ID/Info                            : Picture based subtitle format used on BDs/HD-DVDs
    Title                                    : Chinese-PGS
    Language                                 : Chinese
    Default                                  : No
    Forced                                   : No

    Text #5
    ID                                       : 13
    Format                                   : PGS
    Muxing mode                              : zlib
    Codec ID                                 : S_HDMV/PGS
    Codec ID/Info                            : Picture based subtitle format used on BDs/HD-DVDs
    Title                                    : Chinese-PGS
    Language                                 : Chinese
    Default                                  : No
    Forced                                   : No

    Text #6
    ID                                       : 14
    Format                                   : PGS
    Muxing mode                              : zlib
    Codec ID                                 : S_HDMV/PGS
    Codec ID/Info                            : Picture based subtitle format used on BDs/HD-DVDs
    Title                                    : French-PGS
    Language                                 : French
    Default                                  : No
    Forced                                   : No

    Text #7
    ID                                       : 15
    Format                                   : PGS
    Muxing mode                              : zlib
    Codec ID                                 : S_HDMV/PGS
    Codec ID/Info                            : Picture based subtitle format used on BDs/HD-DVDs
    Title                                    : Indonesian-PGS
    Language                                 : Indonesian
    Default                                  : No
    Forced                                   : No

    Text #8
    ID                                       : 16
    Format                                   : PGS
    Muxing mode                              : zlib
    Codec ID                                 : S_HDMV/PGS
    Codec ID/Info                            : Picture based subtitle format used on BDs/HD-DVDs
    Title                                    : Korean-PGS
    Language                                 : Korean
    Default                                  : No
    Forced                                   : No

    Text #9
    ID                                       : 17
    Format                                   : PGS
    Muxing mode                              : zlib
    Codec ID                                 : S_HDMV/PGS
    Codec ID/Info                            : Picture based subtitle format used on BDs/HD-DVDs
    Title                                    : Malay-PGS
    Language                                 : Malay
    Default                                  : No
    Forced                                   : No

    Text #10
    ID                                       : 18
    Format                                   : PGS
    Muxing mode                              : zlib
    Codec ID                                 : S_HDMV/PGS
    Codec ID/Info                            : Picture based subtitle format used on BDs/HD-DVDs
    Title                                    : Portuguese-PGS
    Language                                 : Portuguese
    Default                                  : No
    Forced                                   : No

    Text #11
    ID                                       : 19
    Format                                   : PGS
    Muxing mode                              : zlib
    Codec ID                                 : S_HDMV/PGS
    Codec ID/Info                            : Picture based subtitle format used on BDs/HD-DVDs
    Title                                    : Spanish-PGS
    Language                                 : Spanish
    Default                                  : No
    Forced                                   : No

    Text #12
    ID                                       : 20
    Format                                   : PGS
    Muxing mode                              : zlib
    Codec ID                                 : S_HDMV/PGS
    Codec ID/Info                            : Picture based subtitle format used on BDs/HD-DVDs
    Title                                    : Thai-PGS
    Language                                 : Thai
    Default                                  : No
    Forced                                   : No

    Text #13
    ID                                       : 21
    Format                                   : PGS
    Muxing mode                              : zlib
    Codec ID                                 : S_HDMV/PGS
    Codec ID/Info                            : Picture based subtitle format used on BDs/HD-DVDs
    Title                                    : Vietnamese-PGS
    Language                                 : Vietnamese
    Default                                  : No
    Forced                                   : No

    Text #14
    ID                                       : 22
    Format                                   : PGS
    Muxing mode                              : zlib
    Codec ID                                 : S_HDMV/PGS
    Codec ID/Info                            : Picture based subtitle format used on BDs/HD-DVDs
    Title                                    : French-FORCED-PGS
    Language                                 : French
    Default                                  : No
    Forced                                   : No





    40427011095704126486_thumb.jpg

    45484760464974920810_thumb.jpg

    54962263955752562052_thumb.jpg

    70746020999823708122_thumb.jpg

    76872875550648831475_thumb.jpg

    93175338852740000244_thumb.jpg




    游客,如果您要查看本帖隐藏内容请回复






    Качество: BDRip 1080p
    Формат: MKV
    Формат 3D: Half SideBySide / Горизонтальная анаморфная стереопара
    Порядок ракурсов: Левый-первый


    Видео: AVC/H.264, 1920x1080p, (16:9), 15.5 Mb/s
    Аудио: русский / AC3 / 5.1 / 48 kHz / 384 kbps / |Дубляж, iTunes|
    Аудио: AC3, 6 ch, 640 kb/s - Английский





    游客,如果您要查看本帖隐藏内容请回复






    Качество: BDRip 1080p
    Формат: MKV
    Формат 3D: Half OverUnder / Вертикальная анаморфная стереопара
    Порядок ракурсов: Левый-первый


    Видео: AVC/H.264, 1920x1080p, (16:9), 17.0 Mb/s
    Аудио: русский / AC3 / 5.1 / 48 kHz / 384 kbps / |Дубляж, iTunes|
    Аудио: AC3, 6 ch, 640 kb/s - Английский





    游客,如果您要查看本帖隐藏内容请回复






    Качество: BDRip (by Ash61)
    Контейнер: MKV
    Формат 3D: Half OverUnder / Вертикальная анаморфная стереопара
    Порядок ракурсов: левый ракурс первый



    Видео: AVC / 1920х1080p / 23,976 fps / 8226 Kbps

    Аудио:
    #1 - Русский / AC3 / 48 KHz / 5.1 ch / 384 Kbps (Дубляж - iTunes)
    #2 - Украинский / AC3 / 48 KHz / 2 ch / 192 Kbps (Дубляж - iTunes)
    #3 - Английский / AC3 / 48 KHz / 5.1 ch / 640 Kbps (Original)

    Субтитры (SRT):
    Вшитые (softsub):
    #1 - Русские Форсированные [расширенные] (включены по умолчанию)
    #2 - Русские Полные
    #3 - Украинские Форсированные [расширенные]
    #4 - Украинские Полные
    #5 - English Full
    #6 - English SDH

    Внешние (UTF-8):
    #1 - Русские Форсированные [расширенные] (включены по умолчанию)
    #2 - Украинские Форсированные [расширенные]





    游客,如果您要查看本帖隐藏内容请回复







    Качество: BDRip 1080p
    Формат: MKV
    Формат 3D: Half OverUnder / Вертикальная анаморфная стереопара
    Порядок ракурсов: Левый-первый
    Язык субтитров: русские (форсированные, полные), английские (полные)
    Вид субтитров: вшитые отключаемые

    Видео: AVC/H.264, 1920x1080, ~10000 kbps
    Аудио: AC3, 6 ch, 384 kbps - русский
    Аудио: AC3, 6 ch, 640 kbps - английский





    游客,如果您要查看本帖隐藏内容请回复





    Video
    ID                                       : 1
    Format                                   : AVC
    Format/Info                              : Advanced Video Codec
    Format profile                           : High@L4.1
    Format settings, CABAC                   : Yes
    Format settings, ReFrames                : 5 frames
    Codec ID                                 : V_MPEG4/ISO/AVC
    Duration                                 : 1h 56mn
    Bit rate                                 : 9 272 Kbps
    Width                                    : 1 920 pixels
    Height                                   : 808 pixels
    Display aspect ratio                     : 2.40:1
    Frame rate mode                          : Constant
    Frame rate                               : 23.976 fps
    Color space                              : YUV
    Chroma subsampling                       : 4:2:0
    Bit depth                                : 8 bits
    Scan type                                : Progressive
    Bits/(Pixel*Frame)                       : 0.249
    Stream size                              : 7.52 GiB (86%)
    Writing library                          : x264 core 148 r2744 b97ae06
    Encoding settings                        : cabac=1 / ref=5 / deblock=1:0:0 / analyse=0x3:0x133 / me=umh / subme=7 / psy=1 / psy_rd=1.00:0.00 / mixed_ref=1 / me_range=16 / chroma_me=1 / trellis=1 / 8x8dct=1 / cqm=0 / deadzone=21,11 / fast_pskip=0 / chroma_qp_offset=-2 / threads=25 / lookahead_threads=4 / sliced_threads=0 / nr=0 / decimate=1 / interlaced=0 / bluray_compat=0 / constrained_intra=0 / bframes=3 / b_pyramid=2 / b_adapt=1 / b_bias=0 / direct=1 / weightb=1 / open_gop=0 / weightp=2 / keyint=250 / keyint_min=23 / scenecut=40 / intra_refresh=0 / rc_lookahead=40 / rc=2pass / mbtree=1 / bitrate=9272 / ratetol=1.0 / qcomp=0.60 / qpmin=0 / qpmax=69 / qpstep=4 / cplxblur=20.0 / qblur=0.5 / ip_ratio=1.40 / aq=1:1.00
    Language                                 : English
    Default                                  : Yes
    Forced                                   : No

    Audio
    ID                                       : 2
    Format                                   : DTS
    Format/Info                              : Digital Theater Systems
    Mode                                     : 16
    Format settings, Endianness              : Big
    Codec ID                                 : A_DTS
    Duration                                 : 1h 56mn
    Bit rate mode                            : Constant
    Bit rate                                 : 1 509 Kbps
    Channel(s)                               : 6 channels
    Channel positions                        : Front: L C R, Side: L R, LFE
    Sampling rate                            : 48.0 KHz
    Frame rate                               : 93.750 fps (512 spf)
    Bit depth                                : 24 bits
    Compression mode                         : Lossy
    Stream size                              : 1.22 GiB (14%)
    Language                                 : English
    Default                                  : Yes
    Forced                                   : No






    06051109442469142689_thumb.jpg


    游客,如果您要查看本帖隐藏内容请回复

    匿名  发表于 2017-3-4 23:15:32
    太空旅客太空旅客太空旅客
    匿名  发表于 2017-3-4 23:17:16
    Passengers.2016.3D][1080p][MKV 22.16G/22.48G/13.41G/13.76G/7.82G/8.95G/8.75G]
  • TA的每日心情
    慵懒
    昨天 22:59
  • 签到天数: 423 天

    [LV.9]以坛为家II

    发表于 2017-3-4 23:18:18 | 显示全部楼层
    Passengers.2016.3D][1080p][MKV 22.16G/22.48G/13.41G/13.76G/7.82G/8.95G/8.75G]
    回复 支持 反对

    使用道具 举报

  • TA的每日心情
    慵懒
    昨天 23:25
  • 签到天数: 928 天

    [LV.10]以坛为家III

    发表于 2017-3-4 23:23:08 | 显示全部楼层
    Thank you
    回复 支持 反对

    使用道具 举报

  • TA的每日心情
    开心
    6 天前
  • 签到天数: 296 天

    [LV.8]以坛为家III

    发表于 2017-3-4 23:57:04 | 显示全部楼层
    高清3D版  下载收藏了
    回复 支持 反对

    使用道具 举报

  • TA的每日心情
    开心
    2017-3-7 00:04
  • 签到天数: 1098 天

    [LV.10]以坛为家III

    发表于 2017-3-5 00:08:25 | 显示全部楼层
    感谢楼主分享精彩电影!
    回复 支持 反对

    使用道具 举报

  • TA的每日心情
    开心
    2 小时前
  • 签到天数: 20 天

    [LV.4]偶尔看看III

    发表于 2017-3-5 00:16:24 | 显示全部楼层
    感謝分享喔!!
    回复 支持 反对

    使用道具 举报

  • TA的每日心情
    开心
    2017-3-17 00:47
  • 签到天数: 537 天

    [LV.9]以坛为家II

    发表于 2017-3-5 02:32:34 | 显示全部楼层
    又有新片了!
    回复 支持 反对

    使用道具 举报

  • TA的每日心情
    开心
    7 天前
  • 签到天数: 720 天

    [LV.9]以坛为家II

    发表于 2017-3-5 04:16:53 | 显示全部楼层
    多謝大大分享,好像很不錯的電影來看看3D版
    回复 支持 反对

    使用道具 举报

    高级模式
    B Color Image Link Quote Code Smilies

    本版积分规则

    免责申明|小黑屋|手机版|Archiver|网站地图| 3D一族论坛  

    Copyright © 2001-2015 Comsenz Inc.   All Rights Reserved.

    Powered by Discuz! X3.2( 沪ICP备14045620号-1 )

    快速回复 返回顶部 返回列表