请选择 进入手机版 | 继续访问电脑版
 找回密码

3D一族论坛

查看: 4930|回复: 157

[左右半宽] [太空旅客 3D 2016][合成3D字幕][Passengers 2016][1080P/H264][英 DTS/AC-3][MKV/12.32G/百Du]

  [复制链接]
  • TA的每日心情
    擦汗
    2017-8-12 09:35
  • 签到天数: 319 天

    [LV.8]以坛为家III

    发表于 2017-3-6 12:57:55 | 显示全部楼层 |阅读模式


    ◎译  名 太空旅客 / 太空潜航者 / 星际过客 / 旅客 / 乘客
    ◎片  名 Passengers
    ◎年  代 2016
    ◎国  家 美国
    ◎类  别 科幻 / 冒险
    ◎语  言 英语
    ◎上映日期 2017-01-13(中国大陆) / 2016-12-21(美国)
    ◎IMDb评分  7.0/10 from 112,050 users
    ◎IMDb链接  http://www.imdb.com/title/tt1355644/
    ◎豆瓣评分 6.9/10 from 71693 users
    ◎豆瓣链接 https://movie.douban.com/subject/3434070/
    ◎片  长 116分钟
    ◎导  演 莫滕·泰杜姆
    ◎主  演 詹妮弗·劳伦斯 Jennifer Lawrence
          克里斯·普拉特 Chris Pratt
          麦克·辛 Michael Sheen
          劳伦斯·菲什伯恩 Laurence Fishburne
          安迪·加西亚 Andy Garcia
          因德尔·库马尔 Inder Kumar
          奥罗拉·佩里纽 Aurora Perrineau

    ◎简  介 

      未来人类乘坐“阿瓦隆”号太空飞船进行星际旅行,准备前往另一颗星球,每位旅客都需要沉睡120年,电脑的一个小故障却让男女主角“意外”早醒了90年。孤独的太空旅行中,两位孤独的乘客开始相识相爱,但之后他们发现乘坐的飞船出现故障,而拯救5000名乘客的任务就落到他们二人肩上。


    编码信息:
    General
    Unique ID                      : 244334318211651684737995764538648093217 (0xB7D113F70E586D0E9DF0B0395370E221)
    Complete name                  : X:\[LYP]Passengers.2016.BluRay.1080p.x264.DTS\AC3 5.1.mkv
    Format                         : Matroska
    Format version                 : Version 4 / Version 2
    File size                      : 12.3 GiB
    Duration                       : 1h 56mn
    Overall bit rate               : 15.2 Mbps
    Encoded date                   : UTC 2017-03-05 13:15:50
    Writing application            : mkvmerge v7.5.0 ('Glass Culture') 64bit built on Jan  4 2015 16:48:44
    Writing library                : libebml v1.3.1 + libmatroska v1.4.2 / ShanaEncoder

    Video
    ID                             : 1
    Format                         : AVC
    Format/Info                    : Advanced Video Codec
    Format profile                 : Baseline@L4
    Format settings, CABAC         : No
    Format settings, ReFrames      : 3 frames
    Codec ID                       : V_MPEG4/ISO/AVC
    Duration                       : 1h 56mn
    Bit rate                       : 12.7 Mbps
    Width                          : 1 920 pixels
    Height                         : 804 pixels
    Display aspect ratio           : 2.40:1
    Frame rate mode                : Constant
    Frame rate                     : 23.976 (24000/1001) fps
    Color space                    : YUV
    Chroma subsampling             : 4:2:0
    Bit depth                      : 8 bits
    Scan type                      : Progressive
    Bits/(Pixel*Frame)             : 0.344
    Stream size                    : 10.3 GiB (84%)
    Writing library                : x264 core 148
    Encoding settings              : opencl=1 / cabac=0 / ref=3 / deblock=1:0:0 / analyse=0x1:0x111 / me=hex / subme=7 / psy=1 / psy_rd=1.00:0.00 / mixed_ref=1 / me_range=16 / chroma_me=1 / trellis=1 / 8x8dct=0 / cqm=0 / deadzone=21,11 / fast_pskip=1 / chroma_qp_offset=-2 / threads=12 / lookahead_threads=2 / sliced_threads=0 / nr=0 / decimate=1 / interlaced=0 / bluray_compat=0 / constrained_intra=0 / bframes=0 / weightp=0 / keyint=250 / keyint_min=23 / scenecut=40 / intra_refresh=0 / rc_lookahead=40 / rc=crf / mbtree=1 / crf=14.0 / qcomp=0.60 / qpmin=0 / qpmax=69 / qpstep=4 / ip_ratio=1.40 / aq=1:1.00
    Default                        : Yes
    Forced                         : No

    Audio #1
    ID                             : 2
    Format                         : DTS
    Format/Info                    : Digital Theater Systems
    Format profile                 : MA / Core
    Mode                           : 16
    Format settings, Endianness    : Big
    Codec ID                       : A_DTS
    Duration                       : 1h 56mn
    Bit rate mode                  : Variable / Constant
    Bit rate                       : 2 119 Kbps / 1 509 Kbps
    Channel(s)                     : 6 channels
    Channel positions              : Front: L C R, Side: L R, LFE
    Sampling rate                  : 48.0 KHz
    Frame rate                     : 93.750 fps (512 spf)
    Bit depth                      : 16 bits
    Compression mode               : Lossless / Lossy
    Stream size                    : 1.72 GiB (14%)
    Title                          : DTS
    Language                       : English
    Default                        : Yes
    Forced                         : No

    Audio #2
    ID                             : 3
    Format                         : AC-3
    Format/Info                    : Audio Coding 3
    Mode extension                 : CM (complete main)
    Format settings, Endianness    : Big
    Codec ID                       : A_AC3
    Duration                       : 1h 56mn
    Bit rate mode                  : Constant
    Bit rate                       : 320 Kbps
    Channel(s)                     : 6 channels
    Channel positions              : Front: L C R, Side: L R, LFE
    Sampling rate                  : 48.0 KHz
    Frame rate                     : 31.250 fps (1536 spf)
    Compression mode               : Lossy
    Stream size                    : 266 MiB (2%)
    Title                          : AC3
    Language                       : English
    Default                        : No
    Forced                         : No







    QQ截图20170306124850.png

    开启3D模式:

    1.png

    2.png

    3.png


    说明:
    1.开启预售模式,E币只需要10个。
       结束后,调整为20-30个。
    2.特效字幕,独家发布;字幕来源“字幕库”原盘字幕
    3.请时刻关注更新信息,资源在上传中。
    4.附件,请勿下载,请先购买,后续更新链接。

    5.2017-3-6  15:06更新下载地址.....

    游客,如果您要查看本帖隐藏内容请回复





  • TA的每日心情
    擦汗
    2016-1-4 09:19
  • 签到天数: 84 天

    [LV.6]常住居民II

    发表于 2017-3-6 13:29:39 | 显示全部楼层
    看一下好了未

    点评

    在线观看视频,投注,娱乐应有尽有 1946weide18.com 在线观看视频,投注,娱乐应有尽有 1946weide18.com  发表于 2017-7-11 17:39

    评分

    参与人数 1e币 -5 收起 理由
    lsjsyp -5 有灌水嫌疑,警告

    查看全部评分

    回复 支持 反对

    使用道具 举报

  • TA的每日心情
    郁闷
    3 天前
  • 签到天数: 814 天

    [LV.10]以坛为家III

    发表于 2017-3-6 13:41:21 | 显示全部楼层
    多謝樓主的分享。
    回复 支持 反对

    使用道具 举报

  • TA的每日心情
    郁闷
    3 天前
  • 签到天数: 814 天

    [LV.10]以坛为家III

    发表于 2017-3-6 13:42:40 | 显示全部楼层
    多謝樓主的分享。
    回复 支持 反对

    使用道具 举报

  • TA的每日心情
    开心
    2017-7-7 09:44
  • 签到天数: 91 天

    [LV.6]常住居民II

    发表于 2017-3-6 18:53:26 | 显示全部楼层
    特效不错的电源
    回复 支持 反对

    使用道具 举报

  • TA的每日心情
    开心
    2017-3-6 18:51
  • 签到天数: 300 天

    [LV.8]以坛为家III

    发表于 2017-3-6 18:55:37 | 显示全部楼层
    谢谢楼主分享精品资源!
    回复 支持 反对

    使用道具 举报

  • TA的每日心情
    开心
    2017-7-7 09:44
  • 签到天数: 91 天

    [LV.6]常住居民II

    发表于 2017-3-6 18:56:41 | 显示全部楼层
    特效不错的电源
    回复 支持 反对

    使用道具 举报

  • TA的每日心情
    开心
    3 天前
  • 签到天数: 1341 天

    [LV.10]以坛为家III

    发表于 2017-3-6 19:04:19 | 显示全部楼层
    2017年度太空科幻爱情片
    回复 支持 反对

    使用道具 举报

  • TA的每日心情
    奋斗
    3 天前
  • 签到天数: 1340 天

    [LV.10]以坛为家III

    发表于 2017-3-6 20:00:14 | 显示全部楼层
    谢谢楼主分享
    回复 支持 反对

    使用道具 举报

  • TA的每日心情
    奋斗
    3 天前
  • 签到天数: 506 天

    [LV.9]以坛为家II

    发表于 2017-3-6 20:10:50 | 显示全部楼层
    感谢楼主无私分享合成3D字幕
    回复 支持 反对

    使用道具 举报

    您需要登录后才可以回帖 登录 | 立即注册

    本版积分规则

    免责申明|小黑屋|手机版|Archiver|网站地图| 3D一族论坛  

    Copyright © 2001-2015 Comsenz Inc.   All Rights Reserved.

    Powered by Discuz! X3.2( 沪ICP备14045620号-1 )

    快速回复 返回顶部 返回列表